osu file format v14

[General]
AudioFilename: Undertale OST - Nyeh Heh Heh! Bonetrousle.mp3
AudioLeadIn: 0
PreviewTime: 64362
Countdown: 0
SampleSet: Normal
StackLeniency: 0.7
Mode: 0
LetterboxInBreaks: 0
WidescreenStoryboard: 1

[Editor]
DistanceSpacing: 1
BeatDivisor: 4
GridSize: 4
TimelineZoom: 2.799999

[Metadata]
Title:Nyeh Heh Heh! & Bonetrousle
TitleUnicode:Nyeh Heh Heh! & Bonetrousle
Artist:toby fox
ArtistUnicode:toby fox
Creator:DaxMasterix
Version:EASY
Source:UNDERTALE
Tags:chiptune radiation papyrus
BeatmapID:918484
BeatmapSetID:375994

[Difficulty]
HPDrainRate:2
CircleSize:2
OverallDifficulty:2
ApproachRate:3
SliderMultiplier:0.999999999999999
SliderTickRate:1

[Events]
//Background and Video events
0,0,"BG.jpg",0,0
//Break Periods
//Storyboard Layer 0 (Background)
//Storyboard Layer 1 (Fail)
//Storyboard Layer 2 (Pass)
//Storyboard Layer 3 (Foreground)
//Storyboard Sound Samples

[TimingPoints]
362,400,4,2,0,25,1,0
32362,-100,4,1,1,45,0,0
64362,-100,4,1,1,45,0,1
83562,-100,4,2,0,25,0,0
89562,-100,4,1,2,45,0,0

[Colours]
Combo1 : 0,64,128
Combo2 : 192,192,192
Combo3 : 96,96,96
Combo4 : 0,128,192

[HitObjects]
88,296,362,6,0,P|48:208|72:112,2,200,0|2|0,0:0|0:0|0:0,0:0:0:0:
256,192,2762,1,2,0:0:0:0:
424,88,3562,6,0,P|464:176|440:272,2,200,0|2|0,0:0|0:0|0:0,0:0:0:0:
256,192,5962,1,2,0:0:0:0:
88,296,6762,38,0,P|48:208|72:112,1,200,0|2,0:0|0:0,0:0:0:0:
156,56,7962,1,0,0:0:0:0:
256,52,8362,2,0,L|256:272,1,200,0|2,0:0|0:0,0:0:0:0:
328,324,9562,1,0,0:0:0:0:
424,296,9962,6,0,P|464:206|439:111,1,200,0|2,0:0|0:0,0:0:0:0:
356,56,11162,1,0,0:0:0:0:
256,52,11562,2,0,L|256:220,2,99.9999999999999,0|2|0,0:0|0:0|0:0,0:0:0:0:
159,226,13162,38,0,P|259:246|355:226,1,200,0|2,0:0|0:0,0:0:0:0:
452,207,14362,1,0,0:0:0:0:
385,132,14762,2,0,B|411:40|411:40|357:21|300:36,1,200,0|2,0:0|0:0,0:0:0:0:
256,120,15962,1,0,0:0:0:0:
203,34,16362,6,0,B|155:21|101:40|101:40|127:132,1,200,0|2,0:0|0:0,0:0:0:0:
60,207,17562,1,0,0:0:0:0:
159,226,17962,2,0,L|260:244,1,99.9999999999999
353,226,18762,1,2,0:0:0:0:
212,84,19562,38,0,P|119:57|45:118,1,200,0|2,0:0|0:0,0:0:0:0:
141,152,20762,1,0,0:0:0:0:
69,221,21162,2,0,P|162:245|237:185,1,200,0|2,0:0|0:0,0:0:0:0:
328,224,22362,1,0,0:0:0:0:
284,316,22762,6,0,P|400:332|476:300,3,200,0|2|0|2,0:0|0:0|0:0|0:0,0:0:0:0:
460,100,25962,38,0,P|453:195|370:242,1,200,0|2,0:0|0:0,0:0:0:0:
374,143,27162,1,0,0:0:0:0:
372,40,27562,2,0,P|289:89|283:186,1,200,0|2,0:0|0:0,0:0:0:0:
276,284,28762,1,0,0:0:0:0:
192,232,29162,6,0,P|134:264|-2:276,1,200
20,76,30762,2,0,P|62:50|111:40,1,99.9999999999999
204,76,31562,1,2,0:0:0:0:
292,128,31962,1,0,0:0:0:0:
340,216,32362,6,0,B|396:304|396:304|460:264|456:126,1,300,0|2,0:0|0:0,0:0:0:0:
356,116,33962,2,0,B|300:28|300:28|236:68|239:205,1,300,0|2,0:0|0:0,0:0:0:0:
236,304,35562,6,0,B|148:348|148:348|40:312|12:210,1,300,0|2,0:0|0:0,0:0:0:0:
12,112,37162,2,0,B|100:68|100:68|208:104|235:205,1,300,0|2,0:0|0:0,0:0:0:0:
236,304,38762,38,0,P|333:324|430:304,1,200
480,216,39962,1,2,0:0:0:0:
429,126,40362,2,0,P|332:107|235:128,1,200
156,192,41562,1,2,0:0:0:0:
104,276,41962,6,0,B|8:224|8:112,1,200
64,28,43162,1,2,0:0:0:0:
164,24,43562,2,0,B|260:76|259:187,1,200
396,335,45162,38,0,P|443:252|404:164,1,200
348,248,46362,1,2,0:0:0:0:
290,330,46762,2,0,P|252:242|300:159,1,200
400,160,47962,1,2,0:0:0:0:
447,71,48362,6,0,P|350:51|253:71,1,200
300,160,49562,1,2,0:0:0:0:
346,247,49962,2,0,P|298:263|248:267,1,99.9999999999999,0|2,0:0|0:0,0:0:0:0:
148,261,50762,1,0,0:0:0:0:
58,82,51562,38,0,B|130:49|197:93|255:74,1,200
348,36,52762,1,2,0:0:0:0:
448,36,53162,2,0,B|481:108|437:175|455:233,1,200
494,326,54362,1,2,0:0:0:0:
403,368,54762,6,0,P|304:368|209:336,1,200
244,248,55962,1,2,0:0:0:0:
208,155,56362,2,0,P|302:124|401:123,1,200
244,248,57962,38,0,B|148:296|148:296|112:260|119:211,1,200
168,124,59162,1,2,0:0:0:0:
256,76,59562,2,0,B|352:28|352:28|388:64|380:112,1,200
332,200,60762,1,2,0:0:0:0:
244,248,61162,6,0,B|148:296|148:296|57:315,1,200
0,232,62362,1,2,0:0:0:0:
57,148,62762,2,0,L|146:103,1,99.9999999999999,0|2,0:0|0:0,0:0:0:0:
236,60,63562,1,0,0:0:0:0:
304,247,64362,38,0,P|255:255|206:247,1,99.9999999999999,4|10,1:0|0:0,0:0:0:0:
206,146,65162,2,0,P|255:138|304:146,1,99.9999999999999,0|10,0:0|0:0,0:0:0:0:
304,247,65962,2,0,B|392:287|392:287|446:276|468:225,1,200
482,125,67162,1,10,0:0:0:0:
448,31,67562,6,0,P|349:35|255:68,1,200
188,140,68762,1,10,0:0:0:0:
256,212,69162,2,0,P|350:244|449:248,1,200
504,332,70362,1,10,0:0:0:0:
404,340,70762,38,0,L|305:358,1,99.9999999999999,0|10,0:0|0:0,0:0:0:0:
256,272,71562,2,0,L|157:290,1,99.9999999999999,0|10,0:0|0:0,0:0:0:0:
59,303,72362,2,0,P|39:206|59:109,1,200
136,44,73562,1,10,0:0:0:0:
236,27,73962,6,0,P|335:32|422:79,1,200
472,168,75162,1,10,0:0:0:0:
421,256,75562,2,0,P|334:303|235:307,1,200
136,296,76762,1,10,0:0:0:0:
56,236,77162,38,0,L|44:136,1,99.9999999999999,4|10,0:0|0:0,0:0:0:0:
108,60,77962,2,0,L|208:48,1,99.9999999999999,0|10,0:0|0:0,0:0:0:0:
308,48,78762,2,0,B|404:60|404:60|460:88|473:133,1,200
484,232,79962,1,10,0:0:0:0:
436,320,80362,6,0,P|342:352|245:335,1,200
184,256,81562,1,10,0:0:0:0:
245,175,81962,2,0,P|342:159|435:191,1,200
299,340,83562,6,0,P|202:357|109:324,2,200,0|2|0,0:0|0:0|0:0,0:0:0:0:
348,252,85562,2,0,L|446:232,1,99.9999999999999,2|0,0:0|0:0,0:0:0:0:
512,156,86362,1,2,0:0:0:0:
439,87,86762,6,0,P|346:55|249:71,1,200,0|2,0:0|0:0,0:0:0:0:
228,172,87962,1,0,0:0:0:0:
205,271,88362,2,0,P|108:288|15:255,1,200,0|2,0:0|0:0,0:0:0:0:
0,156,89562,1,0,0:0:0:0:
