osu file format v14

[General]
AudioFilename: audio.mp3
AudioLeadIn: 0
PreviewTime: -1
Countdown: 0
SampleSet: Normal
StackLeniency: 0.7
Mode: 1
LetterboxInBreaks: 0
WidescreenStoryboard: 0

[Editor]
DistanceSpacing: 1
BeatDivisor: 4
GridSize: 4
TimelineZoom: 1

[Metadata]
Title:Metal Crusher
TitleUnicode:Metal Crusher
Artist:toby fox
ArtistUnicode:toby fox
Creator:Sparky Sama
Version:Kantan
Source:Undertale
Tags:mettaton volta undertale metal crusher quiz show oreobitz
BeatmapID:995908
BeatmapSetID:465195

[Difficulty]
HPDrainRate:7
CircleSize:4
OverallDifficulty:4
ApproachRate:8
SliderMultiplier:1.4
SliderTickRate:1

[Events]
//Background and Video events
0,0,"box_mettaton_by_oreobitz-d9zm8k0.jpg",0,0
//Break Periods
//Storyboard Layer 0 (Background)
//Storyboard Layer 1 (Fail)
//Storyboard Layer 2 (Pass)
//Storyboard Layer 3 (Foreground)
//Storyboard Sound Samples

[TimingPoints]
0.126629190497127,517.234715025907,4,1,0,100,1,0
4140,-100,4,1,0,100,0,0
20685,-100,4,1,0,100,0,0
37240,-100,4,1,0,100,0,1
53790,-100,4,1,0,100,0,0

[HitObjects]
256,188,0,5,0,0:0:0:0:
260,192,1034,1,0,0:0:0:0:
260,192,2069,1,0,0:0:0:0:
296,252,2586,1,0,0:0:0:0:
260,192,3103,1,0,0:0:0:0:
256,188,4138,1,6,0:0:0:0:
256,188,4655,1,2,0:0:0:0:
140,168,5172,1,0,0:0:0:0:
156,284,5689,1,0,0:0:0:0:
256,192,6206,1,2,0:0:0:0:
256,192,6724,1,2,0:0:0:0:
256,192,7241,1,0,0:0:0:0:
248,180,7758,1,0,0:0:0:0:
248,180,8275,1,2,0:0:0:0:
248,180,8793,1,0,0:0:0:0:
232,208,9310,1,2,0:0:0:0:
252,196,9827,1,0,0:0:0:0:
256,188,10344,1,0,0:0:0:0:
256,188,10862,1,0,0:0:0:0:
256,188,11379,1,2,0:0:0:0:
256,188,11896,1,2,0:0:0:0:
256,188,12413,1,6,0:0:0:0:
256,188,12930,1,0,0:0:0:0:
256,188,13448,1,0,0:0:0:0:
256,196,13965,1,2,0:0:0:0:
264,200,14482,1,2,0:0:0:0:
264,196,14999,1,0,0:0:0:0:
200,232,15517,1,0,0:0:0:0:
216,180,16034,1,2,0:0:0:0:
240,168,16551,1,2,0:0:0:0:
288,180,17068,1,0,0:0:0:0:
264,212,17586,1,2,0:0:0:0:
244,200,18103,1,0,0:0:0:0:
200,192,18620,1,2,0:0:0:0:
256,192,19137,1,0,0:0:0:0:
256,192,19655,1,0,0:0:0:0:
256,192,20172,1,0,0:0:0:0:
280,200,20689,1,6,0:0:0:0:
240,200,21723,1,2,0:0:0:0:
104,40,22758,1,2,0:0:0:0:
276,216,23275,1,0,0:0:0:0:
256,188,23792,1,2,0:0:0:0:
244,152,24310,1,2,0:0:0:0:
252,192,24827,1,0,0:0:0:0:
252,192,25861,1,2,0:0:0:0:
252,192,26896,1,2,0:0:0:0:
392,104,27413,1,2,0:0:0:0:
336,160,27930,1,2,0:0:0:0:
256,184,28965,1,0,0:0:0:0:
240,208,29999,1,2,0:0:0:0:
232,208,31034,1,2,0:0:0:0:
368,160,31551,1,2,0:0:0:0:
244,164,32068,1,2,0:0:0:0:
256,188,32585,1,2,0:0:0:0:
256,188,33103,1,0,0:0:0:0:
264,192,34137,1,2,0:0:0:0:
280,84,34654,1,0,0:0:0:0:
256,196,35172,1,0,0:0:0:0:
256,192,36206,1,4,0:0:0:0:
256,136,36723,1,6,0:0:0:0:
256,192,37241,1,6,0:0:0:0:
256,192,37758,1,2,0:0:0:0:
268,208,38275,1,0,0:0:0:0:
264,208,38792,1,0,0:0:0:0:
200,228,39309,1,2,0:0:0:0:
280,232,39827,1,2,0:0:0:0:
268,208,40344,1,0,0:0:0:0:
216,204,40861,1,0,0:0:0:0:
256,192,41378,1,2,0:0:0:0:
248,188,41896,1,0,0:0:0:0:
272,208,42413,1,2,0:0:0:0:
232,224,42930,1,0,0:0:0:0:
252,188,43447,1,0,0:0:0:0:
256,204,43965,1,0,0:0:0:0:
256,200,44482,1,2,0:0:0:0:
256,204,44999,1,2,0:0:0:0:
256,188,45516,1,6,0:0:0:0:
256,188,46033,1,0,0:0:0:0:
256,188,46551,1,0,0:0:0:0:
256,196,47068,1,2,0:0:0:0:
264,200,47585,1,2,0:0:0:0:
264,196,48102,1,0,0:0:0:0:
200,232,48620,1,0,0:0:0:0:
216,180,49137,1,2,0:0:0:0:
240,168,49654,1,2,0:0:0:0:
288,180,50171,1,0,0:0:0:0:
264,212,50689,1,2,0:0:0:0:
244,200,51206,1,0,0:0:0:0:
200,192,51723,1,2,0:0:0:0:
256,192,52240,1,0,0:0:0:0:
256,192,52758,1,0,0:0:0:0:
256,192,53275,1,0,0:0:0:0:
280,200,53792,1,6,0:0:0:0:
