osu file format v14

[General]
AudioFilename: audio.mp3
AudioLeadIn: 0
PreviewTime: -1
Countdown: 1
SampleSet: None
StackLeniency: 0.7
Mode: 0
LetterboxInBreaks: 0
WidescreenStoryboard: 0

[Editor]
DistanceSpacing: 0.6
BeatDivisor: 4
GridSize: 4
TimelineZoom: 1

[Metadata]
Title:Metal Crusher
TitleUnicode:Metal Crusher
Artist:toby fox
ArtistUnicode:toby fox
Creator:ChronoNig
Version:!?!?!?!
Source:the darkest timeline
Tags:isabelle main
BeatmapID:2012448
BeatmapSetID:961268

[Difficulty]
HPDrainRate:5.5
CircleSize:5
OverallDifficulty:8.7
ApproachRate:9.3
SliderMultiplier:1.8
SliderTickRate:1

[Events]
//Background and Video events
0,0,"-9a81dlWLwJ2UUGcVs_nsVtzdOEdtWwKGZZLQHTxH5rd9eDAjcFyv45SRYAFMIcKL_PArgVSL403ulRUWEndVKv5g5iGAA07dgAE4Or9f1A20KaZJj4bvdqywoPfxvT3Mr2IkzlUuZQo0--Vp9j20Bq-uxT3Aa_pqQ.jpg",0,0
//Break Periods
//Storyboard Layer 0 (Background)
//Storyboard Layer 1 (Fail)
//Storyboard Layer 2 (Pass)
//Storyboard Layer 3 (Foreground)
//Storyboard Sound Samples

[TimingPoints]
90,258.620689655172,4,2,0,40,1,0
90,-133.333333333333,4,2,0,40,0,0
4227,-100,4,2,0,59,0,0
12245,-83.3333333333333,4,2,0,59,0,0
12503,-100,4,2,0,59,0,0
13279,-111.111111111111,4,2,0,59,0,0
13796,-142.857142857143,4,2,0,59,0,0
14314,-90.9090909090909,4,2,0,59,0,0
17417,-111.111111111111,4,2,0,59,0,0
17934,-142.857142857143,4,2,0,59,0,0
18452,-90.9090909090909,4,2,0,59,0,0
20779,-125,4,2,0,59,0,0
23365,-166.666666666667,4,2,0,59,0,0
23883,-100,4,2,0,59,0,0
24400,-111.111111111111,4,2,0,59,0,0
24917,-125,4,2,0,59,0,0
29055,-100,4,2,0,59,0,0
31641,-90.9090909090909,4,2,0,59,0,0
32158,-125,4,2,0,59,0,0
32676,-111.111111111111,4,2,0,59,0,0
33193,-100,4,2,0,59,0,0
35262,-133.333333333333,4,2,0,59,0,0
36814,-166.666666666667,4,2,0,59,0,0
37331,-100,4,2,0,59,0,0
45607,-90.9090909090909,4,2,0,59,0,0
46383,-111.111111111111,4,2,0,59,0,0
46900,-142.857142857143,4,2,0,59,0,0
47675,-90.909090909091,4,2,0,59,0,0
50521,-111.111111111111,4,2,0,59,0,0
51038,-142.857142857143,4,2,0,59,0,0
51813,-90.909090909091,4,2,0,59,0,0
53883,-142.857142857143,4,2,0,59,0,0

[Colours]
Combo1 : 64,0,64
Combo2 : 179,102,255

[HitObjects]
138,15,90,6,0,B|142:59|142:59|152:67|152:67|133:69|133:69|142:75|142:75|147:134,1,135.000005149842
152,211,477,1,0,0:0:0:0:
163,125,607,6,0,B|194:129|194:129|202:137|202:137|230:140,1,67.5000025749208
138,213,865,2,0,B|107:217|107:217|99:225|99:225|71:228,1,67.5000025749208
263,301,1124,6,0,B|242:323|242:323|239:302|239:302|235:300|235:300|239:298|239:298|232:224,1,135.000005149842
226,139,1512,1,0,0:0:0:0:
326,39,1641,6,0,B|319:96|319:96|327:88|327:88|319:154|319:154|413:132,1,202.500007724762
452,361,2158,6,0,B|453:338|453:338|444:332|444:332|463:335|463:335|448:316|448:316|459:316|459:316|452:304|452:304|457:299|457:299|456:293|456:293|459:248,1,135.000005149842
464,193,2546,1,0,0:0:0:0:
366,215,2676,6,0,B|384:240|384:240|375:292,1,67.5000025749208
290,360,2934,2,0,B|308:335|308:335|299:283,1,67.5000025749208
201,157,3193,6,0,B|206:183|206:183|225:186|225:186|184:193|184:193|222:208|222:208|195:214|195:214|219:225|219:225|202:230|202:230|217:241|217:241|206:245|206:245|213:254|213:254|219:306,1,270.000010299683
216,282,4227,6,0,B|166:285|166:285|164:290|164:290|162:285|162:285|111:288,1,90
13,179,4486,5,0,0:0:0:0:
112,287,4615,1,0,0:0:0:0:
157,148,4745,1,0,0:0:0:0:
138,143,5003,5,0,0:0:0:0:
227,46,5132,1,0,0:0:0:0:
267,171,5262,1,0,0:0:0:0:
249,175,5521,5,0,0:0:0:0:
329,262,5650,1,0,0:0:0:0:
364,149,5780,1,0,0:0:0:0:
508,244,6038,5,0,0:0:0:0:
418,253,6168,1,0,0:0:0:0:
329,262,6296,6,0,B|288:265|288:265|280:259|280:259|231:262,1,90
152,347,6555,2,0,B|195:363|195:363|242:336,1,90
218,188,6814,2,0,B|175:172|175:172|127:198,1,90
62,274,7072,5,0,0:0:0:0:
53,176,7201,1,0,0:0:0:0:
44,79,7331,1,0,0:0:0:0:
47,284,7589,5,0,0:0:0:0:
37,177,7718,1,0,0:0:0:0:
26,70,7848,1,0,0:0:0:0:
30,295,8107,5,0,0:0:0:0:
119,113,8236,1,0,0:0:0:0:
119,113,8301,1,0,0:0:0:0:
119,113,8365,6,0,B|157:109|157:109|159:113|159:113|161:109|161:109|232:103,1,90
430,30,8624,5,0,0:0:0:0:
335,75,8753,1,0,0:0:0:0:
496,110,8883,1,0,0:0:0:0:
351,162,9141,5,0,0:0:0:0:
436,202,9270,1,0,0:0:0:0:
291,233,9400,1,0,0:0:0:0:
416,285,9658,5,0,0:0:0:0:
339,320,9787,1,0,0:0:0:0:
469,348,9917,1,0,0:0:0:0:
226,364,10176,5,0,0:0:0:0:
215,274,10306,1,0,0:0:0:0:
204,185,10434,6,0,B|170:156|170:156|113:166,1,90
114,9,10693,2,0,B|105:52|105:52|143:97,1,90
6,174,10952,2,0,B|48:159|48:159|67:104,1,90
268,62,11210,5,0,0:0:0:0:
365,73,11339,1,0,0:0:0:0:
462,84,11469,1,0,0:0:0:0:
475,69,11727,5,0,0:0:0:0:
368,57,11857,1,0,0:0:0:0:
261,45,11986,1,0,0:0:0:0:
420,153,12116,1,0,0:0:0:0:
420,153,12181,1,0,0:0:0:0:
420,153,12245,6,0,B|424:199|424:199|415:206|415:206|422:268,1,107.999996704102
323,155,12503,6,0,B|282:158|282:158|279:155|279:155|281:158|281:158|228:163,1,90
141,319,12762,5,0,0:0:0:0:
280,331,12891,1,0,0:0:0:0:
419,342,13021,2,0,B|422:301|422:301|416:296|416:296|422:223,1,90
423,223,13279,5,0,0:0:0:0:
298,233,13408,1,0,0:0:0:0:
173,243,13538,2,0,B|169:206|169:206|174:202|174:202|170:147,1,80.9999975280763
169,135,13796,5,0,0:0:0:0:
281,143,13925,1,0,0:0:0:0:
393,152,14055,2,0,B|396:123|396:123|391:118|391:118|397:62,1,62.9999980773926
509,330,14314,5,0,0:0:0:0:
419,342,14444,1,0,0:0:0:0:
330,355,14572,6,0,B|306:310|306:310|325:266,1,99.0000030212403
182,362,14831,2,0,B|202:315|202:315|179:274,1,99.0000030212403
248,152,15089,2,0,B|248:189|248:189|255:199|255:199|249:209|249:209|251:251,1,99.0000030212403
141,157,15348,5,0,0:0:0:0:
248,152,15477,1,0,0:0:0:0:
355,148,15607,1,0,0:0:0:0:
130,140,15865,5,0,0:0:0:0:
248,135,15994,1,0,0:0:0:0:
366,128,16124,1,0,0:0:0:0:
119,123,16383,5,0,0:0:0:0:
68,333,16511,1,0,0:0:0:0:
68,333,16576,1,0,0:0:0:0:
68,333,16641,6,0,B|63:275|63:275|67:271|67:271|62:269|62:269|57:222,1,99.0000030212403
30,14,16900,5,0,0:0:0:0:
13,154,17029,1,0,0:0:0:0:
194,119,17158,2,0,B|111:135|111:135|120:119,1,99.0000030212403
184,328,17417,5,0,0:0:0:0:
168,202,17546,1,0,0:0:0:0:
331,233,17675,2,0,B|262:221|262:221|272:240,1,80.9999975280763
323,36,17934,5,0,0:0:0:0:
308,149,18063,1,0,0:0:0:0:
455,121,18192,2,0,B|400:130|400:130|408:114,1,62.9999980773926
145,11,18452,5,0,0:0:0:0:
233,24,18581,1,0,0:0:0:0:
323,36,18710,6,0,B|369:40|369:40|373:34|373:34|450:42,1,99.0000030212403
408,213,18969,2,0,B|385:166|385:166|403:122,1,99.0000030212403
432,295,19227,2,0,B|387:304|387:304|382:298|382:298|337:307,1,99.0000030212403
234,233,19486,5,0,0:0:0:0:
149,329,19615,1,0,0:0:0:0:
46,255,19745,1,0,0:0:0:0:
36,253,20003,5,0,0:0:0:0:
149,334,20133,1,0,0:0:0:0:
243,229,20262,1,0,0:0:0:0:
130,148,20391,5,0,0:0:0:0:
219,138,20521,5,0,0:0:0:0:
327,127,20650,5,0,0:0:0:0:
459,112,20779,6,0,B|454:169|454:169|459:170|459:170|453:231|453:231|422:190|422:190,1,144
458,310,21167,1,0,0:0:0:0:
381,266,21296,2,0,B|347:268|347:268|347:264|347:264|313:266,1,72
277,342,21555,2,0,B|307:361|307:361|340:346,1,72
322,132,21814,6,0,B|320:167|320:167|323:167|323:167|320:169|320:169|317:202|317:202|307:212|307:212|313:268,1,144
277,342,22202,1,0,0:0:0:0:
233,262,22331,2,0,B|200:261|200:261|195:254|195:254|150:253,1,72
98,308,22589,2,0,B|77:280|77:280|86:230,1,72
73,62,22848,6,0,B|116:83|116:83|132:186,1,144
150,13,23236,1,0,0:0:0:0:
243,169,23365,6,0,B|208:152|208:152|195:68,1,107.999996704102
189,236,23753,1,0,0:0:0:0:
282,95,23883,6,0,B|331:100|331:100|339:113|339:113|365:116|365:116|366:120|366:120|368:117|368:117|394:119|394:119|404:109|404:109|475:116,1,180
512,228,24271,1,0,0:0:0:0:
512,228,24335,1,0,0:0:0:0:
512,228,24400,6,0,B|463:233|463:233|455:246|455:246|429:249|429:249|428:253|428:253|426:250|426:250|400:252|400:252|390:242|390:242|319:249,1,180
327,331,24788,1,0,0:0:0:0:
272,212,24917,6,0,B|282:148|282:148|271:158|271:158|284:77,1,144
368,83,25305,1,0,0:0:0:0:
318,15,25434,2,0,B|287:18|287:18|280:14|280:14|220:21,1,72
179,71,25693,2,0,B|145:84|145:84|116:54,1,72
193,151,25952,6,0,B|124:177|124:177|75:125,1,144
30,203,26339,1,0,0:0:0:0:
61,288,26469,2,0,B|93:289|93:289|97:296|97:296|146:300,1,72
192,365,26727,2,0,B|224:364|224:364|228:357|228:357|259:354,1,72
460,295,26986,5,0,0:0:0:0:
401,179,27116,1,0,0:0:0:0:
330,287,27245,1,0,0:0:0:0:
490,207,27503,5,0,0:0:0:0:
310,196,27633,1,0,0:0:0:0:
391,357,27762,1,0,0:0:0:0:
398,252,28021,6,0,B|401:210|401:210|397:206|397:206|399:180|399:180|401:178|401:178|399:176|399:176|401:156|401:156|405:153|405:153|410:82,1,144
418,23,28408,1,0,0:0:0:0:
418,23,28473,1,0,0:0:0:0:
418,23,28538,5,0,0:0:0:0:
330,0,28667,5,0,0:0:0:0:
227,26,28796,5,0,0:0:0:0:
158,119,28926,5,0,0:0:0:0:
195,267,29055,6,0,B|254:261|254:261|258:266|258:266|317:260|317:260|261:302,1,180
342,341,29443,1,0,0:0:0:0:
395,277,29572,2,0,B|391:239|391:239|393:237|393:237|390:235|390:235|382:160,1,90
478,268,29831,2,0,B|473:313|473:313|470:315|470:315|472:317|472:317|468:355,1,90
385,189,30089,6,0,B|426:183|426:183|427:189|427:189|430:182|430:182|502:172|502:172|442:139,1,180
375,105,30477,1,0,0:0:0:0:
306,197,30607,2,0,B|281:159|281:159|310:80,1,90
365,25,30865,2,0,B|390:63|390:63|361:142,1,90
274,24,31124,6,0,B|205:31|205:31|187:66|187:66|107:74,1,180
56,4,31512,1,0,0:0:0:0:
3,126,31641,6,0,B|82:138|82:138|105:173|105:173|191:183,1,198.000006042481
253,129,32029,1,0,0:0:0:0:
311,199,32158,6,0,B|306:248|306:248|313:259|313:259|298:258|298:258|305:268|305:268|298:343,1,144
211,300,32546,1,0,0:0:0:0:
390,344,32676,6,0,B|395:276|395:276|390:267|390:267|402:270|402:270|397:261|397:261|403:186,1,161.999995056153
494,201,33064,1,0,0:0:0:0:
311,199,33193,6,0,B|266:203|266:203|251:194|251:194|216:215|216:215|202:205|202:205|117:212,1,180
53,218,33581,1,0,0:0:0:0:
142,209,33710,2,0,B|138:167|138:167|143:164|143:164|134:88,1,90
133,33,33969,1,0,0:0:0:0:
59,83,34098,1,0,0:0:0:0:
218,73,34227,6,0,B|270:71|270:71|278:78|278:78|337:74|337:74|346:80|346:80|429:73,1,180
480,96,34615,1,0,0:0:0:0:
409,153,34745,2,0,B|380:117|380:117|401:48,1,90
462,1,35003,1,0,0:0:0:0:
480,96,35133,1,0,0:0:0:0:
498,191,35262,6,0,B|475:249|475:249|485:298|485:298|457:333|457:333|421:309|421:309|411:268|411:268|374:249|374:249|350:283|350:283|358:320|358:320|331:306|331:306|309:327|309:327|245:332,1,472.500018024445
188,336,36232,1,0,0:0:0:0:
188,336,36296,5,0,0:0:0:0:
116,279,36426,1,0,0:0:0:0:
124,189,36555,1,0,0:0:0:0:
196,246,36685,1,0,0:0:0:0:
44,222,36814,5,0,0:0:0:0:
44,222,37331,2,0,B|46:173|46:173|50:172|50:172|46:170|46:170|49:111,1,90
128,1,37589,5,0,0:0:0:0:
192,138,37719,1,0,0:0:0:0:
40,124,37848,1,0,0:0:0:0:
280,42,38107,5,0,0:0:0:0:
338,166,38237,1,0,0:0:0:0:
202,152,38366,1,0,0:0:0:0:
416,82,38624,5,0,0:0:0:0:
467,192,38754,1,0,0:0:0:0:
345,181,38883,1,0,0:0:0:0:
459,323,39141,5,0,0:0:0:0:
369,341,39271,1,0,0:0:0:0:
282,359,39399,6,0,B|239:339|239:339|175:381,1,90
191,239,39658,2,0,B|234:257|234:257|270:233,1,90
145,307,39917,2,0,B|104:310|104:310|100:305|100:305|56:308,1,90
209,44,40176,5,0,0:0:0:0:
200,142,40305,1,0,0:0:0:0:
191,239,40435,1,0,0:0:0:0:
194,34,40693,5,0,0:0:0:0:
184,141,40822,1,0,0:0:0:0:
173,248,40952,1,0,0:0:0:0:
177,23,41211,5,0,0:0:0:0:
362,115,41340,1,0,0:0:0:0:
362,115,41405,1,0,0:0:0:0:
362,115,41469,6,0,B|324:119|324:119|322:115|322:115|320:119|320:119|248:130,1,90
103,157,41727,5,0,0:0:0:0:
173,248,41856,1,0,0:0:0:0:
8,215,41986,1,0,0:0:0:0:
277,200,42245,5,0,0:0:0:0:
341,282,42374,1,0,0:0:0:0:
191,253,42504,1,0,0:0:0:0:
435,240,42762,5,0,0:0:0:0:
494,315,42891,1,0,0:0:0:0:
358,288,43021,1,0,0:0:0:0:
330,20,43279,5,0,0:0:0:0:
338,111,43409,1,0,0:0:0:0:
347,199,43537,6,0,B|308:221|308:221|244:207,1,90
338,111,43796,2,0,B|379:107|379:107|385:111|385:111|459:103,1,90
329,19,44055,2,0,B|285:10|285:10|246:32,1,90
263,211,44314,5,0,0:0:0:0:
165,202,44443,1,0,0:0:0:0:
68,193,44573,1,0,0:0:0:0:
59,175,44831,5,0,0:0:0:0:
166,186,44961,1,0,0:0:0:0:
273,196,45090,1,0,0:0:0:0:
94,269,45220,1,0,0:0:0:0:
94,269,45285,1,0,0:0:0:0:
94,269,45349,6,0,B|96:309|96:309|91:312|91:312|95:375,1,90
59,175,45607,6,0,B|64:125|64:125|67:123|67:123|64:122|64:122|72:42,1,99.0000030212403
234,0,45865,5,0,0:0:0:0:
213,139,45995,1,0,0:0:0:0:
72,56,46124,2,0,B|115:52|115:52|127:65|127:65|184:59,1,99.0000030212403
300,151,46383,5,0,0:0:0:0:
281,275,46513,1,0,0:0:0:0:
427,225,46642,2,0,B|390:228|390:228|381:219|381:219|326:224,1,80.9999975280763
195,266,46900,5,0,0:0:0:0:
177,377,47030,1,0,0:0:0:0:
63,310,47159,2,0,B|93:308|93:308|100:313|100:313|154:309,1,62.9999980773926
431,315,47417,5,0,0:0:0:0:
427,225,47546,1,0,0:0:0:0:
422,134,47676,6,0,B|433:82|433:82|399:32,1,99.0000030212403
238,111,47934,2,0,B|283:105|283:105|287:109|287:109|354:100,1,99.0000030212403
147,77,48193,2,0,B|136:129|136:129|170:179,1,99.0000030212403
332,302,48452,5,0,0:0:0:0:
225,295,48581,1,0,0:0:0:0:
118,288,48711,1,0,0:0:0:0:
341,320,48969,5,0,0:0:0:0:
223,312,49098,1,0,0:0:0:0:
105,307,49228,1,0,0:0:0:0:
350,338,49487,5,0,0:0:0:0:
422,134,49615,1,0,0:0:0:0:
422,134,49680,1,0,0:0:0:0:
422,134,49745,6,0,B|423:190|423:190|418:192|418:192|423:193|423:193|425:257,1,99.0000030212403
272,57,50003,5,0,0:0:0:0:
415,44,50133,1,0,0:0:0:0:
214,109,50262,2,0,B|188:67|188:67|206:12,1,99.0000030212403
272,186,50521,5,0,0:0:0:0:
143,174,50651,1,0,0:0:0:0:
335,236,50780,2,0,B|358:198|358:198|342:148,1,80.9999975280763
284,318,51038,5,0,0:0:0:0:
399,307,51168,1,0,0:0:0:0:
216,356,51297,2,0,B|202:327|202:327|212:278,1,62.9999980773926
436,175,51555,5,0,0:0:0:0:
346,163,51685,1,0,0:0:0:0:
257,150,51813,6,0,B|226:174|226:174|143:157,1,99.0000030212403
151,14,52072,2,0,B|187:28|187:28|214:109,1,99.0000030212403
86,173,52331,2,0,B|80:134|80:134|136:70,1,99.0000030212403
445,172,52589,5,0,0:0:0:0:
360,76,52718,1,0,0:0:0:0:
257,150,52848,1,0,0:0:0:0:
247,152,53106,5,0,0:0:0:0:
360,71,53236,1,0,0:0:0:0:
454,176,53365,1,0,0:0:0:0:
341,257,53495,5,0,0:0:0:0:
360,71,53624,2,0,B|354:124|354:124|357:123|357:123|351:180,1,99.0000030212403
339,273,53883,6,0,B|315:293|315:293|258:283,1,62.9999980773926
195,361,54141,2,0,B|189:330|189:330|226:285,1,62.9999980773926
190,192,54400,2,0,B|219:202|219:202|239:257,1,62.9999980773926
210,305,54658,1,0,0:0:0:0:
283,287,54788,1,0,0:0:0:0:
127,199,54917,6,0,L|190:192,1,62.9999980773926
119,74,55176,2,0,L|95:133,1,62.9999980773926
232,129,55434,2,0,L|194:79,1,62.9999980773926
127,199,55693,1,0,0:0:0:0:
119,74,55822,1,0,0:0:0:0:
232,129,55952,6,0,B|262:128|262:128|265:124|265:124|307:123,1,62.9999980773926
393,28,56210,2,0,B|378:54|378:54|380:59|380:59|367:83,1,62.9999980773926
400,217,56469,2,0,B|384:191|384:191|379:190|379:190|364:167,1,62.9999980773926
367,83,56727,1,0,0:0:0:0:
292,123,56857,1,0,0:0:0:0:
400,217,56986,6,0,B|416:246|416:246|395:295,1,62.9999980773926
261,247,57245,2,0,B|278:218|278:218|331:212,1,62.9999980773926
357,353,57503,2,0,B|323:352|323:352|291:309,1,62.9999980773926
307,215,57762,1,0,0:0:0:0:
404,273,57891,1,0,0:0:0:0:
305,328,58021,6,0,L|222:336,1,62.9999980773926
111,296,58279,2,0,L|49:290,1,62.9999980773926
309,341,58538,5,0,0:0:0:0:
240,348,58667,1,0,0:0:0:0:
114,309,58796,1,0,0:0:0:0:
45,302,58925,1,0,0:0:0:0:
303,247,59056,6,0,L|220:255,1,62.9999980773926
128,211,59314,2,0,L|66:205,1,62.9999980773926
308,260,59572,5,0,0:0:0:0:
239,267,59702,1,0,0:0:0:0:
131,225,59831,1,0,0:0:0:0:
62,218,59960,1,0,0:0:0:0:
296,160,60090,6,0,L|213:168,1,62.9999980773926
150,111,60348,2,0,L|88:105,1,62.9999980773926
301,173,60607,5,0,0:0:0:0:
232,180,60735,1,0,0:0:0:0:
153,125,60865,1,0,0:0:0:0:
84,118,60993,1,0,0:0:0:0:
287,74,61124,6,0,L|204:82,1,62.9999980773926
168,24,61382,2,0,L|106:18,1,62.9999980773926
382,5,61641,6,0,B|379:34|379:34|389:37|389:37|367:34|367:34|378:37|378:37|370:108,1,125.999996154785
