osu file format v14

[General]
AudioFilename: audio.mp3
AudioLeadIn: 0
PreviewTime: 27
Countdown: 0
SampleSet: Normal
StackLeniency: 0
Mode: 1
LetterboxInBreaks: 0
WidescreenStoryboard: 0

[Editor]
Bookmarks: 5402,10735,16069,21402,26735
DistanceSpacing: 1.3
BeatDivisor: 8
GridSize: 32
TimelineZoom: 2.1

[Metadata]
Title:Menu (Full)
TitleUnicode:Menu (Full)
Artist:toby fox
ArtistUnicode:toby fox
Creator:GGraterson
Version:Muzukashii
Source:UNDERTALE
Tags:ost vgm instrumental original sound track soundtrack video game music electronic "radiation" chiptune 8 bit 8-bit frisk
BeatmapID:3115057
BeatmapSetID:1522150

[Difficulty]
HPDrainRate:7
CircleSize:5
OverallDifficulty:5
ApproachRate:5
SliderMultiplier:1.4
SliderTickRate:1

[Events]
//Background and Video events
0,0,"bg.jpg",0,60
//Break Periods
//Storyboard Layer 0 (Background)
//Storyboard Layer 1 (Fail)
//Storyboard Layer 2 (Pass)
//Storyboard Layer 3 (Foreground)
//Storyboard Layer 4 (Overlay)
//Storyboard Sound Samples

[TimingPoints]
51,666.666666666667,4,1,1,45,1,0
51,-66.6666666666667,4,1,1,45,0,0

[HitObjects]
256,192,51,5,12,0:0:0:0:
256,192,551,1,0,0:0:0:0:
256,192,717,1,8,0:0:0:0:
256,192,1051,1,8,0:0:0:0:
256,192,1217,1,0,0:0:0:0:
256,192,1717,1,0,0:0:0:0:
256,192,2217,1,0,0:0:0:0:
256,192,2551,1,8,0:0:0:0:
256,192,2717,1,0,0:0:0:0:
256,192,3217,1,0,0:0:0:0:
256,192,3384,1,8,0:0:0:0:
256,192,3717,1,0,0:0:0:0:
256,192,3884,1,0,0:0:0:0:
256,192,4384,1,0,0:0:0:0:
256,192,4717,1,8,0:0:0:0:
256,192,5051,1,8,0:0:0:0:
256,192,5384,5,0,0:0:0:0:
256,192,5884,1,0,0:0:0:0:
256,192,6050,1,0,0:0:0:0:
256,192,6384,1,0,0:0:0:0:
256,192,6550,1,8,0:0:0:0:
256,192,6884,1,0,0:0:0:0:
256,192,7051,1,0,0:0:0:0:
256,192,7217,1,8,0:0:0:0:
256,192,7550,1,0,0:0:0:0:
256,192,7717,1,8,0:0:0:0:
256,192,8050,1,8,0:0:0:0:
256,192,8384,1,0,0:0:0:0:
256,192,8717,1,8,0:0:0:0:
256,192,9051,1,0,0:0:0:0:
256,192,9217,1,8,0:0:0:0:
256,192,9717,1,0,0:0:0:0:
256,192,10050,1,8,0:0:0:0:
256,192,10384,1,0,0:0:0:0:
256,192,10717,5,12,0:0:0:0:
256,192,11217,1,0,0:0:0:0:
256,192,11383,1,8,0:0:0:0:
256,192,11717,1,8,0:0:0:0:
256,192,11883,1,0,0:0:0:0:
256,192,12383,1,0,0:0:0:0:
256,192,12883,1,0,0:0:0:0:
256,192,13217,1,0,0:0:0:0:
256,192,13383,1,8,0:0:0:0:
256,192,13884,1,0,0:0:0:0:
256,192,14050,1,8,0:0:0:0:
256,192,14384,1,0,0:0:0:0:
256,192,14550,1,0,0:0:0:0:
256,192,15050,1,0,0:0:0:0:
256,192,15383,1,8,0:0:0:0:
256,192,15717,1,8,0:0:0:0:
256,192,16050,5,0,0:0:0:0:
256,192,16550,1,0,0:0:0:0:
256,192,16716,1,0,0:0:0:0:
256,192,17050,1,0,0:0:0:0:
256,192,17216,1,8,0:0:0:0:
256,192,17550,1,0,0:0:0:0:
256,192,17717,1,0,0:0:0:0:
256,192,17883,1,8,0:0:0:0:
256,192,18216,1,0,0:0:0:0:
256,192,18383,1,8,0:0:0:0:
256,192,18716,1,8,0:0:0:0:
256,192,19050,1,0,0:0:0:0:
256,192,19383,1,8,0:0:0:0:
256,192,19717,1,0,0:0:0:0:
256,192,19883,1,0,0:0:0:0:
256,192,20383,1,0,0:0:0:0:
256,192,20716,1,8,0:0:0:0:
256,192,21050,1,0,0:0:0:0:
256,192,21384,5,12,0:0:0:0:
256,192,21884,1,0,0:0:0:0:
256,192,22051,1,8,0:0:0:0:
256,192,22217,1,0,0:0:0:0:
256,192,22551,1,8,0:0:0:0:
256,192,23051,1,8,0:0:0:0:
256,192,23551,1,0,0:0:0:0:
256,192,23884,1,8,0:0:0:0:
256,192,24051,1,0,0:0:0:0:
256,192,24551,1,8,0:0:0:0:
256,192,24717,1,8,0:0:0:0:
256,192,24884,1,0,0:0:0:0:
256,192,25217,1,8,0:0:0:0:
256,192,25717,1,8,0:0:0:0:
256,192,26051,1,8,0:0:0:0:
256,192,26384,1,0,0:0:0:0:
256,192,26717,5,8,0:0:0:0:
256,192,27217,1,0,0:0:0:0:
256,192,27384,1,8,0:0:0:0:
256,192,27550,1,0,0:0:0:0:
256,192,27884,1,8,0:0:0:0:
256,192,28551,1,0,0:0:0:0:
256,192,28884,1,0,0:0:0:0:
256,192,29051,1,8,0:0:0:0:
256,192,29384,1,0,0:0:0:0:
256,192,29884,1,8,0:0:0:0:
256,192,30051,1,0,0:0:0:0:
256,192,30217,1,0,0:0:0:0:
256,192,30550,1,8,0:0:0:0:
256,192,31051,1,8,0:0:0:0:
256,192,31384,1,8,0:0:0:0:
256,192,31717,1,0,0:0:0:0:
