osu file format v14

[General]
AudioFilename: audio.mp3
AudioLeadIn: 0
PreviewTime: -1
Countdown: 0
SampleSet: Soft
StackLeniency: 0.3
Mode: 0
LetterboxInBreaks: 0
WidescreenStoryboard: 0

[Editor]
Bookmarks: 16000,32000,80000,96000,108000,112000,144000
DistanceSpacing: 1.2
BeatDivisor: 2
GridSize: 8
TimelineZoom: 2.3

[Metadata]
Title:Megalovania
TitleUnicode:Megalovania
Artist:toby fox
ArtistUnicode:toby fox
Creator:Mahogany
Version:Bad time
Source:Undertale
Tags:
BeatmapID:910481
BeatmapSetID:420868

[Difficulty]
HPDrainRate:5
CircleSize:4
OverallDifficulty:9
ApproachRate:9
SliderMultiplier:1.4
SliderTickRate:1

[Events]
//Background and Video events
0,0,"undertale.jpg",0,0
//Break Periods
//Storyboard Layer 0 (Background)
//Storyboard Layer 1 (Fail)
//Storyboard Layer 2 (Pass)
//Storyboard Layer 3 (Foreground)
//Storyboard Sound Samples

[TimingPoints]
0,250,4,2,0,100,1,0
16000,-66.6666666666667,4,3,0,100,0,0
32000,-100,4,2,0,100,0,0
38000,-66.6666666666667,4,2,0,100,0,0

[HitObjects]
96,72,0,5,0,0:0:0:0:
104,104,125,1,0,0:0:0:0:
120,136,250,1,0,0:0:0:0:
176,176,500,1,0,0:0:0:0:
248,184,875,1,0,0:0:0:0:
312,152,1125,1,0,0:0:0:0:
384,144,1375,1,0,0:0:0:0:
440,192,1625,1,0,0:0:0:0:
456,224,1750,1,0,0:0:0:0:
456,256,1875,1,0,0:0:0:0:
440,288,2000,5,0,0:0:0:0:
416,312,2125,1,0,0:0:0:0:
384,328,2250,1,0,0:0:0:0:
312,312,2500,1,0,0:0:0:0:
256,264,2875,1,0,0:0:0:0:
184,264,3125,1,0,0:0:0:0:
128,312,3375,1,0,0:0:0:0:
56,296,3625,1,0,0:0:0:0:
24,272,3750,1,0,0:0:0:0:
8,240,3875,1,0,0:0:0:0:
16,208,4000,5,0,0:0:0:0:
32,176,4125,1,0,0:0:0:0:
56,152,4250,1,0,0:0:0:0:
120,120,4500,1,0,0:0:0:0:
192,104,4875,1,0,0:0:0:0:
264,112,5125,1,0,0:0:0:0:
336,96,5375,1,0,0:0:0:0:
400,64,5625,1,0,0:0:0:0:
432,56,5750,1,0,0:0:0:0:
464,64,5875,1,0,0:0:0:0:
496,80,6000,5,0,0:0:0:0:
504,112,6125,1,0,0:0:0:0:
496,144,6250,1,0,0:0:0:0:
440,192,6500,1,0,0:0:0:0:
400,248,6875,1,0,0:0:0:0:
384,320,7125,1,0,0:0:0:0:
312,336,7375,1,0,0:0:0:0:
240,320,7625,1,0,0:0:0:0:
208,296,7750,1,0,0:0:0:0:
192,264,7875,1,0,0:0:0:0:
184,232,8000,5,0,0:0:0:0:
184,200,8125,1,0,0:0:0:0:
192,168,8250,1,0,0:0:0:0:
224,104,8500,1,0,0:0:0:0:
280,56,8875,1,0,0:0:0:0:
352,40,9125,1,0,0:0:0:0:
424,56,9375,1,0,0:0:0:0:
472,112,9625,1,0,0:0:0:0:
488,144,9750,1,0,0:0:0:0:
488,176,9875,1,0,0:0:0:0:
472,208,10000,5,0,0:0:0:0:
448,232,10125,1,0,0:0:0:0:
416,240,10250,1,0,0:0:0:0:
344,232,10500,1,0,0:0:0:0:
272,232,10875,1,0,0:0:0:0:
208,264,11125,1,0,0:0:0:0:
160,320,11375,1,0,0:0:0:0:
88,336,11625,1,0,0:0:0:0:
56,328,11750,1,0,0:0:0:0:
32,304,11875,1,0,0:0:0:0:
24,272,12000,5,0,0:0:0:0:
32,240,12125,1,0,0:0:0:0:
48,208,12250,1,0,0:0:0:0:
80,144,12500,1,0,0:0:0:0:
144,112,12875,1,0,0:0:0:0:
216,96,13125,1,0,0:0:0:0:
288,112,13375,1,0,0:0:0:0:
344,160,13625,1,0,0:0:0:0:
368,192,13750,1,0,0:0:0:0:
376,224,13875,1,0,0:0:0:0:
368,256,14000,5,0,0:0:0:0:
344,288,14125,1,0,0:0:0:0:
312,304,14250,1,0,0:0:0:0:
248,272,14500,1,0,0:0:0:0:
192,224,14875,1,0,0:0:0:0:
176,152,15125,1,0,0:0:0:0:
208,88,15375,1,0,0:0:0:0:
280,72,15625,1,0,0:0:0:0:
312,88,15750,1,0,0:0:0:0:
336,112,15875,1,0,0:0:0:0:
352,144,16000,5,0,0:0:0:0:
200,208,16125,1,0,0:0:0:0:
136,56,16250,2,2,P|178:34|242:18,1,105.000004005432
416,256,16500,2,2,P|374:278|310:294,1,105.000004005432
328,80,16750,1,0,0:0:0:0:
408,56,16875,6,0,L|424:160,1,105.000004005432
240,72,17125,2,0,L|256:176,1,105.000004005432
80,88,17375,2,0,L|96:192,1,105.000004005432
280,288,17625,5,0,0:0:0:0:
160,123,17750,1,0,0:0:0:0:
354,186,17875,1,0,0:0:0:0:
160,249,18000,5,0,0:0:0:0:
280,84,18125,1,0,0:0:0:0:
360,272,18250,2,2,P|344:336|272:368,1,105.000004005432
80,136,18500,2,2,P|96:72|168:40,1,105.000004005432
224,192,18750,1,0,0:0:0:0:
56,328,18875,6,0,L|88:224,1,105.000004005432
144,336,19125,2,0,L|176:232,1,105.000004005432
232,344,19375,2,0,L|264:240,1,105.000004005432
216,112,19625,5,0,0:0:0:0:
318,288,19750,1,0,0:0:0:0:
339,85,19875,1,0,0:0:0:0:
202,237,20000,5,0,0:0:0:0:
402,194,20125,1,0,0:0:0:0:
264,40,20250,2,2,P|184:40|136:80,1,105.000004005432
160,312,20500,2,2,P|240:312|288:272,1,105.000004005432
224,176,20750,5,0,0:0:0:0:
112,120,20875,2,0,L|88:232,1,105.000004005432
328,128,21125,2,0,L|352:240,1,105.000004005432
64,40,21375,2,0,L|11:141,1,105.000004005432
80,240,21625,5,0,0:0:0:0:
244,120,21750,1,0,0:0:0:0:
181,314,21875,1,0,0:0:0:0:
118,120,22000,5,0,0:0:0:0:
283,240,22125,1,0,0:0:0:0:
96,320,22250,2,2,P|24:296|0:200,1,105.000004005432
104,40,22500,2,2,P|176:64|200:160,1,105.000004005432
208,296,22750,5,0,0:0:0:0:
216,200,22875,2,8,L|112:240,1,105.000004005432
232,40,23125,5,0,0:0:0:0:
208,112,23250,2,8,L|312:152,1,105.000004005432
136,152,23500,5,0,0:0:0:0:
296,224,23625,2,8,L|240:320,1,105.000004005432
216,200,23875,5,0,0:0:0:0:
226,74,24000,1,0,0:0:0:0:
330,146,24125,1,0,0:0:0:0:
208,288,24250,6,2,P|129:243|113:215,1,105.000004005432
336,48,24500,2,2,P|414:92|430:120,1,105.000004005432
256,141,24750,1,0,0:0:0:0:
424,344,24875,6,0,L|304:296,1,105.000004005432
448,256,25125,2,0,L|328:208,1,105.000004005432
472,168,25375,2,0,L|352:120,1,105.000004005432
232,216,25625,5,0,0:0:0:0:
112,51,25750,1,0,0:0:0:0:
306,114,25875,1,0,0:0:0:0:
112,177,26000,5,0,0:0:0:0:
232,12,26125,1,0,0:0:0:0:
328,208,26250,2,2,P|288:288|248:312,1,105.000004005432
24,176,26500,2,2,P|64:96|104:72,1,105.000004005432
200,112,26750,1,0,0:0:0:0:
40,248,26875,6,0,L|152:200,1,105.000004005432
72,312,27125,2,0,L|184:264,1,105.000004005432
104,376,27375,2,0,L|216:328,1,105.000004005432
248,264,27625,5,0,0:0:0:0:
128,99,27750,1,0,0:0:0:0:
322,162,27875,1,0,0:0:0:0:
128,225,28000,5,0,0:0:0:0:
248,60,28125,1,0,0:0:0:0:
344,256,28250,2,2,P|288:352|272:360,1,105.000004005432
32,232,28500,2,2,P|88:136|104:128,1,105.000004005432
216,160,28750,1,0,0:0:0:0:
192,360,28875,6,0,L|240:248,1,105.000004005432
120,328,29125,2,0,L|168:216,1,105.000004005432
48,296,29375,2,0,L|96:184,1,105.000004005432
64,128,29625,5,0,0:0:0:0:
234,17,29750,1,0,0:0:0:0:
161,206,29875,1,0,0:0:0:0:
109,10,30000,5,0,0:0:0:0:
266,138,30125,1,0,0:0:0:0:
72,216,30250,2,2,P|32:176|16:128,1,105.000004005432
304,56,30500,2,2,P|344:96|360:144,1,105.000004005432
168,96,30750,1,0,0:0:0:0:
161,206,30875,5,0,0:0:0:0:
289,222,31000,2,8,L|297:326,1,105.000004005432
161,206,31250,5,0,0:0:0:0:
385,222,31375,2,8,L|377:326,1,105.000004005432
161,206,31625,5,0,0:0:0:0:
465,222,31750,2,8,L|473:326,1,105.000004005432
456,144,32000,6,0,P|448:104|416:48,1,70
360,40,32250,1,0,0:0:0:0:
289,83,32375,1,0,0:0:0:0:
360,120,32500,2,0,P|352:160|320:216,1,70
264,160,32750,1,0,0:0:0:0:
208,96,32875,1,0,0:0:0:0:
136,48,33000,2,0,P|88:72|64:104,1,70
72,168,33250,5,0,0:0:0:0:
72,248,33375,1,0,0:0:0:0:
152,248,33500,1,0,0:0:0:0:
152,168,33625,1,0,0:0:0:0:
72,328,33750,2,0,L|160:328,1,70
224,312,34000,5,0,0:0:0:0:
304,280,34125,1,0,0:0:0:0:
232,232,34250,2,0,P|272:192|320:192,1,70
368,208,34500,5,0,0:0:0:0:
400,288,34625,1,0,0:0:0:0:
448,224,34750,2,0,P|448:168|440:144,1,70
368,120,35000,5,0,0:0:0:0:
248,80,35125,1,0,0:0:0:0:
256,96,35187,1,0,0:0:0:0:
264,112,35250,1,0,0:0:0:0:
296,192,35375,1,0,0:0:0:0:
248,264,35500,2,0,P|192:240|176:224,1,70
168,152,35750,5,0,0:0:0:0:
104,96,35875,1,0,0:0:0:0:
88,176,36000,2,0,P|88:224|96:248,1,70
152,304,36250,5,0,0:0:0:0:
232,336,36375,1,0,0:0:0:0:
312,320,36500,2,0,P|352:296|368:272,1,70
376,192,36750,6,0,L|392:120,1,70
288,192,37000,2,0,L|304:120,1,70
200,192,37250,2,0,L|215:123,1,70
112,192,37500,2,0,L|127:123,1,70
152,40,37750,1,0,0:0:0:0:
152,40,37875,1,0,0:0:0:0:
232,56,38000,6,0,L|208:160,1,105.000004005432
320,56,38250,2,0,L|296:160,1,105.000004005432
408,56,38500,2,0,L|384:160,1,105.000004005432
352,272,38750,1,0,0:0:0:0:
352,272,38875,5,0,0:0:0:0:
248,328,39000,2,4,L|152:240,1,105.000004005432,4|4,1:0|1:0,1:0:0:0:
192,80,39250,5,0,0:0:0:0:
304,80,39375,2,4,L|352:216,1,105.000004005432,4|4,1:0|1:0,1:0:0:0:
224,192,39625,5,0,0:0:0:0:
72,192,39750,2,4,L|106:92,1,105.000004005432,4|4,1:0|1:0,1:0:0:0:
384,96,40000,5,0,0:0:0:0:
448,192,40125,1,0,0:0:0:0:
336,192,40250,2,0,P|272:152|248:104,1,105.000004005432
240,248,40500,2,0,P|304:288|328:336,1,105.000004005432
144,296,40750,1,0,0:0:0:0:
32,112,40875,6,0,L|48:216,1,105.000004005432
152,80,41125,2,0,L|136:184,1,105.000004005432
232,56,41375,2,0,L|248:160,1,105.000004005432
352,208,41625,5,0,0:0:0:0:
352,344,41750,1,0,0:0:0:0:
272,234,41875,1,0,0:0:0:0:
401,276,42000,5,0,0:0:0:0:
272,318,42125,1,0,0:0:0:0:
288,160,42250,2,0,P|352:128|400:136,1,105.000004005432
512,320,42500,2,0,P|448:352|400:344,1,105.000004005432
328,272,42750,1,0,0:0:0:0:
176,344,42875,6,0,L|128:232,1,105.000004005432
248,240,43125,2,0,L|296:128,1,105.000004005432
176,160,43375,2,0,L|128:48,1,105.000004005432
248,72,43625,1,0,0:0:0:0:
300,20,43750,1,0,0:0:0:0:
352,72,43875,1,0,0:0:0:0:
300,123,44000,6,0,P|280:168|272:232,1,105.000004005432
208,128,44250,2,0,P|191:174|189:239,1,105.000004005432
120,136,44500,2,0,P|108:183|111:248,1,105.000004005432
32,152,44750,2,0,P|24:200|33:264,1,105.000004005432
104,344,45000,6,0,P|152:351|216:342,1,105.000004005432
128,264,45250,2,0,P|177:267|240:253,1,105.000004005432
152,176,45500,2,0,P|201:175|262:155,1,105.000004005432
160,88,45750,2,0,P|208:82|268:57,1,105.000004005432
376,32,46000,6,0,L|400:136,1,105.000004005432
456,32,46250,1,0,0:0:0:0:
472,112,46375,1,0,0:0:0:0:
464,192,46500,1,0,0:0:0:0:
408,256,46625,1,0,0:0:0:0:
328,272,46750,1,0,0:0:0:0:
248,248,46875,1,0,0:0:0:0:
184,192,47000,6,4,L|152:72,1,105.000004005432,4|4,1:0|1:0,1:0:0:0:
156,90,47250,1,0,0:0:0:0:
32,184,47375,6,4,L|120:240,1,105.000004005432,4|4,1:0|1:0,1:0:0:0:
120,240,47625,1,0,0:0:0:0:
104,24,47750,6,4,L|32:112,1,105.000004005432,4|4,1:0|1:0,1:0:0:0:
37,105,48000,1,0,0:0:0:0:
104,144,48125,5,0,0:0:0:0:
184,152,48250,2,0,P|240:128|280:96,1,105.000004005432
328,32,48500,1,0,0:0:0:0:
400,80,48625,1,0,0:0:0:0:
360,152,48750,2,0,P|317:183|272:208,1,105.000004005432
192,240,49000,5,0,0:0:0:0:
56,144,49125,1,0,0:0:0:0:
112,272,49250,5,0,0:0:0:0:
200,152,49375,1,0,0:0:0:0:
40,224,49500,5,0,0:0:0:0:
264,200,49625,1,0,0:0:0:0:
128,104,49750,5,0,0:0:0:0:
192,328,49875,1,0,0:0:0:0:
56,144,50000,1,0,0:0:0:0:
80,160,50062,1,0,0:0:0:0:
104,176,50125,1,0,0:0:0:0:
128,192,50187,1,0,0:0:0:0:
152,208,50250,1,0,0:0:0:0:
304,288,50500,6,0,P|352:240|168:304,1,840.000032043458
232,208,51625,1,0,0:0:0:0:
232,208,51750,2,0,L|211:99,1,105.000004005432
304,112,52000,2,0,L|328:224,1,105.000004005432
264,272,52250,1,0,0:0:0:0:
176,264,52375,1,0,0:0:0:0:
144,184,52500,1,0,0:0:0:0:
152,104,52625,1,0,0:0:0:0:
216,48,52750,1,0,0:0:0:0:
304,48,52875,1,0,0:0:0:0:
376,96,53000,6,0,L|416:216,1,105.000004005432
304,128,53250,2,0,L|344:248,1,105.000004005432
232,160,53500,2,0,L|272:280,1,105.000004005432
160,192,53750,2,0,L|200:312,1,105.000004005432
121,315,54000,2,0,L|56:112,1,210.000008010865
57,115,54500,5,0,0:0:0:0:
30,33,54625,1,0,0:0:0:0:
109,7,54750,1,0,0:0:0:0:
135,88,54875,1,0,0:0:0:0:
216,256,55000,2,8,L|160:136,1,105.000004005432,8|8,3:0|3:0,3:0:0:0:
216,256,55250,5,0,0:0:0:0:
32,256,55375,2,8,L|144:280,1,105.000004005432,8|8,3:0|3:0,3:0:0:0:
32,256,55625,5,0,0:0:0:0:
104,96,55750,2,8,L|40:184,1,105.000004005432,8|8,3:0|3:0,3:0:0:0:
128,192,56000,6,0,L|216:104,1,105.000004005432
264,176,56250,2,0,L|176:264,1,105.000004005432
136,312,56500,6,0,L|48:224,1,105.000004005432
256,64,56750,2,0,L|344:152,1,105.000004005432
384,208,57000,6,0,L|224:352,1,210.000008010865
24,160,57500,2,0,L|184:16,1,210.000008010865
256,0,58000,6,0,L|412:140,1,210.000008010865
160,376,58500,2,0,L|3:235,1,210.000008010865
448,80,59000,6,0,L|448:320,1,210.000008010865
64,304,59500,2,0,L|64:64,1,210.000008010865
480,192,60000,6,0,B|512:384|256:352|256:352|0:384|32:192|32:192,1,630.000024032594
264,104,61000,5,0,0:0:0:0:
296,225,61125,1,0,0:0:0:0:
174,193,61250,1,0,0:0:0:0:
336,104,61375,5,0,0:0:0:0:
104,192,61500,1,0,0:0:0:0:
296,296,61625,1,0,0:0:0:0:
408,104,61750,5,0,0:0:0:0:
296,368,61875,1,0,0:0:0:0:
32,192,62000,2,0,B|0:0|256:32|256:32|512:0|480:192|480:192,1,630.000024032594
368,280,63000,6,4,L|264:192,1,105.000004005432,4|4,1:0|1:0,1:0:0:0:
264,296,63250,1,0,0:0:0:0:
368,176,63375,2,4,L|440:96,1,105.000004005432,4|4,1:0|1:0,1:0:0:0:
464,176,63625,1,0,0:0:0:0:
336,80,63750,2,4,L|248:16,1,105.000004005432,4|4,1:0|1:0,1:0:0:0:
176,56,64000,5,0,0:0:0:0:
144,136,64125,1,0,0:0:0:0:
224,128,64250,2,0,P|288:120|336:152,1,105.000004005432
344,216,64500,1,0,0:0:0:0:
344,296,64625,1,0,0:0:0:0:
256,296,64750,1,0,0:0:0:0:
256,216,64875,1,0,0:0:0:0:
424,208,65000,6,0,L|424:320,1,105.000004005432
176,320,65250,2,0,L|176:208,1,105.000004005432
256,136,65500,6,0,L|368:136,1,105.000004005432
360,376,65750,2,0,L|248:376,1,105.000004005432
304,248,66000,1,0,0:0:0:0:
304,248,66062,1,0,0:0:0:0:
304,248,66125,1,0,0:0:0:0:
304,248,66187,1,0,0:0:0:0:
304,248,66250,1,0,0:0:0:0:
376,96,66500,6,0,P|424:144|240:80,1,840.000032043458
296,144,67625,1,0,0:0:0:0:
296,144,67750,2,0,L|264:256,1,105.000004005432
184,216,68000,2,0,L|224:104,1,105.000004005432
288,64,68250,5,0,0:0:0:0:
368,80,68375,1,0,0:0:0:0:
416,152,68500,1,0,0:0:0:0:
384,232,68625,1,0,0:0:0:0:
304,256,68750,1,0,0:0:0:0:
224,224,68875,1,0,0:0:0:0:
184,152,69000,6,0,L|216:48,1,105.000004005432
136,32,69250,2,0,L|105:132,1,105.000004005432
80,208,69500,2,0,L|180:238,1,105.000004005432
144,312,69750,2,0,L|43:281,1,105.000004005432
216,344,70000,2,0,L|288:136,1,210.000008010865
128,48,70500,5,0,0:0:0:0:
224,128,70625,1,0,0:0:0:0:
128,48,70750,1,0,0:0:0:0:
88,168,70875,1,0,0:0:0:0:
128,48,71000,6,8,L|160:160,1,105.000004005432,8|8,3:0|3:0,3:0:0:0:
200,304,71250,1,0,0:0:0:0:
360,144,71375,6,8,L|248:200,1,105.000004005432,8|8,3:0|3:0,3:0:0:0:
80,264,71625,1,0,0:0:0:0:
24,96,71750,6,8,L|96:176,1,105.000004005432,8|8,3:0|3:0,3:0:0:0:
288,336,72000,6,0,L|376:256,1,105.000004005432
240,280,72250,2,0,L|328:200,1,105.000004005432
192,216,72500,6,0,L|104:136,1,105.000004005432
240,160,72750,2,0,L|152:80,1,105.000004005432
272,24,73000,6,0,L|440:168,1,210.000008010865
240,360,73500,2,0,L|72:216,1,210.000008010865
464,224,74000,6,0,L|320:392,1,210.000008010865
16,176,74500,2,0,L|160:8,1,210.000008010865
440,96,75000,6,0,L|440:344,1,210.000008010865
72,288,75500,2,0,L|72:40,1,210.000008010865
480,192,76000,2,0,B|512:384|256:352|256:352|0:384|32:192|32:192,1,630.000024032594
149,163,77000,5,0,0:0:0:0:
362,220,77125,1,0,0:0:0:0:
201,96,77250,1,0,0:0:0:0:
310,287,77375,1,0,0:0:0:0:
284,85,77500,1,0,0:0:0:0:
227,298,77625,1,0,0:0:0:0:
351,137,77750,1,0,0:0:0:0:
160,246,77875,1,0,0:0:0:0:
32,192,78000,6,0,B|0:0|256:32|256:32|512:0|480:192|480:192,1,630.000024032594
280,312,79000,6,8,L|192:232,1,105.000004005432,8|8,3:0|3:0,3:0:0:0:
168,72,79250,1,0,0:0:0:0:
24,352,79375,2,8,L|136:304,1,105.000004005432,8|8,3:0|3:0,3:0:0:0:
128,184,79625,1,0,0:0:0:0:
288,48,79750,2,8,L|304:176,1,105.000004005432,8|8,3:0|3:0,3:0:0:0:
312,280,80000,1,0,0:0:0:0:
