osu file format v14

[General]
AudioFilename: Undertale OST- 100 - Megalovania.mp3
AudioLeadIn: 0
PreviewTime: 16120
Countdown: 0
SampleSet: Normal
StackLeniency: 0.7
Mode: 0
LetterboxInBreaks: 1
EpilepsyWarning: 1
WidescreenStoryboard: 1

[Editor]
DistanceSpacing: 0.8
BeatDivisor: 4
GridSize: 32
TimelineZoom: 1

[Metadata]
Title:MEGALOVANIA
TitleUnicode:MEGALOVANIA
Artist:toby fox
ArtistUnicode:toby fox
Creator:Donkz
Version:Pacifist
Source:UNDERTALE
Tags:Instrumental Sans Boss Genocide Bad Time Run Route Skeleton
BeatmapID:820167
BeatmapSetID:370511

[Difficulty]
HPDrainRate:4
CircleSize:2
OverallDifficulty:4
ApproachRate:4
SliderMultiplier:0.800000005960464
SliderTickRate:1

[Events]
//Background and Video events
0,0,"SansBG.jpg",0,0
//Break Periods
2,80320,94800
//Storyboard Layer 0 (Background)
//Storyboard Layer 1 (Fail)
//Storyboard Layer 2 (Pass)
//Storyboard Layer 3 (Foreground)
//Storyboard Sound Samples

[TimingPoints]
120,250,4,1,1,100,1,0
120,-133.333333333333,4,1,1,20,0,0
15120,-133.333333333333,4,1,1,35,0,0
16120,-100,4,1,1,50,0,1
32120,-133.333333333333,4,1,1,40,0,0
40120,-100,4,1,1,50,0,1
80120,-133.333333333333,4,1,1,50,0,0
96120,-200,4,1,1,35,0,0
108120,-133.333333333333,4,1,1,40,0,0
112120,-100,4,1,1,35,0,0
140120,-100,4,1,1,35,0,0
144120,-133.333333333333,4,1,1,25,0,0

[Colours]
Combo1 : 128,0,0
Combo2 : 0,128,192
Combo3 : 0,0,0
Combo4 : 255,255,255

[HitObjects]
160,192,14120,5,0,0:0:0:0:
256,288,14620,1,0,0:0:0:0:
352,192,15120,1,0,0:0:0:0:
256,96,15620,1,0,0:0:0:0:
128,96,16120,6,0,L|64:32,2,80.0000005960464,14|0|8,0:0|0:0|0:0,0:0:0:0:
192,224,17120,2,0,P|192:352|288:352,1,240.000001788139
352,288,18120,6,0,L|352:384,2,80.0000005960464,8|0|8,0:0|0:0|0:0,0:0:0:0:
352,160,19120,2,0,P|416:128|320:64,1,240.000001788139
224,64,20120,6,0,L|160:0,2,80.0000005960464,8|0|8,0:0|0:0|0:0,0:0:0:0:
128,160,21120,2,0,B|-32:288|160:320|160:320,1,240.000001788139
224,256,22120,6,0,L|288:320,2,80.0000005960464,8|0|8,0:0|0:0|0:0,0:0:0:0:
128,224,23120,1,10,0:0:0:0:
192,128,23495,1,10,0:0:0:0:
288,64,23870,1,10,0:0:0:0:
352,128,24120,6,0,L|416:64,2,80.0000005960464,14|0|8,0:0|0:0|0:0,0:0:0:0:
288,224,25120,2,0,P|288:320|160:320,1,240.000001788139
96,288,26120,6,0,L|32:352,2,80.0000005960464,8|0|8,0:0|0:0|0:0,0:0:0:0:
32,192,27120,2,0,P|-32:96|64:64,1,240.000001788139
128,96,28120,6,0,L|192:32,2,80.0000005960464,8|0|8,0:0|0:0|0:0,0:0:0:0:
224,160,29120,2,0,P|320:224|384:128,1,240.000001788139
480,160,30120,6,0,L|480:64,2,80.0000005960464,8|0|8,0:0|0:0|0:0,0:0:0:0:
384,256,31120,1,10,0:0:0:0:
256,256,31495,1,10,0:0:0:0:
128,256,31870,1,10,0:0:0:0:
128,160,32120,6,0,P|96:128|128:64,1,120.000005471707,6|8,0:0|0:0,0:0:0:0:
224,64,33120,2,0,L|352:64,1,120.000005471707,0|8,0:0|0:0,0:0:0:0:
416,128,34120,6,0,P|416:192|416:256,1,120.000005471707,0|8,0:0|0:0,0:0:0:0:
352,320,35120,2,0,B|320:352|288:320|224:320,1,120.000005471707,0|8,0:0|0:0,0:0:0:0:
128,320,36120,5,0,0:0:0:0:
64,224,36620,1,8,0:0:0:0:
128,128,37120,1,0,0:0:0:0:
64,32,37620,1,8,0:0:0:0:
160,32,38120,6,0,P|224:32|288:32,1,120.000005471707,0|8,0:0|0:0,0:0:0:0:
352,128,39120,1,10,0:0:0:0:
416,224,39495,1,10,0:0:0:0:
352,320,39870,1,10,0:0:0:0:
256,320,40120,6,0,P|160:320|128:256,1,160.000001192093,14|8,0:0|0:0,0:0:0:0:
64,160,41120,1,0,0:0:0:0:
160,64,41620,1,8,0:0:0:0:
288,64,42120,6,0,P|384:96|416:160,1,160.000001192093,0|8,0:0|0:0,0:0:0:0:
352,256,43120,1,0,0:0:0:0:
224,320,43620,1,8,0:0:0:0:
128,224,44120,6,0,L|64:160,3,80.0000005960464,8|0|8|0,0:0|0:0|0:0|0:0,0:0:0:0:
96,96,45120,2,0,L|160:32,3,80.0000005960464,8|0|8|0,0:0|0:0|0:0|0:0,0:0:0:0:
224,32,46120,6,0,P|320:32|352:96,1,160.000001192093,8|0,0:0|0:0,0:0:0:0:
384,224,47120,1,10,0:0:0:0:
288,320,47495,1,10,0:0:0:0:
160,256,47870,1,10,0:0:0:0:
96,192,48120,5,14,0:0:0:0:
96,64,48620,1,0,0:0:0:0:
224,64,49120,2,0,P|320:64|384:96,1,160.000001192093,8|0,0:0|0:0,0:0:0:0:
448,192,50120,6,0,P|448:288|384:320,1,160.000001192093
320,224,51120,2,0,P|256:288|192:256,1,160.000001192093,8|0,0:0|0:0,0:0:0:0:
96,192,52120,5,8,0:0:0:0:
128,96,52370,2,0,L|96:64,6,40.0000002980232,0|0|8|0|0|0|8,0:0|0:0|0:0|0:0|0:0|0:0|0:0,0:0:0:0:
192,160,53370,6,0,L|259:92,2,80.0000005960464,0|8|0,0:0|0:0|0:0,0:0:0:0:
160,256,54120,2,0,P|128:320|192:320,1,160.000001192093,8|0,0:0|0:0,0:0:0:0:
320,288,55120,5,10,0:0:0:0:
384,160,55495,1,10,0:0:0:0:
288,64,55870,1,10,0:0:0:0:
192,96,56120,6,0,P|96:96|64:160,1,160.000001192093,14|0,0:0|0:0,0:0:0:0:
64,288,57120,2,0,P|160:288|192:224,1,160.000001192093,8|0,0:0|0:0,0:0:0:0:
288,160,58120,5,8,0:0:0:0:
416,128,58620,1,8,0:0:0:0:
448,256,59120,1,0,0:0:0:0:
320,288,59620,1,0,0:0:0:0:
192,320,60120,6,0,P|128:352|64:288,1,160.000001192093,8|0,0:0|0:0,0:0:0:0:
128,192,61120,2,0,P|224:192|256:128,1,160.000001192093,8|0,0:0|0:0,0:0:0:0:
352,64,62120,6,0,P|416:128|448:192,1,160.000001192093
416,320,63120,1,10,0:0:0:0:
288,320,63495,1,10,0:0:0:0:
160,320,63870,1,10,0:0:0:0:
64,256,64120,6,0,P|0:192|32:128,1,160.000001192093,14|0,0:0|0:0,0:0:0:0:
128,64,65120,1,8,0:0:0:0:
224,160,65620,1,0,0:0:0:0:
352,192,66120,6,0,P|416:160|416:64,2,160.000001192093,0|0|8,0:0|0:0|0:0,0:0:0:0:
224,224,67620,1,0,0:0:0:0:
128,320,68120,5,8,0:0:0:0:
64,256,68370,2,0,L|32:288,6,40.0000002980232,0|0|8|0|0|0|8,0:0|0:0|0:0|0:0|0:0|0:0|0:0,0:0:0:0:
96,160,69370,6,0,L|32:96,2,80.0000005960464,0|8|0,0:0|0:0|0:0,0:0:0:0:
192,192,70120,2,0,L|352:192,1,160.000001192093,8|0,0:0|0:0,0:0:0:0:
448,96,71120,5,10,0:0:0:0:
448,224,71495,1,10,0:0:0:0:
448,352,71870,1,10,0:0:0:0:
352,352,72120,6,0,P|256:352|192:320,1,160.000001192093,14|0,0:0|0:0,0:0:0:0:
288,224,73120,2,0,P|352:160|320:96,1,160.000001192093,8|0,0:0|0:0,0:0:0:0:
192,128,74120,6,0,P|128:64|64:96,2,160.000001192093,8|8|0,0:0|0:0|0:0,0:0:0:0:
224,256,75620,1,0,0:0:0:0:
320,352,76120,6,0,P|384:288|416:224,1,160.000001192093,8|0,0:0|0:0,0:0:0:0:
352,128,77120,2,0,P|288:192|224:160,1,160.000001192093,8|0,0:0|0:0,0:0:0:0:
160,64,78120,6,0,P|96:128|128:192,1,160.000001192093
192,288,79120,1,10,0:0:0:0:
320,352,79495,1,10,0:0:0:0:
416,256,79870,1,10,0:0:0:0:
448,160,80120,5,14,0:0:0:0:
32,32,96120,6,0,L|0:0,2,40.0000002980232,14|0|8,0:0|0:0|0:0,0:0:0:0:
128,64,97120,2,0,P|192:64|256:64,1,120.00000089407,8|0,0:0|0:0,0:0:0:0:
320,64,98120,6,0,L|320:18,2,40.0000002980232,10|0|8,0:0|0:0|0:0,0:0:0:0:
352,160,99120,2,0,L|261:250,1,120.00000089407,8|0,0:0|0:0,0:0:0:0:
224,288,100120,6,0,L|192:256,2,40.0000002980232,10|0|8,0:0|0:0|0:0,0:0:0:0:
320,320,101120,2,0,L|448:320,1,120.00000089407,8|0,0:0|0:0,0:0:0:0:
480,256,102120,6,0,L|511:287,2,40.0000002980232,10|0|8,0:0|0:0|0:0,0:0:0:0:
416,160,103120,2,0,L|416:32,1,120.00000089407,8|0,0:0|0:0,0:0:0:0:
352,32,104120,6,0,L|383:0,2,40.0000002980232,14|0|8,0:0|0:0|0:0,0:0:0:0:
256,64,105120,2,0,L|128:64,1,120.00000089407,8|0,0:0|0:0,0:0:0:0:
64,64,106120,6,0,L|64:18,2,40.0000002980232,10|0|8,0:0|0:0|0:0,0:0:0:0:
64,160,107120,2,0,L|64:288,1,120.00000089407,8|0,0:0|0:0,0:0:0:0:
128,320,108120,6,0,L|64:352,2,60.0000027358533,14|0|0,0:0|0:0|0:0,0:0:0:0:
256,288,109120,1,8,0:0:0:0:
384,224,109620,1,8,0:0:0:0:
352,96,110120,6,0,L|288:127,3,60.0000027358533,14|8|2|8,0:0|0:0|0:0|0:0,0:0:0:0:
224,64,111120,1,10,0:0:0:0:
96,128,111495,1,10,0:0:0:0:
64,256,111870,1,10,0:0:0:0:
