osu file format v14

[General]
AudioFilename: Undertale OST- 100 - Megalovania.mp3
AudioLeadIn: 0
PreviewTime: 16120
Countdown: 0
SampleSet: Normal
StackLeniency: 0.7
Mode: 0
LetterboxInBreaks: 1
EpilepsyWarning: 1
WidescreenStoryboard: 1

[Editor]
DistanceSpacing: 0.8
BeatDivisor: 4
GridSize: 32
TimelineZoom: 1

[Metadata]
Title:MEGALOVANIA
TitleUnicode:MEGALOVANIA
Artist:toby fox
ArtistUnicode:toby fox
Creator:Donkz
Version:New Game
Source:UNDERTALE
Tags:Instrumental Sans Boss Genocide Bad Time Run Route Skeleton
BeatmapID:819586
BeatmapSetID:370511

[Difficulty]
HPDrainRate:2
CircleSize:2
OverallDifficulty:2
ApproachRate:2
SliderMultiplier:0.600000005960464
SliderTickRate:1

[Events]
//Background and Video events
0,0,"SansBG.jpg",0,0
//Break Periods
2,80320,94560
//Storyboard Layer 0 (Background)
//Storyboard Layer 1 (Fail)
//Storyboard Layer 2 (Pass)
//Storyboard Layer 3 (Foreground)
//Storyboard Sound Samples

[TimingPoints]
120,250,4,1,1,100,1,0
120,-133.333333333333,4,1,1,20,0,0
15120,-133.333333333333,4,1,1,35,0,0
16120,-100,4,1,1,50,0,1
32120,-133.333333333333,4,1,1,40,0,0
40120,-100,4,1,1,50,0,1
80120,-133.333333333333,4,1,1,50,0,0
96120,-200,4,1,1,35,0,0
108120,-133.333333333333,4,1,1,40,0,0
112120,-100,4,1,1,35,0,0
140120,-100,4,1,1,35,0,0
144120,-133.333333333333,4,1,1,25,0,0

[Colours]
Combo1 : 128,0,0
Combo2 : 0,128,192
Combo3 : 0,0,0
Combo4 : 255,255,255

[HitObjects]
64,192,15120,6,0,P|128:192|224:256,1,180.000008654595,0|14,0:0|0:0,0:0:0:0:
320,320,16620,1,0,0:0:0:0:
416,288,17120,6,0,P|416:192|352:64,1,240.000002384186,8|0,0:0|0:0,0:0:0:0:
256,32,18620,1,0,0:0:0:0:
160,64,19120,6,0,P|96:96|96:256,1,240.000002384186,8|0,0:0|0:0,0:0:0:0:
192,288,20620,1,0,0:0:0:0:
288,352,21120,6,0,P|416:352|480:256,1,240.000002384186,8|0,0:0|0:0,0:0:0:0:
416,192,22620,1,0,0:0:0:0:
320,128,23120,6,0,L|192:128,2,120.000001192093,8|8|6,0:0|0:0|0:0,0:0:0:0:
416,64,24620,1,0,0:0:0:0:
320,0,25120,6,0,P|192:0|96:64,1,240.000002384186,8|0,0:0|0:0,0:0:0:0:
64,160,26620,1,0,0:0:0:0:
0,256,27120,6,0,P|96:320|224:352,1,240.000002384186,8|0,0:0|0:0,0:0:0:0:
320,320,28620,1,0,0:0:0:0:
384,224,29120,6,0,L|160:128,1,240.000002384186,8|0,0:0|0:0,0:0:0:0:
64,160,30620,1,0,0:0:0:0:
128,256,31120,5,8,0:0:0:0:
192,352,31620,1,8,0:0:0:0:
288,320,32120,2,0,P|384:320|384:256,1,180.000008654595,6|8,0:0|0:0,0:0:0:0:
384,96,34120,6,0,P|320:96|224:160,1,180.000008654595,0|8,0:0|0:0,0:0:0:0:
64,224,36120,6,0,P|160:288|224:320,1,180.000008654595,0|8,0:0|0:0,0:0:0:0:
288,192,38120,6,0,P|256:160|320:64,1,180.000008654595,0|8,0:0|0:0,0:0:0:0:
416,96,39620,1,8,0:0:0:0:
384,192,40120,6,0,P|352:320|256:320,1,240.000002384186,6|0,0:0|0:0,0:0:0:0:
160,288,41620,1,8,0:0:0:0:
64,224,42120,6,0,P|32:96|96:96,1,240.000002384186
192,64,43620,1,8,0:0:0:0:
288,64,44120,6,0,P|352:128|352:160,1,120.000001192093,0|8,0:0|0:0,0:0:0:0:
352,256,45120,2,0,P|366:326|327:348,1,120.000001192093,0|8,0:0|0:0,0:0:0:0:
224,352,46120,6,0,P|192:352|128:288,1,120.000001192093
256,192,47120,12,6,48120,0:0:0:0:
64,64,49120,6,0,P|192:64|256:160,1,240.000002384186,8|0,0:0|0:0,0:0:0:0:
224,256,50620,1,0,0:0:0:0:
320,320,51120,6,0,P|448:288|416:224,1,240.000002384186,8|0,0:0|0:0,0:0:0:0:
384,128,52620,1,0,0:0:0:0:
288,64,53120,6,0,P|224:32|192:64,1,120.000001192093,8|8,0:0|0:0,0:0:0:0:
128,128,54120,2,0,P|96:192|128:224,1,120.000001192093
192,288,55120,5,8,0:0:0:0:
288,288,55620,1,8,0:0:0:0:
352,192,56120,2,0,P|384:128|352:96,1,120.000001192093,6|0,0:0|0:0,0:0:0:0:
256,32,57120,6,0,L|128:32,1,120.000001192093,8|0,0:0|0:0,0:0:0:0:
64,96,58120,2,0,P|64:160|64:224,1,120.000001192093
128,288,59120,2,0,L|256:288,1,120.000001192093,8|0,0:0|0:0,0:0:0:0:
352,288,60120,6,0,B|448:224|288:192|384:64,1,240.000002384186,8|8,0:0|0:0,0:0:0:0:
288,32,61620,1,0,0:0:0:0:
192,32,62120,6,0,B|96:64|64:160|128:224,1,240.000002384186,8|8,0:0|0:0,0:0:0:0:
192,288,63620,1,0,0:0:0:0:
288,320,64120,6,0,P|416:288|416:192,1,240.000002384186,6|8,0:0|0:0,0:0:0:0:
352,128,65620,1,0,0:0:0:0:
256,96,66120,5,0,0:0:0:0:
160,96,66620,1,0,0:0:0:0:
160,192,67120,1,8,0:0:0:0:
64,192,67620,1,0,0:0:0:0:
64,288,68120,6,0,P|75:331|147:336,1,120.000001192093
256,352,69120,2,0,P|288:352|352:288,1,120.000001192093,8|0,0:0|0:0,0:0:0:0:
352,192,70120,5,0,0:0:0:0:
352,96,70620,1,0,0:0:0:0:
256,64,71120,2,0,P|192:32|160:64,1,120.000001192093,8|8,0:0|0:0,0:0:0:0:
96,128,72120,6,0,P|64:192|96:224,1,120.000001192093,6|0,0:0|0:0,0:0:0:0:
160,288,73120,2,0,P|224:320|256:288,1,120.000001192093,8|0,0:0|0:0,0:0:0:0:
352,224,74120,6,0,P|352:160|352:96,1,120.000001192093,8|8,0:0|0:0,0:0:0:0:
448,96,75120,2,0,L|448:224,1,120.000001192093
448,320,76120,6,0,B|384:384|320:256|224:320,1,240.000002384186,8|8,0:0|0:0,0:0:0:0:
128,320,77620,1,0,0:0:0:0:
96,224,78120,6,0,B|64:160|96:64|224:64,1,240.000002384186,8|8,0:0|0:0,0:0:0:0:
320,64,79620,1,0,0:0:0:0:
416,64,80120,5,6,0:0:0:0:
64,64,96120,6,0,P|122:73|186:169,1,180.000001788139,0|8,0:0|0:0,0:0:0:0:
224,256,98120,6,0,P|320:320|352:288,1,180.000001788139,0|8,0:0|0:0,0:0:0:0:
416,224,100120,6,0,P|416:128|352:128,1,180.000001788139,0|8,0:0|0:0,0:0:0:0:
256,96,102120,6,0,P|192:160|128:224,1,180.000001788139,0|8,0:0|0:0,0:0:0:0:
96,320,104120,6,0,P|224:320|256:288,1,180.000001788139,0|8,0:0|0:0,0:0:0:0:
352,320,106120,6,0,P|416:320|416:224,1,180.000001788139,0|8,0:0|0:0,0:0:0:0:
384,128,108120,6,0,P|352:96|320:128,1,90.0000043272973
288,224,109120,1,0,0:0:0:0:
192,256,109620,1,8,0:0:0:0:
96,224,110120,6,0,P|52:235|40:192,1,90.0000043272973
96,128,111120,1,0,0:0:0:0:
192,96,111620,1,8,0:0:0:0:
288,64,112120,6,0,P|416:64|448:160,1,240.000002384186,6|0,0:0|0:0,0:0:0:0:
448,256,113620,1,8,0:0:0:0:
352,288,114120,6,0,P|256:224|160:128,1,240.000002384186
96,64,115620,1,8,0:0:0:0:
64,160,116120,6,0,P|32:224|64:256,1,120.000001192093
160,288,117120,2,0,P|224:320|256:288,1,120.000001192093,0|8,0:0|0:0,0:0:0:0:
320,224,118120,6,0,P|320:160|320:96,1,120.000001192093
224,96,119120,2,0,P|224:128|160:192,1,120.000001192093,0|8,0:0|0:0,0:0:0:0:
64,192,120120,6,0,P|128:320|224:320,1,240.000002384186,6|0,0:0|0:0,0:0:0:0:
320,320,121620,1,8,0:0:0:0:
416,320,122120,6,0,P|416:192|352:96,1,240.000002384186
288,32,123620,1,8,0:0:0:0:
192,32,124120,6,0,P|192:64|128:128,1,120.000001192093
64,192,125120,1,0,0:0:0:0:
64,288,125620,1,8,0:0:0:0:
160,320,126120,6,0,P|224:352|256:320,1,120.000001192093
352,288,127120,1,0,0:0:0:0:
416,224,127620,1,8,0:0:0:0:
352,128,128120,6,0,L|480:128,2,120.000001192093,6|0|0,0:0|0:0|0:0,0:0:0:0:
256,128,129620,1,8,0:0:0:0:
160,128,130120,6,0,L|32:128,2,120.000001192093
256,128,131620,1,8,0:0:0:0:
224,224,132120,6,0,P|224:256|160:320,1,120.000001192093
64,288,133120,2,0,P|64:256|128:192,1,120.000001192093,0|8,0:0|0:0,0:0:0:0:
192,128,134120,6,0,P|192:96|256:32,1,120.000001192093
320,96,135120,2,0,P|320:128|384:192,1,120.000001192093,0|8,0:0|0:0,0:0:0:0:
416,288,136120,6,0,L|288:320,3,120.000001192093,6|0|0|8,0:0|0:0|0:0|0:0,0:0:0:0:
192,320,138120,5,0,0:0:0:0:
96,288,138620,1,0,0:0:0:0:
32,224,139120,1,0,0:0:0:0:
32,128,139620,1,8,0:0:0:0:
128,96,140120,6,0,P|160:224|256:256,1,240.000002384186,6|0,0:0|0:0,0:0:0:0:
352,288,141620,1,8,0:0:0:0:
448,256,142120,6,0,P|416:128|320:96,1,240.000002384186,6|0,0:0|0:0,0:0:0:0:
224,64,143620,1,8,0:0:0:0:
128,96,144120,5,6,0:0:0:0:
32,256,146120,5,0,0:0:0:0:
224,352,148120,5,0,0:0:0:0:
416,256,150120,1,0,0:0:0:0:
320,96,152120,5,0,0:0:0:0:
224,192,154120,5,0,0:0:0:0:
