osu file format v14

[General]
AudioFilename: Undertale OST- 100 - Megalovania.mp3
AudioLeadIn: 0
PreviewTime: 16120
Countdown: 1
SampleSet: Normal
StackLeniency: 0.7
Mode: 0
LetterboxInBreaks: 1
WidescreenStoryboard: 0

[Editor]
DistanceSpacing: 0.8
BeatDivisor: 4
GridSize: 32
TimelineZoom: 1

[Metadata]
Title:MEGALOVANIA
TitleUnicode:MEGALOVANIA
Artist:toby fox
ArtistUnicode:toby fox
Creator:Donkz
Version:Dirty Hacker
Source:UNDERTALE
Tags:Instrumental Sans Boss Genocide Bad Time Run Route Skeleton
BeatmapID:818215
BeatmapSetID:370511

[Difficulty]
HPDrainRate:6
CircleSize:4
OverallDifficulty:8
ApproachRate:10
SliderMultiplier:2
SliderTickRate:1

[Events]
//Background and Video events
0,0,"SansBG.jpg",0,0
//Break Periods
2,80320,95670
//Storyboard Layer 0 (Background)
//Storyboard Layer 1 (Fail)
//Storyboard Layer 2 (Pass)
//Storyboard Layer 3 (Foreground)
//Storyboard Sound Samples

[TimingPoints]
120,250,4,1,1,100,1,0
120,-133.333333333333,4,1,1,20,0,0
15120,-133.333333333333,4,1,1,35,0,0
16120,-100,4,1,1,50,0,1
32120,-133.333333333333,4,1,1,40,0,0
40120,-100,4,1,1,50,0,1
80120,-133.333333333333,4,1,1,50,0,0
96120,-200,4,1,1,35,0,0
108120,-133.333333333333,4,1,1,40,0,0
112120,-100,4,1,1,35,0,0
140120,-100,4,1,1,35,0,0
144120,-133.333333333333,4,1,1,25,0,0

[Colours]
Combo1 : 128,0,0
Combo2 : 0,128,192
Combo3 : 0,0,0
Combo4 : 255,255,255

[HitObjects]
32,64,120,6,0,L|128:32,1,75.0000028610231
448,64,2120,6,0,L|480:160,1,75.0000028610231
192,224,4120,6,0,L|96:256,1,75.0000028610231
352,288,6120,6,0,L|416:352,1,75.0000028610231
64,32,8120,6,0,L|160:32,1,75.0000028610231
448,128,10120,6,0,L|352:128,1,75.0000028610231
64,256,12120,6,0,L|160:256,1,75.0000028610231
448,320,14120,6,0,L|352:320,1,75.0000028610231
256,320,15120,5,8,0:0:0:0:
160,192,15370,1,0,0:0:0:0:
96,288,15495,1,8,0:0:0:0:
352,192,15745,1,0,0:0:0:0:
416,288,15870,1,8,0:0:0:0:
448,64,16120,5,12,0:0:0:0:
288,32,16245,1,0,0:0:0:0:
224,160,16370,2,0,P|160:160|128:128,2,100,0|0|8,0:0|0:0|0:0,0:0:0:0:
160,288,16745,1,0,0:0:0:0:
32,192,16870,1,0,0:0:0:0:
128,32,16995,5,2,0:0:0:0:
256,320,17245,1,2,0:0:0:0:
384,32,17495,1,2,0:0:0:0:
448,224,17745,1,0,0:0:0:0:
320,288,17870,1,2,0:0:0:0:
192,224,17995,1,2,0:0:0:0:
96,64,18120,6,0,P|64:96|64:160,1,100,8|0,0:0|0:0,0:0:0:0:
160,288,18370,1,0,0:0:0:0:
192,128,18495,1,0,0:0:0:0:
352,96,18620,1,8,0:0:0:0:
416,224,18745,2,0,P|416:256|352:320,1,100
224,320,18995,6,0,P|128:288|128:160,1,200,2|2,0:0|0:0,0:0:0:0:
256,192,19495,2,0,P|352:160|320:64,1,200,2|0,0:0|0:0,0:0:0:0:
224,32,19870,1,2,0:0:0:0:
128,160,19995,1,2,0:0:0:0:
256,320,20120,6,0,L|384:320,2,100,8|0|0,0:0|0:0|0:0,0:0:0:0:
96,256,20495,1,0,0:0:0:0:
256,192,20620,1,8,0:0:0:0:
416,192,20745,2,0,P|416:128|384:96,1,100
224,32,20995,5,2,0:0:0:0:
224,352,21245,1,2,0:0:0:0:
64,192,21495,1,2,0:0:0:0:
352,192,21745,2,0,L|480:192,1,100,0|2,0:0|0:0,0:0:0:0:
320,32,21995,1,2,0:0:0:0:
224,192,22120,5,8,0:0:0:0:
320,320,22245,1,0,0:0:0:0:
224,192,22370,1,0,0:0:0:0:
64,192,22495,1,0,0:0:0:0:
224,192,22620,1,8,0:0:0:0:
384,160,22745,2,0,L|384:32,2,100
352,256,23120,5,10,0:0:0:0:
320,224,23182,1,0,0:0:0:0:
320,192,23245,1,0,0:0:0:0:
256,32,23370,1,0,0:0:0:0:
160,160,23495,1,10,0:0:0:0:
192,192,23557,1,0,0:0:0:0:
192,224,23620,1,8,0:0:0:0:
96,352,23745,1,0,0:0:0:0:
32,192,23870,1,10,0:0:0:0:
32,160,23932,1,0,0:0:0:0:
64,128,23995,1,0,0:0:0:0:
256,192,24120,5,12,0:0:0:0:
384,160,24245,1,0,0:0:0:0:
416,288,24370,1,0,0:0:0:0:
256,320,24495,2,0,P|192:352|128:320,2,100,0|8|0,0:0|0:0|0:0,0:0:0:0:
160,192,24870,1,0,0:0:0:0:
64,96,24995,5,2,0:0:0:0:
256,0,25245,1,2,0:0:0:0:
256,224,25495,1,2,0:0:0:0:
416,320,25745,1,0,0:0:0:0:
480,192,25870,1,2,0:0:0:0:
352,96,25995,1,2,0:0:0:0:
160,64,26120,6,0,P|128:64|96:128,1,100,8|0,0:0|0:0,0:0:0:0:
160,256,26370,2,0,P|170:286|242:294,1,100,0|0,0:0|0:0,0:0:0:0:
352,192,26620,2,0,P|354:160|293:122,1,100,8|0,0:0|0:0,0:0:0:0:
192,160,26870,1,0,0:0:0:0:
32,160,26995,6,0,P|32:256|128:288,1,200,2|2,0:0|0:0,0:0:0:0:
288,224,27495,2,0,P|192:128|224:96,1,200,2|0,0:0|0:0,0:0:0:0:
352,128,27870,1,2,0:0:0:0:
384,288,27995,1,2,0:0:0:0:
224,320,28120,5,8,0:0:0:0:
256,160,28245,1,0,0:0:0:0:
160,32,28370,2,0,P|96:64|96:128,2,100,0|0|8,0:0|0:0|0:0,0:0:0:0:
320,32,28745,1,0,0:0:0:0:
256,160,28870,1,0,0:0:0:0:
256,288,28995,5,2,0:0:0:0:
64,128,29245,1,2,0:0:0:0:
448,64,29495,1,2,0:0:0:0:
256,32,29745,1,0,0:0:0:0:
256,160,29870,1,2,0:0:0:0:
256,288,29995,1,2,0:0:0:0:
96,256,30120,5,8,0:0:0:0:
96,96,30245,1,0,0:0:0:0:
256,160,30370,1,0,0:0:0:0:
352,32,30495,1,0,0:0:0:0:
448,160,30620,1,8,0:0:0:0:
352,288,30745,2,0,P|256:320|224:320,1,100
96,288,30995,1,0,0:0:0:0:
64,96,31120,5,10,0:0:0:0:
96,64,31182,1,0,0:0:0:0:
128,32,31245,1,0,0:0:0:0:
288,96,31370,1,0,0:0:0:0:
384,224,31495,1,10,0:0:0:0:
352,256,31557,1,0,0:0:0:0:
320,288,31620,1,8,0:0:0:0:
160,256,31745,1,0,0:0:0:0:
224,128,31870,1,10,0:0:0:0:
256,160,31932,1,0,0:0:0:0:
288,192,31995,1,0,0:0:0:0:
448,288,32120,6,0,P|448:192|384:160,1,150.000005722046,14|0,0:0|0:0,0:0:0:0:
288,224,32495,2,0,P|224:288|160:256,1,150.000005722046
64,192,32995,1,0,0:0:0:0:
96,64,33245,1,0,0:0:0:0:
224,32,33495,2,0,B|311:8|263:91|219:103|318:123|350:68|263:91|406:100|286:179,1,225.000008583069
192,192,34120,5,8,0:0:0:0:
224,320,34370,1,0,0:0:0:0:
320,224,34495,2,0,B|352:192|384:128|288:96,1,150.000005722046
192,96,34995,1,0,0:0:0:0:
128,224,35245,1,0,0:0:0:0:
256,160,35370,1,0,0:0:0:0:
192,352,35495,1,0,0:0:0:0:
352,288,35620,1,8,0:0:0:0:
224,256,35745,1,0,0:0:0:0:
288,64,36120,6,8,B|352:0|416:64|384:128,1,150.000005722046,8|0,0:0|0:0,0:0:0:0:
384,224,36495,1,0,0:0:0:0:
224,160,36745,1,0,0:0:0:0:
288,320,36995,1,0,0:0:0:0:
96,160,37245,1,0,0:0:0:0:
160,320,37495,1,0,0:0:0:0:
320,160,37745,2,0,P|320:96|224:96,1,150.000005722046
128,128,38120,5,8,0:0:0:0:
192,288,38370,1,0,0:0:0:0:
352,352,38620,1,8,0:0:0:0:
416,224,38745,1,0,0:0:0:0:
352,96,38870,1,0,0:0:0:0:
256,192,38995,12,0,39870,0:0:0:0:
256,32,40120,6,0,P|160:32|96:128,1,200,14|0,0:0|0:0,0:0:0:0:
192,256,40620,1,8,0:0:0:0:
320,288,40745,1,0,0:0:0:0:
448,192,40995,1,0,0:0:0:0:
352,64,41245,1,0,0:0:0:0:
192,96,41495,2,0,B|160:64|96:128|96:192|192:160|352:192|128:256,1,300
416,320,42120,5,8,0:0:0:0:
352,160,42370,1,0,0:0:0:0:
256,288,42620,2,0,P|192:288|160:224,1,100,8|0,0:0|0:0,0:0:0:0:
64,128,42995,1,0,0:0:0:0:
192,32,43245,1,0,0:0:0:0:
192,224,43495,1,0,0:0:0:0:
320,64,43745,1,0,0:0:0:0:
320,192,43870,1,0,0:0:0:0:
32,320,44120,6,0,L|32:192,1,100,8|0,0:0|0:0,0:0:0:0:
128,128,44370,2,0,L|128:256,1,100
224,192,44620,2,0,L|224:64,1,100,8|0,0:0|0:0,0:0:0:0:
320,32,44870,2,0,L|320:160,1,100
480,320,45120,6,0,L|480:192,1,100,8|0,0:0|0:0,0:0:0:0:
384,128,45370,2,0,L|384:256,1,100
288,192,45620,2,0,L|288:64,1,100,8|0,0:0|0:0,0:0:0:0:
192,0,45870,2,0,L|192:128,1,100
96,160,46120,5,8,0:0:0:0:
192,288,46370,1,0,0:0:0:0:
352,256,46620,2,0,P|384:192|352:160,1,100,8|0,0:0|0:0,0:0:0:0:
256,64,46995,1,0,0:0:0:0:
160,32,47120,5,10,0:0:0:0:
128,64,47182,1,0,0:0:0:0:
96,96,47245,1,0,0:0:0:0:
32,224,47370,1,0,0:0:0:0:
128,352,47495,1,10,0:0:0:0:
160,352,47557,1,0,0:0:0:0:
192,352,47620,1,8,0:0:0:0:
352,288,47745,1,0,0:0:0:0:
416,160,47870,1,10,0:0:0:0:
384,128,47932,1,0,0:0:0:0:
352,96,47995,1,0,0:0:0:0:
288,256,48120,6,0,B|224:224|192:288|192:320|224:384|288:320|224:384|256:384|320:384|352:384|352:352|480:224|320:320|416:192|352:128|192:192,1,600,14|0,0:0|0:0,0:0:0:0:
160,96,49120,6,0,L|32:64,1,100,8|0,0:0|0:0,0:0:0:0:
160,256,49370,2,0,L|32:288,1,100
352,256,49620,2,0,L|480:288,1,100,8|0,0:0|0:0,0:0:0:0:
352,96,49870,2,0,L|480:64,1,100
256,32,50120,5,8,0:0:0:0:
224,64,50182,1,0,0:0:0:0:
256,96,50245,1,0,0:0:0:0:
288,128,50307,1,0,0:0:0:0:
256,160,50370,1,0,0:0:0:0:
160,256,50620,6,0,B|128:224|32:256|32:288|160:288|224:288|96:320|96:320|128:352|192:288|192:288|288:288|288:288|320:352|384:352|416:288|320:288|320:288|416:224|320:224|256:288,1,800,8|8,0:0|0:0,0:0:0:0:
192,160,51745,5,0,0:0:0:0:
96,32,51995,2,0,L|224:32,1,100,0|8,0:0|0:0,0:0:0:0:
352,128,52370,1,0,0:0:0:0:
448,64,52495,1,0,0:0:0:0:
192,160,52620,1,8,0:0:0:0:
96,96,52745,1,0,0:0:0:0:
320,288,52870,1,0,0:0:0:0:
416,224,52995,1,0,0:0:0:0:
160,320,53120,6,0,P|64:288|64:160,1,200,8|0,0:0|0:0,0:0:0:0:
160,96,53620,2,0,P|256:96|256:192,1,200,8|0,0:0|0:0,0:0:0:0:
320,288,54120,2,0,P|384:352|448:288,1,200,8|0,0:0|0:0,0:0:0:0:
448,64,54620,5,8,0:0:0:0:
352,96,54745,1,0,0:0:0:0:
416,192,54870,1,0,0:0:0:0:
288,224,54995,1,0,0:0:0:0:
160,64,55120,5,10,0:0:0:0:
128,64,55182,1,0,0:0:0:0:
96,96,55245,1,0,0:0:0:0:
192,192,55370,1,0,0:0:0:0:
32,192,55495,1,10,0:0:0:0:
0,224,55557,1,0,0:0:0:0:
32,256,55620,1,8,0:0:0:0:
192,192,55745,1,0,0:0:0:0:
192,352,55870,1,10,0:0:0:0:
224,384,55932,1,0,0:0:0:0:
256,352,55995,1,0,0:0:0:0:
352,224,56120,6,0,L|352:96,1,100,14|0,0:0|0:0,0:0:0:0:
256,64,56370,2,0,L|128:64,1,100
96,96,56620,2,0,L|0:192,1,100,8|0,0:0|0:0,0:0:0:0:
32,256,56870,2,0,L|128:352,1,100
192,320,57120,6,0,P|320:320|352:256,1,200,8|0,0:0|0:0,0:0:0:0:
192,128,57620,2,0,P|67:131|32:64,1,200
352,64,58120,6,0,P|480:64|512:128,1,200,8|0,0:0|0:0,0:0:0:0:
320,224,58620,2,0,P|288:352|224:352,1,200,8|0,0:0|0:0,0:0:0:0:
96,224,59120,6,0,P|64:96|128:64,1,200,8|0,0:0|0:0,0:0:0:0:
320,128,59620,2,0,P|416:32|448:64,1,200,8|0,0:0|0:0,0:0:0:0:
288,224,60120,6,0,B|352:160|480:128|512:224|384:256|384:256|512:384|352:384|288:224,1,600,8|0,0:0|0:0,0:0:0:0:
64,384,61120,5,8,0:0:0:0:
160,320,61245,1,0,0:0:0:0:
64,256,61370,1,0,0:0:0:0:
160,192,61495,1,0,0:0:0:0:
64,0,61620,5,8,0:0:0:0:
160,64,61745,1,0,0:0:0:0:
64,128,61870,1,0,0:0:0:0:
160,192,61995,1,0,0:0:0:0:
256,192,62120,6,0,P|416:64|288:224,1,600
160,288,63120,5,10,0:0:0:0:
192,320,63182,1,0,0:0:0:0:
224,352,63245,1,0,0:0:0:0:
352,352,63370,1,0,0:0:0:0:
480,288,63495,1,10,0:0:0:0:
512,256,63557,1,0,0:0:0:0:
480,224,63620,1,8,0:0:0:0:
384,160,63745,1,0,0:0:0:0:
288,256,63870,1,10,0:0:0:0:
256,224,63932,1,0,0:0:0:0:
256,192,63995,1,0,0:0:0:0:
256,32,64120,6,0,L|128:64,1,100,14|0,0:0|0:0,0:0:0:0:
32,128,64370,2,0,L|160:160,1,100
256,224,64620,2,0,L|128:256,1,100,8|0,0:0|0:0,0:0:0:0:
32,320,64870,2,0,L|160:352,1,100
320,320,65120,6,0,L|411:225,1,100,8|0,0:0|0:0,0:0:0:0:
192,64,65370,2,0,L|100:158,1,100,8|0,0:0|0:0,0:0:0:0:
128,256,65620,2,0,L|222:347,1,100,8|0,0:0|0:0,0:0:0:0:
384,128,65870,2,0,L|289:36,1,100,8|0,0:0|0:0,0:0:0:0:
192,128,66120,5,8,0:0:0:0:
224,160,66182,1,0,0:0:0:0:
256,192,66245,1,0,0:0:0:0:
288,160,66307,1,0,0:0:0:0:
320,128,66370,1,0,0:0:0:0:
256,288,66620,6,0,B|128:192|0:224|0:320|128:384|160:384|288:288|352:128|512:192|512:320|416:384|256:288,1,800,8|8,0:0|0:0,0:0:0:0:
128,96,67745,6,0,P|224:32|320:64,1,200
416,160,68120,1,8,0:0:0:0:
288,352,68370,1,0,0:0:0:0:
96,256,68495,1,0,0:0:0:0:
288,160,68620,1,8,0:0:0:0:
160,352,68745,1,0,0:0:0:0:
160,160,68870,1,0,0:0:0:0:
352,256,68995,1,0,0:0:0:0:
480,128,69120,6,0,P|448:32|320:32,1,200,8|0,0:0|0:0,0:0:0:0:
256,224,69620,2,0,P|256:320|160:320,1,200,8|0,0:0|0:0,0:0:0:0:
96,128,70120,2,0,P|32:64|96:0,1,200,8|0,0:0|0:0,0:0:0:0:
288,64,70620,5,8,0:0:0:0:
384,192,70745,1,0,0:0:0:0:
320,320,70995,1,0,0:0:0:0:
160,320,71120,5,10,0:0:0:0:
128,288,71182,1,0,0:0:0:0:
96,256,71245,1,0,0:0:0:0:
0,128,71370,1,0,0:0:0:0:
128,32,71495,1,10,0:0:0:0:
160,32,71557,1,0,0:0:0:0:
192,32,71620,1,8,0:0:0:0:
288,160,71745,1,0,0:0:0:0:
384,256,71870,1,10,0:0:0:0:
352,288,71932,1,0,0:0:0:0:
320,320,71995,1,0,0:0:0:0:
256,164,72120,6,0,L|256:36,1,100,14|0,0:0|0:0,0:0:0:0:
256,160,72370,2,0,L|384:160,1,100
256,160,72620,2,0,L|256:288,1,100,8|0,0:0|0:0,0:0:0:0:
256,160,72870,2,0,L|128:160,1,100
256,288,73120,6,0,P|384:288|416:224,1,200,8|0,0:0|0:0,0:0:0:0:
0,32,73620,2,0,P|125:29|160:96,1,200,8|0,0:0|0:0,0:0:0:0:
448,32,74120,6,0,P|448:160|384:192,1,200,8|0,0:0|0:0,0:0:0:0:
160,352,74620,2,0,P|32:320|32:256,1,200,8|0,0:0|0:0,0:0:0:0:
288,192,75120,6,0,P|256:64|320:32,1,200,8|0,0:0|0:0,0:0:0:0:
288,320,75620,2,0,P|384:224|352:192,1,200,8|0,0:0|0:0,0:0:0:0:
192,160,76120,6,0,B|-20:237|-76:281|-16:380|41:407|126:376|153:318|180:260|205:130,1,600,8|0,0:0|0:0,0:0:0:0:
416,32,77120,5,8,0:0:0:0:
288,64,77245,1,0,0:0:0:0:
480,160,77370,1,0,0:0:0:0:
352,192,77495,1,0,0:0:0:0:
416,352,77620,5,8,0:0:0:0:
288,320,77745,1,0,0:0:0:0:
480,224,77870,1,0,0:0:0:0:
352,192,77995,1,0,0:0:0:0:
256,192,78120,6,0,P|96:64|224:224,1,600,8|0,0:0|0:0,0:0:0:0:
128,320,79120,5,10,0:0:0:0:
160,352,79182,1,0,0:0:0:0:
192,352,79245,1,0,0:0:0:0:
320,256,79370,1,0,0:0:0:0:
480,288,79495,1,10,0:0:0:0:
512,256,79557,1,0,0:0:0:0:
512,224,79620,1,8,0:0:0:0:
384,128,79745,1,0,0:0:0:0:
256,32,79870,1,10,0:0:0:0:
224,32,79932,1,0,0:0:0:0:
192,64,79995,1,0,0:0:0:0:
256,224,80120,5,14,0:0:0:0:
448,64,96120,5,12,0:0:0:0:
384,128,96370,2,0,P|384:192|352:224,1,100,0|8,0:0|0:0,0:0:0:0:
288,160,96995,1,0,0:0:0:0:
192,128,97245,1,0,0:0:0:0:
128,192,97495,1,0,0:0:0:0:
128,288,97745,1,0,0:0:0:0:
160,288,97870,1,0,0:0:0:0:
192,288,97995,1,0,0:0:0:0:
288,256,98120,5,8,0:0:0:0:
384,256,98370,1,0,0:0:0:0:
384,160,98620,1,8,0:0:0:0:
320,96,98995,2,0,P|256:128|256:160,1,100,0|2,0:0|0:0,0:0:0:0:
224,216,99495,2,0,P|192:288|160:288,1,100
160,288,99870,1,0,0:0:0:0:
128,288,99995,1,0,0:0:0:0:
96,224,100120,6,0,L|96:102,2,100,8|0|8,0:0|0:0|0:0,0:0:0:0:
192,224,100995,1,0,0:0:0:0:
256,256,101245,1,0,0:0:0:0:
320,224,101495,1,0,0:0:0:0:
416,224,101745,2,0,L|416:288,1,50
416,288,101995,1,0,0:0:0:0:
352,320,102120,5,8,0:0:0:0:
288,256,102370,1,0,0:0:0:0:
224,320,102620,1,8,0:0:0:0:
160,288,102995,2,0,L|90:213,2,100
192,224,103745,1,0,0:0:0:0:
224,192,103870,1,0,0:0:0:0:
256,160,103995,1,0,0:0:0:0:
352,160,104120,5,8,0:0:0:0:
352,64,104370,1,0,0:0:0:0:
256,64,104620,1,0,0:0:0:0:
160,128,104995,1,0,0:0:0:0:
160,192,105245,1,0,0:0:0:0:
160,256,105495,1,0,0:0:0:0:
160,320,105745,1,0,0:0:0:0:
192,320,105870,1,2,0:0:0:0:
224,320,105995,1,2,0:0:0:0:
320,288,106120,6,0,P|352:288|384:224,1,100,8|0,0:0|0:0,0:0:0:0:
352,160,106620,1,8,0:0:0:0:
288,96,106995,6,0,P|224:96|192:128,1,100
256,160,107495,2,0,P|224:192|160:192,1,100,2|0,0:0|0:0,0:0:0:0:
128,192,107870,1,0,0:0:0:0:
96,192,107995,1,0,0:0:0:0:
96,96,108120,5,8,0:0:0:0:
192,32,108370,1,0,0:0:0:0:
320,32,108620,1,8,0:0:0:0:
352,192,108995,5,0,0:0:0:0:
224,256,109245,1,0,0:0:0:0:
96,224,109495,1,0,0:0:0:0:
128,352,109745,1,0,0:0:0:0:
192,352,109870,1,2,0:0:0:0:
256,352,109995,1,2,0:0:0:0:
384,256,110120,5,8,0:0:0:0:
448,128,110245,1,0,0:0:0:0:
320,64,110370,1,0,0:0:0:0:
256,192,110495,1,0,0:0:0:0:
192,64,110620,1,8,0:0:0:0:
96,160,110745,2,0,L|128:256,1,75.0000028610231
192,320,110995,1,0,0:0:0:0:
352,320,111120,5,10,0:0:0:0:
384,288,111182,1,0,0:0:0:0:
416,256,111245,1,0,0:0:0:0:
384,96,111370,1,0,0:0:0:0:
288,256,111495,1,10,0:0:0:0:
320,224,111557,1,0,0:0:0:0:
352,192,111620,1,8,0:0:0:0:
288,32,111745,1,0,0:0:0:0:
224,192,111870,1,10,0:0:0:0:
256,160,111932,1,0,0:0:0:0:
288,128,111995,1,0,0:0:0:0:
160,32,112120,6,0,P|96:128|128:224,1,200,14|0,0:0|0:0,0:0:0:0:
128,352,112620,1,8,0:0:0:0:
256,288,112745,1,0,0:0:0:0:
384,256,112870,1,0,0:0:0:0:
384,128,112995,1,8,0:0:0:0:
256,32,113245,1,8,0:0:0:0:
128,128,113495,1,8,0:0:0:0:
96,288,113745,1,0,0:0:0:0:
224,320,113870,1,8,0:0:0:0:
384,288,114120,6,0,P|448:192|416:96,1,200,10|0,0:0|0:0,0:0:0:0:
320,32,114620,2,0,L|192:32,1,100,8|0,0:0|0:0,0:0:0:0:
96,0,114870,1,0,0:0:0:0:
64,128,114995,1,8,0:0:0:0:
64,288,115245,1,8,0:0:0:0:
192,192,115495,1,8,0:0:0:0:
352,192,115745,1,0,0:0:0:0:
448,192,115870,1,8,0:0:0:0:
320,32,116120,6,0,L|96:96,1,200,10|0,0:0|0:0,0:0:0:0:
64,192,116620,1,8,0:0:0:0:
128,320,116745,1,0,0:0:0:0:
224,224,116870,1,0,0:0:0:0:
320,320,116995,2,0,P|416:224|384:192,1,200,8|8,0:0|0:0,0:0:0:0:
256,160,117495,2,0,P|160:64|128:96,1,200,8|0,0:0|0:0,0:0:0:0:
64,160,117870,1,8,0:0:0:0:
160,320,118120,6,0,P|288:352|355:323,1,200,8|0,0:0|0:0,0:0:0:0:
416,224,118620,2,0,P|448:160|416:128,1,100,8|0,0:0|0:0,0:0:0:0:
320,160,118870,1,0,0:0:0:0:
288,32,118995,2,0,L|64:32,1,200,8|8,0:0|0:0,0:0:0:0:
96,192,119495,2,0,L|320:192,1,200,8|0,0:0|0:0,0:0:0:0:
192,288,119870,1,8,0:0:0:0:
352,320,120120,6,0,P|416:224|384:128,1,200,14|0,0:0|0:0,0:0:0:0:
320,32,120620,1,8,0:0:0:0:
256,128,120745,1,0,0:0:0:0:
192,32,120870,1,0,0:0:0:0:
96,128,120995,2,0,P|64:224|128:288,1,200,8|8,0:0|0:0,0:0:0:0:
288,352,121495,1,8,0:0:0:0:
416,256,121745,1,0,0:0:0:0:
416,128,121870,1,8,0:0:0:0:
288,32,122120,6,0,P|192:96|224:192,1,200,10|0,0:0|0:0,0:0:0:0:
128,320,122620,2,0,P|192:352|224:320,1,100,8|0,0:0|0:0,0:0:0:0:
288,256,122870,2,0,P|352:224|352:192,1,100,0|8,0:0|0:0,0:0:0:0:
288,64,123245,1,8,0:0:0:0:
128,32,123495,1,8,0:0:0:0:
64,128,123745,2,0,L|64:256,1,100,0|8,0:0|0:0,0:0:0:0:
224,256,124120,6,0,P|320:320|416:288,1,200,10|0,0:0|0:0,0:0:0:0:
480,160,124620,1,8,0:0:0:0:
416,64,124745,1,0,0:0:0:0:
288,32,124870,1,0,0:0:0:0:
160,64,124995,2,0,P|64:96|96:192,1,200,8|8,0:0|0:0,0:0:0:0:
128,320,125495,1,8,0:0:0:0:
224,192,125745,1,0,0:0:0:0:
288,288,125870,1,8,0:0:0:0:
448,224,126120,6,0,P|425:110|334:65,1,200,10|0,0:0|0:0,0:0:0:0:
192,64,126620,2,0,P|128:96|128:160,1,100,8|0,0:0|0:0,0:0:0:0:
96,256,126870,1,0,0:0:0:0:
224,320,126995,2,0,P|352:320|384:256,1,200,8|8,0:0|0:0,0:0:0:0:
256,224,127495,2,0,P|320:128|416:160,1,200,8|0,0:0|0:0,0:0:0:0:
480,224,127870,1,8,0:0:0:0:
448,64,128120,6,0,P|352:0|256:32,1,200,14|0,0:0|0:0,0:0:0:0:
128,32,128620,2,0,L|32:128,1,100,8|0,0:0|0:0,0:0:0:0:
64,224,128870,2,0,L|128:320,1,100,0|8,0:0|0:0,0:0:0:0:
288,320,129245,1,8,0:0:0:0:
192,192,129495,2,0,P|160:96|256:96,1,200,8|0,0:0|0:0,0:0:0:0:
352,128,129870,1,8,0:0:0:0:
480,224,130120,6,0,P|416:320|320:288,1,200,10|0,0:0|0:0,0:0:0:0:
192,352,130620,1,8,0:0:0:0:
96,256,130745,1,0,0:0:0:0:
192,160,130870,1,0,0:0:0:0:
288,32,130995,2,0,B|384:32|416:96|384:160,1,200,8|8,0:0|0:0,0:0:0:0:
448,320,131495,1,8,0:0:0:0:
288,352,131745,2,0,P|224:320|224:288,1,100,0|8,0:0|0:0,0:0:0:0:
96,192,132120,6,0,P|128:96|224:96,1,200,10|0,0:0|0:0,0:0:0:0:
224,256,132620,2,0,P|224:320|256:352,1,100,8|0,0:0|0:0,0:0:0:0:
384,352,132870,2,0,P|416:288|384:224,1,100,0|8,0:0|0:0,0:0:0:0:
320,128,133245,1,8,0:0:0:0:
192,64,133495,2,0,P|96:32|96:96,1,200,8|0,0:0|0:0,0:0:0:0:
96,224,133870,1,8,0:0:0:0:
224,320,134120,6,0,P|320:352|384:288,1,200,10|0,0:0|0:0,0:0:0:0:
480,160,134620,1,8,0:0:0:0:
352,160,134745,1,0,0:0:0:0:
224,160,134870,1,0,0:0:0:0:
96,160,134995,2,0,P|128:64|224:32,1,200,8|8,0:0|0:0,0:0:0:0:
352,96,135495,2,0,P|448:192|416:256,1,200,8|0,0:0|0:0,0:0:0:0:
320,320,135870,1,8,0:0:0:0:
160,320,136120,6,0,P|96:224|128:128,1,200,14|0,0:0|0:0,0:0:0:0:
256,96,136620,1,8,0:0:0:0:
224,224,136745,1,0,0:0:0:0:
320,320,136870,1,0,0:0:0:0:
448,288,136995,1,8,0:0:0:0:
480,128,137245,1,8,0:0:0:0:
352,32,137495,1,8,0:0:0:0:
192,32,137745,2,0,L|96:96,1,100,0|8,0:0|0:0,0:0:0:0:
32,224,138120,6,0,P|64:320|160:320,1,200,10|0,0:0|0:0,0:0:0:0:
320,320,138620,2,0,L|448:320,2,100,8|0|8,0:0|0:0|0:0,0:0:0:0:
256,224,138995,1,8,0:0:0:0:
256,64,139245,1,8,0:0:0:0:
96,64,139495,1,8,0:0:0:0:
128,224,139745,2,0,P|160:288|192:288,1,100,0|8,0:0|0:0,0:0:0:0:
352,352,140120,5,14,0:0:0:0:
416,224,140245,1,0,0:0:0:0:
352,96,140370,2,0,B|256:32|256:32|160:64,1,200,0|8,0:0|0:0,0:0:0:0:
64,192,140995,1,2,0:0:0:0:
160,320,141245,1,2,0:0:0:0:
288,224,141495,1,2,0:0:0:0:
448,256,141745,1,0,0:0:0:0:
480,128,141870,1,2,0:0:0:0:
384,32,141995,1,2,0:0:0:0:
224,64,142120,6,0,P|192:96|192:160,1,100,8|0,0:0|0:0,0:0:0:0:
64,256,142370,1,0,0:0:0:0:
192,352,142620,1,8,0:0:0:0:
320,256,142995,2,0,P|320:192|192:160,1,200,2|2,0:0|0:0,0:0:0:0:
64,96,143495,2,0,P|96:0|192:32,1,200,2|0,0:0|0:0,0:0:0:0:
288,64,143870,1,2,0:0:0:0:
416,96,143995,1,2,0:0:0:0:
256,192,144120,5,0,0:0:0:0:
256,192,144245,1,0,0:0:0:0:
192,320,144370,1,0,0:0:0:0:
64,224,144620,1,0,0:0:0:0:
128,32,144995,1,0,0:0:0:0:
288,32,145245,1,0,0:0:0:0:
416,128,145495,1,0,0:0:0:0:
384,288,145745,1,0,0:0:0:0:
320,192,145870,1,0,0:0:0:0:
192,160,145995,1,0,0:0:0:0:
32,160,146120,5,0,0:0:0:0:
32,160,146245,1,0,0:0:0:0:
64,288,146370,1,0,0:0:0:0:
224,352,146620,1,0,0:0:0:0:
416,352,146995,1,0,0:0:0:0:
448,192,147245,1,0,0:0:0:0:
352,64,147495,1,0,0:0:0:0:
256,192,147745,2,0,L|174:142,1,75.0000028610231
64,96,147995,1,0,0:0:0:0:
64,224,148120,5,0,0:0:0:0:
64,224,148245,1,0,0:0:0:0:
160,288,148370,1,0,0:0:0:0:
320,320,148620,1,0,0:0:0:0:
448,160,148995,1,0,0:0:0:0:
352,32,149245,1,0,0:0:0:0:
256,160,149495,1,0,0:0:0:0:
96,224,149745,2,0,L|64:128,2,75.0000028610231
160,320,150120,6,0,P|192:352|224:352,1,75.0000028610231
352,352,150370,1,0,0:0:0:0:
256,224,150620,1,0,0:0:0:0:
352,64,150995,1,0,0:0:0:0:
480,160,151245,1,0,0:0:0:0:
416,320,151495,1,0,0:0:0:0:
288,224,151745,1,0,0:0:0:0:
192,128,151870,2,0,P|160:128|128:160,1,75.0000028610231
128,288,152120,6,0,L|224:288,2,75.0000028610231
352,224,152620,1,0,0:0:0:0:
256,64,152995,1,0,0:0:0:0:
96,64,153245,1,0,0:0:0:0:
192,192,153495,1,0,0:0:0:0:
320,288,153745,2,0,P|350:279|373:240,2,75.0000028610231
192,320,154120,5,0,0:0:0:0:
192,320,154245,1,0,0:0:0:0:
96,256,154370,1,0,0:0:0:0:
32,96,154620,1,0,0:0:0:0:
224,32,154995,1,0,0:0:0:0:
256,192,155245,1,0,0:0:0:0:
352,320,155495,1,0,0:0:0:0:
480,224,155745,1,0,0:0:0:0:
416,128,155870,1,0,0:0:0:0:
352,32,155995,1,0,0:0:0:0:
