osu file format v14

[General]
AudioFilename: audio.mp3
AudioLeadIn: 0
PreviewTime: 296495
Countdown: 0
SampleSet: Normal
StackLeniency: 0.7
Mode: 0
LetterboxInBreaks: 0
WidescreenStoryboard: 1

[Editor]
Bookmarks: 58541,110111,181516,229119,237053,244987,252921
DistanceSpacing: 0.4
BeatDivisor: 16
GridSize: 32
TimelineZoom: 1.6

[Metadata]
Title:MEGALOVANIA (Camellia Remix)
TitleUnicode:MEGALOVANIA (かめりあ Remix)
Artist:toby fox
ArtistUnicode:toby fox
Creator:Regou
Version:GENOCIDE
Source:UNDERTALE
Tags:Electronic Instrumental cametek kamelcamellia かめるかめりあ sans boss battle theme frisk chara hardcore dubstep speedcore j-core bad time rpg papyrus ost soundtrack 夏生 Natsuki
BeatmapID:2218609
BeatmapSetID:1043265

[Difficulty]
HPDrainRate:5
CircleSize:4
OverallDifficulty:8.2
ApproachRate:9.5
SliderMultiplier:2
SliderTickRate:1

[Events]
//Background and Video events
0,0,"megalovania.jpg",0,0
//Break Periods
2,237258,244467
2,245192,252401
//Storyboard Layer 0 (Background)
//Storyboard Layer 1 (Fail)
//Storyboard Layer 2 (Pass)
//Storyboard Layer 3 (Foreground)
//Storyboard Layer 4 (Overlay)
//Storyboard Sound Samples

[TimingPoints]
3009,247.933884297521,4,1,2,25,1,0
3009,-344.827586206897,4,2,2,25,0,0
9827,-133.333333333333,4,2,1,50,0,0
10943,-133.333333333333,4,2,1,70,0,0
19372,-200,4,2,1,70,0,0
20488,-100,4,2,1,70,0,0
21356,-200,4,2,1,70,0,0
24455,-100,4,2,1,70,0,0
25943,-100,4,2,2,70,0,0
26810,-117.647058823529,4,2,1,60,0,0
30405,-117.647058823529,4,2,1,70,0,0
31769,-66.6666666666667,4,2,1,80,0,0
32761,-66.6666666666667,4,2,2,80,0,0
34248,-133.333333333333,4,2,2,80,0,0
34744,-100,4,1,2,80,0,0
34992,-83.3333333333333,4,1,2,80,0,0
35240,-100,4,1,2,80,0,0
36976,-83.3333333333333,4,1,2,80,0,0
37224,-100,4,1,2,80,0,0
38959,-83.3333333333333,4,1,2,80,0,0
39207,-100,4,1,2,80,0,0
40943,-83.3333333333333,4,1,2,80,0,0
41191,-100,4,1,2,80,0,0
42926,-83.3333333333333,4,1,2,80,0,0
43174,-100,4,1,2,80,0,0
44910,-83.3333333333333,4,1,2,80,0,0
45157,-100,4,1,2,80,0,0
46273,-133.333333333333,4,1,2,80,0,0
47017,-100,4,1,1,80,0,0
49620,-75.187969924812,4,1,1,80,0,0
49992,-100,4,1,2,80,0,0
50116,-133.333333333333,4,1,2,80,0,0
56562,-133.333333333333,4,1,1,80,0,0
58546,-100,4,1,2,80,0,0
74414,-200,4,1,2,80,0,0
75157,-100,4,1,2,70,0,0
78009,-133.333333333333,4,1,2,80,0,0
78381,-100,4,1,2,80,0,0
90281,-200,4,1,2,80,0,0
91025,-100,4,1,2,70,0,0
93876,-133.333333333333,4,1,2,80,0,0
94248,-100,4,1,2,80,0,0
104414,-133.333333333333,4,1,1,80,0,0
109372,-83.3333333333333,4,1,1,80,0,0
112100,-200,4,1,1,60,0,0
113091,-133.333333333333,4,1,1,70,0,0
116562,-111.111111111111,4,1,1,70,0,0
117306,-133.333333333333,4,1,1,70,0,0
124000,-100,4,1,1,70,0,0
137885,-100,4,1,2,80,0,0
145075,-200,4,1,2,80,0,0
145819,-100,4,1,2,80,0,0
153753,-200,4,1,2,80,0,0
154496,-100,4,1,2,70,0,0
157348,-133.333333333333,4,1,2,80,0,0
158215,-83.3333333333333,4,1,2,80,0,0
158835,-100,4,1,2,80,0,0
159145,-83.3333333333333,4,1,2,80,0,0
160943,-100,4,1,2,80,0,0
169620,-200,4,1,2,80,0,0
170364,-100,4,1,2,70,0,0
173215,-133.333333333333,4,1,2,80,0,0
173587,-100,4,1,2,80,0,0
184000,-200,4,1,2,80,0,0
189455,-133.333333333333,4,1,2,80,0,0
194414,-66.6666666666667,4,1,2,80,0,0
195901,-133.333333333333,4,1,2,80,0,0
196893,-100,4,1,2,80,0,0
197389,-117.647058823529,4,1,2,80,0,0
198876,-166.666666666667,4,1,2,80,0,0
199372,-117.647058823529,4,1,1,80,0,0
199620,-117.647058823529,4,1,2,80,0,0
204827,-117.647058823529,4,1,1,80,0,0
205323,-100,4,1,2,80,0,0
206810,-100,4,1,1,80,0,0
207058,-100,4,1,1,80,0,0
213257,-117.647058823529,4,1,1,80,0,0
214744,-166.666666666667,4,1,1,80,0,0
215240,-117.647058823529,4,1,1,80,0,0
221191,-100,4,1,2,80,0,0
229186,-100,4,1,2,60,0,0
237058,-100,4,1,2,50,0,0
244992,-100,4,1,2,40,0,0
252926,-393.700787401575,4,2,1,70,0,0
267430,-133.333333333333,4,2,1,70,0,0
274372,-100,4,2,1,70,0,0
275984,-100,4,2,1,70,0,0
276728,-200,4,2,1,70,0,0
279207,-133.333333333333,4,2,1,70,0,0
288629,-117.647058823529,4,2,1,80,0,0
292595,-66.6666666666667,4,2,1,80,0,0
294827,-100,4,2,1,80,0,0
296314,-66.6666666666667,4,2,1,80,0,0
296562,-222.222222222222,4,2,1,80,0,0
297058,-200,4,2,1,80,0,0
297926,-117.647058823529,4,2,1,80,0,0
298794,-117.647058823529,4,2,2,80,0,0
299414,-117.647058823529,4,2,1,80,0,0
300529,-80,4,1,2,90,0,1
301025,-95.2380952380952,4,1,2,90,0,1
302513,-95.2380952380952,4,1,1,90,0,1
302761,-80,4,1,2,90,0,1
303009,-95.2380952380952,4,1,2,90,0,1
304744,-80,4,1,2,90,0,1
304992,-95.2380952380952,4,1,2,90,0,1
308711,-80,4,1,2,90,0,1
308959,-95.2380952380952,4,1,2,90,0,1
310695,-80,4,1,2,90,0,1
310943,-95.2380952380952,4,1,2,90,0,1
313422,-95.2380952380952,4,1,1,90,0,1
313546,-95.2380952380952,4,1,2,90,0,1
313918,-95.2380952380952,4,1,1,90,0,1
314042,-95.2380952380952,4,1,2,90,0,1
315281,-95.2380952380952,4,1,1,90,0,1
315777,-80,4,1,2,90,0,1
316645,-80,4,1,2,90,0,1
317265,-95.2380952380952,4,1,2,90,0,1
318629,-80,4,1,2,90,0,1
319248,-95.2380952380952,4,1,2,90,0,1
320364,-80,4,1,2,90,0,1
327678,-117.647058823529,4,1,2,90,0,1
328298,-133.333333333333,4,1,2,90,0,0
330777,-117.647058823529,4,1,2,70,0,0
331893,-66.6666666666667,4,1,2,70,0,0
332513,-100,4,1,2,70,0,0
333257,-66.6666666666667,4,1,2,70,0,0
334496,-133.333333333333,4,1,2,70,0,0
335488,-153.846153846154,4,1,2,70,0,0
336232,-66.6666666666667,4,1,2,80,0,0
336480,-66.6666666666667,4,1,2,80,0,0
340199,-95.2380952380952,4,1,2,80,0,1
340447,-80,4,1,2,80,0,1
340695,-95.2380952380952,4,1,2,80,0,1
342430,-80,4,1,2,80,0,1
344166,-66.6666666666667,4,1,2,80,0,0
344290,-66.6666666666667,4,1,2,80,0,0
347637,-83.3333333333333,4,1,2,80,0,0
348133,-66.6666666666667,4,1,2,80,0,0
351108,-151.515151515152,4,1,2,80,0,0
351604,-100,4,1,2,80,0,0
352099,-100,4,1,2,80,0,1
352348,-80,4,1,2,80,0,1
356067,-80,4,1,2,90,0,1
357182,-66.6666666666667,4,1,2,90,0,1
357430,-80,4,1,2,90,0,1
358050,-66.6666666666667,4,1,2,90,0,1
358422,-80,4,1,2,90,0,1
359909,-83.3333333333333,4,1,2,90,0,1
359971,-133.333333333333,4,1,2,10,0,0

[Colours]
Combo1 : 102,94,255
Combo2 : 255,0,128
Combo3 : 255,225,85
Combo4 : 128,243,253

[HitObjects]
118,108,3009,6,0,B|119:93|122:2|257:-13|232:-30|372:-22|430:29|474:134|431:191|383:242|330:269|230:173|249:174|333:202|355:190|395:160|395:160|359:238|370:268|370:268|323:305|312:364|312:364|294:357|294:357|272:367|272:367|263:335|255:288|255:288|250:336|239:368|239:368|223:350|223:350|203:362|203:362|190:313|145:266|145:266|154:234|121:164|121:164|164:208|232:174|257:205|137:201|122:196,1,1508.00004602051,4|2,1:2|0:0,0:0:0:0:
51,314,9827,5,0,3:0:0:0:
51,314,9889,1,0,3:0:0:0:
51,314,9951,2,0,P|48:268|42:226,1,75.0000028610231,0|0,3:0|3:0,3:0:0:0:
143,301,10199,2,0,P|139:264|137:227,1,75.0000028610231,0|0,3:0|3:0,3:0:0:0:
375,226,10447,2,0,P|372:263|368:301,1,75.0000028610231,0|0,3:1|3:0,3:0:0:0:
467,239,10695,2,0,P|462:276|461:313,1,75.0000028610231,0|0,3:0|3:0,3:0:0:0:
257,263,10943,5,4,1:0:0:0:
157,89,12554,1,4,1:0:0:0:
355,89,12926,1,4,1:0:0:0:
258,369,13174,5,4,1:0:0:0:
398,318,14538,5,4,1:0:0:0:
114,318,14910,1,4,1:0:0:0:
436,193,16521,5,4,1:0:0:0:
255,16,16893,1,4,1:0:0:0:
76,193,17389,1,4,1:0:0:0:
255,368,17761,1,4,1:0:0:0:
187,294,17885,6,0,L|195:248,2,37.5000014305115,0|0|0,3:0|3:0|3:0,3:0:0:0:
254,104,18133,1,0,3:0:0:0:
327,221,18257,2,0,L|319:175,2,37.5000014305115,0|0|0,3:0|3:0|3:0,3:0:0:0:
255,16,18505,5,4,0:0:0:0:
430,302,18876,1,4,1:0:0:0:
6,177,19372,6,0,B|43:117|89:119|126:130|93:186|179:197|243:115|214:82|160:35|82:46|91:181,1,400,2|2,0:3|0:3,0:0:0:0:
13,57,20488,6,0,P|35:152|53:271,1,200,4|0,1:0|0:0,0:0:0:0:
131,291,20860,1,4,1:0:0:0:
255,16,21108,1,4,1:0:0:0:
405,270,21356,6,0,B|280:261|269:339|316:393|349:422|431:358|420:272|364:305|353:268|351:222|411:185,1,400,2|2,0:3|0:3,0:0:0:0:
489,238,22472,1,4,1:0:0:0:
255,16,22843,5,4,1:0:0:0:
196,293,23339,6,0,B|159:233|113:235|76:246|109:302|23:313|-41:231|-12:198|42:151|120:162|111:297,1,400,2|2,0:3|0:3,0:0:0:0:
222,383,24455,6,0,P|237:284|259:186,1,200,4|0,1:0|0:0,0:0:0:0:
173,133,24827,5,4,1:0:0:0:
52,360,25323,1,4,1:0:0:0:
16,52,25695,5,4,1:0:0:0:
452,143,25943,2,0,P|435:188|428:240,1,100,0|0,3:0|3:0,3:0:0:0:
351,332,26191,1,0,3:0:0:0:
351,332,26253,1,0,3:0:0:0:
351,332,26314,1,0,3:0:0:0:
252,162,26438,5,4,0:0:0:0:
83,149,26810,5,0,3:0:0:0:
96,237,26934,1,0,3:0:0:0:
3,184,27058,1,0,3:0:0:0:
16,270,27306,6,0,B|105:255|78:328|174:315,1,170.000003242493,2|0,3:0|3:3,0:0:0:0:
255,242,27678,5,0,3:0:0:0:
339,315,27926,2,0,B|434:328|407:255|496:270,1,170.000003242493,0|0,3:0|3:3,0:0:0:0:
495,269,28298,6,0,P|488:314|490:357,1,85.0000016212464,2|0,3:0|3:0,3:0:0:0:
385,96,28546,2,0,P|392:138|391:181,1,85.0000016212464,0|0,3:0|3:0,3:0:0:0:
255,242,28794,5,0,3:0:0:0:
262,153,28918,1,0,3:0:0:0:
276,61,29042,1,0,3:0:0:0:
276,61,29290,6,0,P|293:145|297:250,1,170.000003242493,2|0,3:0|3:0,3:0:0:0:
352,317,29662,5,0,3:0:0:0:
225,366,29910,2,0,B|130:379|157:306|68:321,1,170.000003242493,0|0,3:0|3:3,0:0:0:0:
68,320,30281,5,2,3:0:0:0:
41,231,30405,1,0,3:0:0:0:
118,175,30529,1,0,3:0:0:0:
94,83,30653,1,0,3:0:0:0:
94,83,30715,1,0,0:0:0:0:
94,83,30777,6,0,L|182:67,1,85.0000016212464,2|0,3:2|3:0,3:0:0:0:
205,235,31025,1,0,3:0:0:0:
366,18,31149,1,0,3:0:0:0:
366,18,31211,1,0,0:0:0:0:
366,18,31273,6,0,L|278:2,1,85.0000016212464,8|0,3:2|3:0,3:0:0:0:
341,192,31521,1,0,3:0:0:0:
496,109,31645,1,0,3:0:0:0:
496,109,31707,1,0,3:0:0:0:
496,109,31769,6,0,P|511:148|511:188,3,75.0000028610231,0|0|0|0,3:0|3:0|3:0|3:0,3:0:0:0:
440,243,32017,2,0,P|433:284|413:318,3,75.0000028610231,0|0|0|0,3:0|3:0|3:0|3:0,3:0:0:0:
332,283,32265,2,0,P|305:315|271:335,3,75.0000028610231,8|0|0|0,3:2|3:0|3:0|3:0,3:0:0:0:
242,231,32513,2,0,L|191:236,6,37.5000014305115,2|2|2|2|2|2|2,0:0|0:0|0:0|0:0|0:0|0:0|0:0,0:0:0:0:
212,97,32761,5,4,0:0:0:0:
0,15,34372,1,0,0:0:0:0:
0,15,34434,1,0,0:0:0:0:
0,15,34496,6,0,P|19:72|71:70,1,112.500004291535,8|0,0:0|0:0,0:0:0:0:
95,142,34744,5,4,1:0:0:0:
23,292,34868,1,0,0:0:0:0:
220,347,34992,6,0,B|158:365|158:365|191:237,1,179.999994506836,8|0,0:0|2:0,0:0:0:0:
272,208,35240,6,0,P|342:197|345:79,1,200,2|8,0:0|0:0,0:0:0:0:
254,102,35612,6,0,L|356:85,1,100
413,325,35860,2,0,L|512:309,1,100,0|8,0:0|0:0,0:0:0:0:
473,56,36108,2,0,B|524:106|524:106|481:228,1,200,2|0,0:0|1:0,0:0:0:0:
322,157,36480,5,8,0:0:0:0:
293,61,36603,1,2,0:0:0:0:
389,8,36728,5,0,0:0:0:0:
352,250,36852,1,0,0:0:0:0:
168,223,36976,2,0,L|192:29,1,179.999994506836,8|0,0:0|2:0,0:0:0:0:
101,6,37224,6,0,P|19:8|12:124,1,200,2|8,0:0|0:0,0:0:0:0:
87,120,37595,6,0,L|72:236,1,100
245,305,37843,2,0,L|260:189,1,100,0|8,0:0|0:0,0:0:0:0:
20,337,38091,2,0,P|49:268|155:301,1,200,2|0,0:0|0:0,0:0:0:0:
333,137,38463,5,8,0:0:0:0:
380,220,38587,1,0,0:0:0:0:
478,180,38711,5,0,0:0:0:0:
404,357,38835,1,0,0:0:0:0:
245,305,38959,2,0,L|221:111,1,179.999994506836,8|0,0:0|2:0,0:0:0:0:
295,16,39207,6,0,P|324:85|430:52,1,200,2|8,0:0|0:0,0:0:0:0:
478,180,39579,6,0,L|457:297,1,100
262,206,39827,2,0,L|241:323,1,100,0|8,0:0|0:0,0:0:0:0:
152,350,40075,2,0,L|370:331,1,200,2|0,0:0|0:0,0:0:0:0:
145,78,40447,5,8,0:0:0:0:
98,161,40571,1,0,0:0:0:0:
0,121,40695,5,0,0:0:0:0:
74,298,40819,1,0,0:0:0:0:
224,226,40943,2,0,L|242:28,1,179.999994506836,8|0,0:0|2:0,0:0:0:0:
343,20,41191,6,0,P|375:106|470:87,1,200,2|8,0:0|0:0,0:0:0:0:
489,211,41562,2,0,L|473:325,1,100
314,255,41810,2,0,L|301:355,1,100,0|8,0:0|0:0,0:0:0:0:
139,180,42058,6,0,P|47:164|15:251,1,200,2|0,0:0|0:0,0:0:0:0:
178,274,42430,1,8,0:0:0:0:
165,83,42554,1,0,0:0:0:0:
167,286,42678,5,4,0:2:0:0:
301,354,42802,1,0,0:0:0:0:
422,257,42926,2,0,B|441:155|441:155|370:181,1,179.999994506836,8|0,0:0|2:0,0:0:0:0:
257,176,43174,6,0,P|317:184|322:63,1,200,2|8,0:0|0:0,0:0:0:0:
391,0,43546,6,0,L|498:10,1,100
242,84,43794,2,0,L|135:74,1,100,0|8,0:0|0:0,0:0:0:0:
23,274,44042,6,0,B|7:154|7:154|81:211,1,200,2|0,0:0|0:0,0:0:0:0:
221,270,44414,1,8,0:0:0:0:
206,362,44538,1,0,0:0:0:0:
101,352,44662,5,0,0:0:0:0:
180,164,44786,1,0,0:0:0:0:
307,332,44910,2,0,L|493:321,1,179.999994506836,8|0,0:0|2:0,0:0:0:0:
445,235,45157,6,0,P|462:151|335:119,1,200,2|8,0:0|0:0,0:0:0:0:
257,234,45529,5,8,0:0:0:0:
454,34,45777,1,8,0:0:0:0:
486,321,46025,1,8,0:0:0:0:
370,279,46149,6,0,L|405:285,2,33.3333333333333,2|2|2,2:0|2:0|2:0,0:0:0:0:
360,277,46273,2,2,P|357:236|351:193,1,75.0000028610231,2|2,2:0|2:0,2:0:0:0:
170,117,46521,2,2,P|167:158|161:201,1,75.0000028610231,2|4,2:0|3:1,2:0:0:0:
253,354,46769,5,0,3:2:0:0:
256,93,46893,1,8,3:2:0:0:
272,252,47017,6,0,L|201:261,2,50,0|0|2,3:2|3:2|3:2,3:2:0:0:
226,0,47265,2,0,L|297:9,2,50,0|0|8,3:2|3:2|3:2,3:2:0:0:
40,162,47513,1,0,3:2:0:0:
40,162,47575,1,0,3:2:0:0:
40,162,47637,1,2,3:3:0:0:
68,69,47761,6,0,L|56:-7,2,50,0|0|8,3:2|3:2|3:2,3:2:0:0:
278,197,48009,2,0,L|266:273,2,50,0|0|2,3:2|3:2|3:2,3:2:0:0:
100,347,48257,1,0,3:0:0:0:
184,142,48381,2,0,L|178:109,6,25,8|0|0|0|0|0|0,3:2|3:0|3:0|3:0|3:0|3:0|3:0,0:0:0:0:
350,116,48629,5,4,1:1:0:0:
428,192,48753,1,0,3:0:0:0:
388,290,48876,1,8,3:2:0:0:
388,290,48938,1,0,3:0:0:0:
388,290,49000,1,0,3:0:0:0:
167,232,49124,5,0,3:2:0:0:
89,157,49248,1,0,3:0:0:0:
129,59,49371,1,8,3:2:0:0:
129,59,49433,1,0,3:0:0:0:
129,59,49496,2,0,L|190:49,1,50,0|0,3:0|3:0,3:0:0:0:
184,142,49620,6,0,L|161:345,1,200,4|0,1:1|2:0,0:0:0:0:
83,275,49868,2,0,L|27:284,2,33.2499986301423,8|2|0,1:0|2:0|2:0,0:0:0:0:
258,272,49992,6,0,P|270:159|282:54,1,200,0|0,2:1|3:0,2:0:0:0:
128,56,50364,1,8,2:0:0:0:
35,46,50488,1,0,2:0:0:0:
78,200,50612,6,0,L|83:279,1,75.0000028610231,4|0,2:0|2:0,2:0:0:0:
82,274,50860,1,2,2:0:0:0:
258,272,51108,5,8,2:0:0:0:
258,272,51232,2,0,L|333:263,1,75.0000028610231,0|0,2:0|3:0,2:0:0:0:
389,189,51480,6,0,B|435:224|435:224|411:322,1,150.000005722046,0|2,2:0|3:2,2:0:0:0:
305,152,51976,2,0,P|356:158|391:71,1,150.000005722046,2|2,2:3|3:2,2:0:0:0:
331,15,52348,2,0,L|413:-2,1,75.0000028610231,8|2,2:2|2:0,2:0:0:0:
332,263,52595,6,0,L|250:246,1,75.0000028610231,4|2,2:0|2:0,2:0:0:0:
214,354,52843,1,2,2:0:0:0:
200,144,53091,6,0,L|118:161,1,75.0000028610231,8|2,2:0|2:0,2:0:0:0:
122,250,53339,1,0,3:0:0:0:
60,94,53463,6,0,B|14:129|14:129|38:227,1,150.000005722046,0|2,2:0|3:2,2:0:0:0:
290,124,53959,1,2,2:0:0:0:
209,57,54083,6,4,L|203:14,1,37.5000014305115,4|0,2:0|2:0,2:0:0:0:
200,144,54207,2,4,L|206:187,1,37.5000014305115,0|0,3:0|2:0,2:0:0:0:
186,260,54331,6,4,L|180:217,1,37.5000014305115,0|0,3:0|2:0,2:0:0:0:
177,347,54455,2,4,L|183:390,1,37.5000014305115,0|0,3:0|2:0,2:0:0:0:
294,274,54579,6,0,L|376:257,1,75.0000028610231,4|2,2:0|2:0,2:0:0:0:
412,365,54827,1,2,2:0:0:0:
411,169,55075,6,0,L|493:186,1,75.0000028610231,8|2,2:0|2:0,2:0:0:0:
499,96,55323,1,0,3:0:0:0:
318,70,55447,2,0,P|388:79|428:20,2,150.000005722046,0|0|0,2:0|2:0|2:0,2:0:0:0:
231,7,56067,5,8,0:0:0:0:
160,77,56191,1,0,0:0:0:0:
170,120,56253,1,0,0:0:0:0:
179,165,56314,1,8,0:0:0:0:
75,71,56439,1,0,0:0:0:0:
85,114,56501,1,0,0:0:0:0:
94,159,56562,5,12,0:0:0:0:
381,349,58546,6,0,B|311:316|311:316|331:175,1,200,4|8,3:0|0:0,0:0:0:0:
328,194,58918,2,0,P|276:203|221:211,1,100,0|0,2:0|3:0,0:0:0:0:
221,297,59166,2,0,P|169:288|114:280,1,100,0|8,2:0|0:0,0:0:0:0:
0,181,59414,6,0,P|74:195|128:95,2,200,0|2|0,3:0|2:0|3:0,2:0:0:0:
41,98,60034,2,0,P|36:41|25:-7,1,100,0|0,3:0|3:0,0:0:0:0:
235,198,60281,2,0,P|224:246|220:296,1,100,8|0,0:0|3:0,0:0:0:0:
107,307,60529,6,0,B|213:290|185:377|299:364,1,200,0|8,3:0|0:0,0:0:0:0:
183,123,60901,2,0,B|77:106|105:193|-9:180,1,200,0|0,3:0|3:0,0:0:0:0:
17,88,61273,1,8,0:0:0:0:
273,201,61397,6,0,B|209:118|209:118|253:11,1,200,0|0,3:0|3:0,3:0:0:0:
246,30,61707,1,0,3:0:0:0:
246,30,61769,2,0,L|138:8,1,100,8|0,0:0|3:0,3:0:0:0:
160,217,62017,1,0,3:0:0:0:
374,107,62141,2,0,L|395:323,1,200,0|2,3:0|2:0,0:0:0:0:
403,384,62513,5,0,3:0:0:0:
145,319,62761,1,8,0:0:0:0:
145,319,62885,2,0,P|225:324|259:213,1,200,0|0,3:0|3:0,0:0:0:0:
138,125,63257,1,8,0:0:0:0:
138,125,63381,2,0,P|58:130|24:19,1,200,0|2,3:0|2:0,0:0:0:0:
362,108,63876,1,0,0:0:0:0:
230,130,64000,6,0,P|242:94|228:27,1,100,0|0,3:0|3:0,0:0:0:0:
79,230,64248,2,0,L|96:338,1,100,8|0,0:0|1:0,0:0:0:0:
179,368,64434,1,0,0:0:0:0:
192,341,64496,6,0,B|229:287|229:287|374:322,1,200,2|8,0:0|0:0,0:0:0:0:
460,91,64992,6,0,L|335:112,1,100,0|2,0:0|0:0,0:0:0:0:
400,310,65240,1,8,0:0:0:0:
416,205,65364,1,2,0:0:0:0:
138,125,65488,5,4,0:0:0:0:
205,21,65612,1,0,0:0:0:0:
205,21,65674,1,0,0:0:0:0:
205,21,65736,2,0,B|275:45|275:45|256:192,1,200,8|0,0:0|0:0,0:0:0:0:
48,302,66108,1,0,0:0:0:0:
48,302,66232,2,0,L|56:182,1,100,8|0,0:0|0:0,0:0:0:0:
351,203,66480,6,0,P|254:198|211:307,1,200,6|8,0:0|0:0,0:0:0:0:
457,373,66852,2,0,L|468:263,1,100,2|0,0:0|0:0,0:0:0:0:
376,0,67100,2,0,L|387:110,1,100,2|8,0:0|0:0,0:0:0:0:
100,281,67348,6,0,P|150:278|200:277,1,100
386,99,67595,2,0,P|336:97|287:95,1,100,0|8,0:0|0:0,0:0:0:0:
100,281,67843,1,0,0:0:0:0:
140,172,67967,6,0,P|137:122|134:72,1,100
306,276,68215,2,0,P|304:320|297:399,1,100,8|0,0:0|0:0,0:0:0:0:
277,169,68463,6,0,P|308:244|427:231,1,200,2|8,0:0|0:0,0:0:0:0:
512,361,68835,2,0,P|462:358|412:357,1,100
227,78,69083,2,0,P|277:76|326:74,1,100,0|8,0:0|0:0,0:0:0:0:
13,344,69331,6,0,P|6:290|-3:227,1,100
227,78,69579,2,0,P|220:132|211:195,1,100,0|8,0:0|0:0,0:0:0:0:
170,346,69827,2,0,B|100:307|100:307|121:190,1,200,2|0,0:0|0:0,0:0:0:0:
121,189,70199,2,0,P|68:170|17:163,1,100,8|0,0:0|0:0,0:0:0:0:
94,62,70447,5,2,0:0:0:0:
170,346,70695,2,0,P|223:327|274:320,1,100,8|0,0:0|0:0,0:0:0:0:
234,117,70943,1,2,0:0:0:0:
249,218,71067,1,0,0:0:0:0:
325,31,71191,2,0,P|275:22|228:5,1,100,8|0,0:0|0:0,0:0:0:0:
332,157,71438,6,0,P|411:152|477:256,1,200,2|8,0:0|0:0,0:0:0:0:
129,247,71810,1,0,0:0:0:0:
170,346,71934,2,0,P|91:351|25:247,1,200,2|8,0:0|0:0,0:0:0:0:
281,377,72306,1,0,0:0:0:0:
237,273,72430,6,0,L|264:51,1,200,4|8,0:0|0:0,0:0:0:0:
261,74,72802,2,0,L|148:51,1,100,2|0,0:0|0:0,0:0:0:0:
5,175,73050,2,0,L|118:152,1,100,0|8,0:0|0:0,0:0:0:0:
369,39,73298,5,4,0:0:0:0:
350,162,73546,5,8,0:0:0:0:
359,250,73670,1,8,0:0:0:0:
368,337,73794,1,8,0:0:0:0:
454,217,73918,5,8,0:0:0:0:
454,217,73980,1,8,0:0:0:0:
454,217,74042,2,8,L|463:145,1,50
259,268,74166,5,8,0:0:0:0:
259,268,74228,1,8,0:0:0:0:
259,268,74290,2,8,L|268:196,1,50
276,374,74414,6,0,L|70:339,1,200,4|8,0:0|0:0,0:0:0:0:
72,112,75157,6,0,B|-4:134|-4:134|37:263,1,200,2|0,0:0|0:0,0:0:0:0:
106,194,75529,1,0,0:0:0:0:
106,194,75653,2,0,P|156:182|217:180,1,100
164,7,75901,2,0,P|114:19|53:21,1,100,8|0,0:0|0:0,0:0:0:0:
236,277,76149,5,2,0:0:0:0:
216,88,76273,1,0,0:0:0:0:
303,180,76397,5,0,0:0:0:0:
303,180,76459,1,0,0:0:0:0:
303,180,76521,2,0,L|356:170,1,50
510,169,76645,2,0,P|487:99|340:106,1,200,2|8,0:0|0:0,0:0:0:0:
373,77,77017,1,0,0:0:0:0:
427,258,77141,6,0,P|400:287|400:348,1,100
398,344,77389,2,0,L|281:360,1,100
218,325,77637,5,0,0:0:0:0:
228,237,77761,1,0,0:0:0:0:
236,148,77885,1,8,0:0:0:0:
143,184,78009,6,0,P|70:194|24:251,1,150.000005722046
24,250,78381,6,0,L|-4:138,1,100,4|0,0:0|0:0,0:0:0:0:
186,54,78629,1,8,0:0:0:0:
339,224,78753,5,0,0:0:0:0:
339,224,78814,1,0,0:0:0:0:
339,224,78876,2,0,L|321:351,1,100,0|2,0:0|0:0,0:0:0:0:
127,377,79124,1,8,0:0:0:0:
128,185,79248,5,0,0:0:0:0:
128,185,79310,1,0,0:0:0:0:
128,185,79372,2,0,P|182:172|229:150,1,100,2|0,0:0|0:0,0:0:0:0:
484,58,79620,2,0,P|430:45|383:23,1,100,8|0,0:0|0:0,0:0:0:0:
328,124,79806,1,0,0:0:0:0:
328,124,79868,2,0,L|340:240,1,100,2|0,0:0|0:0,0:0:0:0:
58,88,80116,6,0,L|62:43,6,25,8|0|0|0|0|0|0,0:0|0:0|0:0|0:0|0:0|0:0|0:0,0:0:0:0:
237,177,80364,6,0,B|153:138|153:138|180:15,1,200,2|8,0:0|0:0,0:0:0:0:
10,292,80736,1,0,0:0:0:0:
10,292,80798,1,0,0:0:0:0:
10,292,80860,1,0,0:0:0:0:
199,360,80984,1,0,0:0:0:0:
181,262,81108,2,0,L|204:382,1,100,8|0,0:0|0:0,0:0:0:0:
73,196,81356,5,4,2:0:0:0:
257,102,81604,6,2,P|314:103|358:83,1,100,2|0,2:0|2:0,2:0:0:0:
380,257,81790,2,2,P|437:256|481:276,1,100,2|0,2:0|2:0,2:0:0:0:
417,344,81976,1,0,0:0:0:0:
434,161,82100,5,8,0:0:0:0:
434,161,82162,1,0,0:0:0:0:
434,161,82224,1,0,0:0:0:0:
434,161,82286,1,0,0:0:0:0:
434,161,82348,6,0,P|387:237|272:196,1,200,4|8,0:0|0:0,0:0:0:0:
199,360,82719,1,0,0:0:0:0:
189,182,82843,2,0,P|187:131|170:70,1,100,2|0,0:0|0:0,0:0:0:0:
19,195,83091,2,0,P|62:221|99:255,1,100,8|0,0:0|0:0,0:0:0:0:
66,38,83339,6,0,B|167:67|167:67|245:-8,1,200,2|8,0:0|0:0,0:0:0:0:
458,255,83835,2,0,B|390:190|390:190|289:219,1,200,2|8,0:0|0:0,0:0:0:0:
288,219,84331,6,0,B|345:255|345:255|291:98,1,200,2|8,0:0|0:0,0:0:0:0:
371,41,84703,1,0,0:0:0:0:
187,158,84827,2,0,P|183:219|174:275,1,100,2|0,0:0|0:0,0:0:0:0:
10,153,85075,2,0,P|14:92|23:36,1,100,8|0,0:0|0:0,0:0:0:0:
210,9,85323,6,0,P|198:105|102:103,1,200,2|8,0:0|0:0,0:0:0:0:
3,253,85695,1,0,0:0:0:0:
177,257,85819,2,0,P|189:353|285:351,1,200,2|8,0:0|0:0,0:0:0:0:
275,187,86191,1,0,0:0:0:0:
435,321,86314,6,0,P|448:222|456:93,1,200,0|8,0:0|0:0,0:0:0:0:
156,58,86686,2,0,P|163:157|176:256,1,200
92,315,87058,1,8,0:0:0:0:
186,365,87182,1,0,0:0:0:0:
186,365,87306,6,0,P|239:358|300:357,1,100,0|2,0:0|0:0,0:0:0:0:
336,271,87554,1,8,0:0:0:0:
148,190,87678,1,0,0:0:0:0:
186,101,87802,6,0,P|239:108|300:109,1,100,0|2,0:0|0:0,0:0:0:0:
435,279,88050,2,0,P|382:272|321:271,1,100,8|0,0:0|0:0,0:0:0:0:
148,190,88298,6,0,P|79:263|-11:229,2,200,2|8|0,0:0|0:0|0:0,0:0:0:0:
333,19,89042,1,8,0:0:0:0:
429,34,89166,1,0,0:0:0:0:
415,139,89290,6,0,B|429:212|429:212|392:248|392:248|409:330,1,200,2|8,0:0|0:0,0:0:0:0:
246,253,89662,2,0,B|260:180|260:180|223:144|223:144|240:62,1,200,2|0,0:0|0:0,0:0:0:0:
238,71,90034,2,0,L|118:90,1,100,8|0,0:0|0:0,0:0:0:0:
0,338,90281,6,0,B|99:364|99:364|155:277,1,200,4|8,0:0|0:0,0:0:0:0:
20,49,91025,6,0,L|57:276,1,200,2|0,0:0|0:0,0:0:0:0:
146,186,91397,1,0,0:0:0:0:
146,186,91521,2,0,P|156:130|161:80,1,100
311,265,91769,2,0,P|301:321|296:371,1,100,8|0,0:0|0:0,0:0:0:0:
323,148,92017,5,0,0:0:0:0:
204,287,92141,1,0,0:0:0:0:
217,117,92265,5,0,0:0:0:0:
217,117,92327,1,0,0:0:0:0:
217,117,92389,2,0,L|205:44,1,50
328,19,92513,2,0,P|426:13|473:128,1,200,2|8,0:0|0:0,0:0:0:0:
477,90,92885,1,0,0:0:0:0:
423,241,93009,6,0,P|409:282|402:341,1,100
402,338,93257,2,0,P|464:345|514:349,1,100
295,131,93505,5,0,0:0:0:0:
305,219,93629,1,0,0:0:0:0:
313,308,93753,1,8,0:0:0:0:
215,281,93876,6,0,P|155:277|88:353,1,150.000005722046,0|2,0:0|0:0,0:0:0:0:
46,157,94248,5,4,1:0:0:0:
46,157,94310,1,0,1:0:0:0:
46,157,94372,2,0,L|54:90,2,50,0|0|8,1:0|1:0|1:0,1:0:0:0:
215,281,94620,1,0,0:0:0:0:
215,281,94682,1,0,0:0:0:0:
215,281,94744,2,0,P|227:332|224:394,1,100,2|0,0:0|0:0,0:0:0:0:
388,120,94992,2,0,P|400:69|397:7,1,100,8|0,0:0|0:0,0:0:0:0:
454,206,95240,5,2,0:0:0:0:
279,148,95364,1,0,0:0:0:0:
389,276,95488,2,0,P|352:294|355:363,1,100,8|0,0:0|0:0,0:0:0:0:
344,348,95674,1,0,0:0:0:0:
344,348,95736,6,0,L|273:356,2,50,2|0|0,0:0|0:0|0:0,0:0:0:0:
21,155,95984,2,0,B|127:138|99:225|213:212,2,200,8|2|8,1:0|0:0|0:0,0:0:0:0:
0,239,96542,1,0,0:0:0:0:
0,239,96604,2,0,L|7:300,1,50
73,34,96728,5,8,0:0:0:0:
173,68,96852,1,0,0:0:0:0:
204,212,96976,2,0,L|190:328,1,100,8|0,0:0|0:0,0:0:0:0:
273,375,97224,5,4,2:0:0:0:
467,256,97472,2,2,L|457:197,3,50,2|2|2|2,3:2|3:2|3:2|3:2,3:2:0:0:
356,238,97719,5,0,3:0:0:0:
359,214,97781,2,0,L|370:99,1,100,0|0,3:0|3:0,3:0:0:0:
286,15,97967,2,0,B|234:54|234:54|266:141,1,150,8|0,3:2|2:0,3:0:0:0:
204,238,98215,6,0,P|192:322|64:308,1,200,4|8,0:0|0:0,0:0:0:0:
0,180,98587,1,0,0:0:0:0:
165,120,98711,2,0,P|218:129|268:133,1,100,2|0,0:0|0:0,0:0:0:0:
305,347,98959,2,0,P|355:339|405:336,1,100,8|0,0:0|0:0,0:0:0:0:
331,34,99207,6,0,B|400:104|400:104|362:219,1,200,2|8,0:0|0:0,0:0:0:0:
91,337,99703,2,0,B|22:267|22:267|60:152,1,200,2|8,0:0|0:0,0:0:0:0:
264,133,100199,5,0,0:0:0:0:
274,224,100323,1,0,0:0:0:0:
286,314,100447,1,8,0:0:0:0:
158,241,100571,5,0,0:0:0:0:
158,241,100633,1,0,0:0:0:0:
158,241,100695,2,0,P|165:185|167:112,1,100,2|0,0:0|0:0,0:0:0:0:
378,49,100943,2,0,P|371:105|369:178,1,100,8|0,0:0|0:0,0:0:0:0:
334,364,101191,6,2,P|326:308|309:237,1,100,2|2,2:0|2:0,2:0:0:0:
496,121,101439,2,2,P|503:176|520:247,1,100,2|2,2:0|2:0,2:0:0:0:
201,27,101686,6,2,P|193:83|176:154,1,100,2|2,2:0|2:0,2:0:0:0:
379,265,101934,2,2,P|386:210|403:139,1,100,2|2,2:0|2:0,2:0:0:0:
35,122,102182,5,4,0:0:0:0:
46,225,102306,1,2,2:1:0:0:
57,325,102430,1,2,2:1:0:0:
256,192,102554,12,0,104166,3:0:0:0:
180,358,104290,5,0,3:0:0:0:
180,358,104414,2,0,P|211:304|306:313,1,150.000005722046,2|0,3:2|3:1,3:0:0:0:
291,301,104786,2,0,L|300:216,1,75.0000028610231,0|0,3:0|3:0,3:0:0:0:
159,109,105034,2,0,L|168:194,1,75.0000028610231,0|0,3:0|1:0,3:0:0:0:
261,128,105281,5,0,3:0:0:0:
239,23,105529,2,0,P|270:77|365:68,1,150.000005722046,0|0,3:0|3:1,3:0:0:0:
414,146,105839,1,0,3:0:0:0:
422,153,105901,2,0,L|442:41,1,112.500004291535,4|0,0:2|2:0,0:0:0:0:
333,201,106149,5,0,3:0:0:0:
248,213,106273,1,0,3:0:0:0:
166,225,106397,1,0,3:0:0:0:
75,124,106645,5,0,3:0:0:0:
75,124,106769,2,0,P|79:84|89:40,1,75.0000028610231,0|0,3:0|3:0,3:0:0:0:
20,282,107017,2,0,P|16:243|8:209,1,75.0000028610231,0|0,3:0|1:0,3:0:0:0:
238,278,107265,1,0,3:0:0:0:
163,219,107513,6,0,P|233:230|325:245,1,150.000005722046,0|0,3:0|3:0,0:0:0:0:
330,148,107823,1,0,3:0:0:0:
340,140,107885,2,0,L|258:152,1,75.0000028610231,0|0,1:0|3:0,3:0:0:0:
224,66,108133,6,0,L|146:56,1,75.0000028610231,0|0,3:0|3:0,3:0:0:0:
58,149,108381,2,0,L|74:274,1,112.500004291535,0|0,3:0|2:0,0:0:0:0:
73,273,108629,1,0,3:0:0:0:
166,362,108753,6,0,P|203:315|291:332,1,150.000005722046,0|0,1:0|1:0,3:0:0:0:
285,326,109062,1,0,3:0:0:0:
285,326,109124,5,4,3:0:0:0:
355,219,109248,1,4,3:0:0:0:
355,219,109310,1,4,3:0:0:0:
355,219,109372,2,0,P|400:251|464:239,1,119.999996337891,0|4,1:0|3:0,3:0:0:0:
137,55,109620,2,0,P|90:121|-3:96,1,179.999994506836,0|4,1:0|3:0,3:0:0:0:
2,102,109868,6,0,L|22:249,1,119.999996337891,0|0,1:0|3:0,0:0:0:0:
3,360,110116,1,4,2:0:0:0:
411,331,111604,5,2,2:1:0:0:
224,365,112100,6,0,B|298:331|298:247|298:247|321:328|423:332,1,300,2|0,2:0|2:0,2:0:0:0:
327,161,113091,6,8,L|280:145,2,37.5000014305115,8|8|8,3:2|3:2|3:2,3:2:0:0:
232,60,113339,5,0,3:0:0:0:
315,27,113463,1,0,3:0:0:0:
132,31,113587,6,0,P|141:70|141:107,1,75.0000028610231,0|0,3:0|3:0,3:0:0:0:
211,174,113835,2,0,P|202:213|202:250,1,75.0000028610231,0|0,3:0|3:0,3:0:0:0:
123,305,114083,6,0,P|62:239|-21:262,1,150.000005722046,2|2,3:0|2:0,3:0:0:0:
7,242,114455,1,0,2:0:0:0:
45,139,114579,6,0,L|24:103,3,37.5000014305115,8|0|2|0,2:0|2:0|2:0|2:0,2:0:0:0:
113,88,114827,2,0,L|86:45,5,50.0000019073487,2|0|0|0|0|0,3:0|2:0|2:0|2:0|2:0|2:0,2:0:0:0:
232,240,115323,6,0,L|258:195,2,50.0000019073487,0|0|2,3:0|2:0|2:0,2:0:0:0:
164,189,115571,2,0,L|192:143,5,50.0000019073487,8|0|0|0|0|0,2:0|2:0|2:0|2:0|2:0|2:0,2:0:0:0:
299,60,116067,6,0,B|267:41|234:19|234:19|256:90|275:166,1,225.000008583069,2|0,3:0|2:0,0:0:0:0:
199,206,116562,6,0,P|268:201|322:243,1,134.999995880127,8|0,0:0|2:0,0:0:0:0:
318,252,116810,1,0,0:0:0:0:
242,288,116934,1,2,2:0:0:0:
512,295,117182,5,0,2:0:0:0:
435,234,117306,2,0,P|431:274|417:310,1,75.0000028610231,0|0,1:0|2:0,2:0:0:0:
432,90,117554,6,0,L|438:35,7,37.5000014305115,8|0|0|0|2|0|0|0,2:0|2:0|2:0|2:0|2:0|2:0|2:0|2:0,2:0:0:0:
364,158,118050,6,0,B|315:196|315:196|337:286,1,150.000005722046,0|0,3:0|2:0,0:0:0:0:
335,281,118422,1,0,2:0:0:0:
234,356,118546,6,0,P|229:313|243:270,1,75.0000028610231,8|0,2:0|2:0,0:0:0:0:
174,203,118794,1,0,3:0:0:0:
101,270,118918,6,0,P|55:278|11:289,1,75.0000028610231,2|0,2:1|2:0,2:0:0:0:
83,179,119166,2,0,P|37:187|-7:198,1,75.0000028610231,2|0,2:1|2:0,2:0:0:0:
69,88,119414,1,2,2:1:0:0:
164,81,119538,6,0,P|168:37|178:-9,2,75.0000028610231,8|0|0,2:0|2:0|2:0,2:0:0:0:
340,288,120034,6,0,B|421:278|404:336|483:328,1,150.000005722046,2|0,3:0|2:0,0:0:0:0:
471,232,120405,1,0,2:0:0:0:
336,181,120529,2,0,P|296:201|252:191,1,75.0000028610231,8|0,2:0|2:0,2:0:0:0:
288,31,120777,1,0,3:0:0:0:
288,31,120901,2,0,P|341:26|384:111,1,150.000005722046,0|0,2:0|3:0,2:0:0:0:
336,181,121273,6,0,P|330:218|330:262,1,75.0000028610231,0|0,3:0|3:0,0:0:0:0:
247,357,121521,2,0,P|241:320|241:276,1,75.0000028610231,8|0,2:0|2:0,0:0:0:0:
155,184,121769,2,0,P|149:221|149:265,1,75.0000028610231,2|0,2:0|2:0,2:0:0:0:
71,317,122017,6,0,B|15:292|15:292|34:182,1,150.000005722046,2|0,3:0|2:0,2:0:0:0:
127,95,122389,1,0,2:0:0:0:
127,95,122513,6,0,L|186:86,2,50.0000019073487,8|0|0,2:0|2:0|2:0,2:0:0:0:
110,10,122761,2,0,L|161:2,5,50.0000019073487,2|0|0|0|0|0,2:0|2:0|2:0|2:0|2:0|2:0,2:0:0:0:
267,160,123257,6,0,L|213:151,2,50.0000019073487,0|0|0,3:0|2:0|2:0,2:0:0:0:
284,75,123505,2,0,L|229:68,5,50.0000019073487,8|0|0|0|0|0,2:0|2:0|2:0|2:0|2:0|2:0,2:0:0:0:
233,254,124000,6,0,P|289:209|379:240,1,150,4|0,0:0|2:0,0:0:0:0:
375,234,124248,1,8,0:0:0:0:
115,220,124372,6,0,P|125:290|54:353,1,150,4|0,0:0|2:0,0:0:0:0:
61,352,124620,1,8,0:0:0:0:
194,126,124744,6,0,P|127:100|108:6,1,150,4|0,0:0|2:0,0:0:0:0:
106,14,124992,1,8,0:0:0:0:
115,220,125116,6,0,L|307:196,1,150,4|0,0:0|2:0,0:0:0:0:
277,198,125364,1,8,0:0:0:0:
355,257,125488,1,0,0:0:0:0:
406,14,125736,5,6,2:0:0:0:
488,276,125984,5,4,1:0:0:0:
512,105,126232,1,2,2:1:0:0:
385,360,126480,6,0,P|376:259|363:143,1,200,8|0,0:0|2:0,0:0:0:0:
365,160,126852,2,0,P|316:152|248:137,1,100,0|0,2:0|0:0,0:0:0:0:
260,341,127100,2,0,P|265:277|271:218,1,100,0|2,2:0|2:0,2:0:0:0:
159,74,127348,2,0,P|164:138|170:197,1,100,0|8,2:0|1:0,2:0:0:0:
71,99,127595,1,0,2:0:0:0:
71,99,127719,2,0,P|76:163|82:222,1,100,2|0,2:1|2:0,2:0:0:0:
260,341,127967,5,2,1:3:0:0:
288,118,128215,1,2,2:1:0:0:
482,30,128463,6,0,P|491:131|504:247,1,200,8|0,0:0|2:0,0:0:0:0:
501,229,128835,2,0,P|452:237|384:252,1,100,0|0,2:0|0:0,0:0:0:0:
373,60,129083,2,0,P|368:124|362:183,1,100,0|2,2:0|2:0,2:0:0:0:
208,128,129331,2,0,P|213:64|219:5,1,100,0|8,2:0|1:0,2:0:0:0:
119,14,129579,1,0,2:0:0:0:
119,14,129703,2,0,P|114:63|110:113,1,100,0|0,2:0|2:0,2:0:0:0:
94,298,129951,5,2,1:3:0:0:
400,220,130199,1,2,2:1:0:0:
295,178,130447,6,0,P|305:277|314:377,1,200,8|0,0:0|2:0,0:0:0:0:
216,327,130819,1,2,2:1:0:0:
367,110,130943,6,2,B|262:93|297:185|182:163,1,200,4|0,0:0|2:0,0:2:0:0:
184,163,131314,1,0,2:0:0:0:
30,204,131438,2,2,B|135:187|100:279|215:257,1,200,8|0,0:0|2:0,0:2:0:0:
392,223,131810,1,2,2:0:0:0:
483,255,131934,5,0,1:3:0:0:
420,0,132182,1,2,2:1:0:0:
307,90,132430,6,0,P|275:177|184:163,1,200,8|0,0:0|2:0,0:0:0:0:
166,263,132802,2,0,P|156:315|157:376,1,100,0|0,2:0|0:0,0:0:0:0:
9,261,133050,2,0,P|45:227|86:199,1,100,0|2,2:0|2:0,0:0:0:0:
98,106,133298,2,0,P|46:96|-15:97,1,100,0|8,2:0|0:0,0:0:0:0:
246,16,133546,5,0,2:0:0:0:
261,110,133670,1,0,2:0:0:0:
278,200,133794,1,2,2:1:0:0:
183,162,133918,6,0,B|230:118|230:118|371:178,1,200,2|2,0:3|2:0,0:0:0:0:
442,114,134414,1,8,0:0:0:0:
286,256,134662,1,0,2:0:0:0:
286,256,134786,2,0,L|299:360,1,100,2|0,2:0|1:0,0:0:0:0:
185,206,135034,2,0,L|198:310,1,100,0|0,2:0|2:0,0:0:0:0:
113,355,135281,1,2,2:0:0:0:
27,303,135405,6,0,L|39:202,1,100,8|0,0:0|2:0,0:0:0:0:
193,116,135653,2,0,L|182:17,1,100,2|0,2:1|2:0,0:0:0:0:
184,204,135901,6,0,P|256:214|309:107,1,200,2|0,0:3|2:0,0:0:0:0:
379,43,136397,1,8,0:0:0:0:
89,118,136769,5,0,0:0:0:0:
89,118,136831,1,0,0:0:0:0:
89,118,136893,1,0,0:0:0:0:
18,190,137017,2,0,L|35:309,1,100,0|0,3:0|2:0,0:0:0:0:
62,20,137265,1,0,3:0:0:0:
187,156,137389,6,0,L|197:42,1,100,0|0,0:0|3:0,0:0:0:0:
346,363,137637,2,0,L|356:249,1,100,8|0,0:0|0:0,0:0:0:0:
503,106,137885,5,4,0:0:0:0:
19,277,139496,1,4,0:2:0:0:
361,380,139868,6,0,B|296:345|296:345|323:204,1,200,4|0,0:2|2:0,0:0:0:0:
319,221,140240,1,2,2:1:0:0:
408,289,140488,1,0,2:1:0:0:
266,129,140736,6,0,B|171:146|171:146|198:287,1,200,2|0,2:1|2:0,2:0:0:0:
191,248,141046,1,2,2:0:0:0:
191,248,141108,2,0,P|142:234|88:235,1,100,0|0,2:0|2:0,2:0:0:0:
7,134,141356,1,0,2:0:0:0:
160,31,141480,5,4,0:2:0:0:
116,132,141852,5,4,0:2:0:0:
396,132,143463,1,4,0:2:0:0:
311,74,143711,1,2,2:0:0:0:
311,74,143773,1,2,2:0:0:0:
311,74,143835,6,0,P|406:102|451:18,1,200,4|2,1:2|2:1,2:0:0:0:
146,172,144331,6,0,P|148:120|140:57,1,100,4|0,1:2|2:0,0:0:0:0:
245,230,144579,1,2,2:1:0:0:
210,335,144703,2,0,P|252:279|372:294,1,200,4|0,1:2|2:0,0:0:0:0:
458,363,145075,6,2,P|464:301|474:203,1,150,2|4,2:1|2:1,2:1:0:0:
147,170,145819,6,0,P|153:116|158:62,1,100,4|0,1:0|0:0,0:0:0:0:
1,5,146067,1,8,0:0:0:0:
63,226,146191,2,0,P|69:280|74:334,1,100,2|0,1:0|0:0,0:0:0:0:
254,146,146438,2,0,P|260:196|265:246,1,100,2|8,1:0|0:0,0:0:0:0:
457,126,146686,6,0,P|451:180|446:234,1,100,2|0,1:0|0:0,0:0:0:0:
265,46,146934,2,0,P|258:96|254:146,1,100,0|8,1:0|0:0,0:0:0:0:
109,6,147182,1,0,0:0:0:0:
147,170,147306,5,0,0:0:0:0:
171,296,147430,1,0,0:0:0:0:
53,324,147554,2,0,P|56:274|62:225,1,100,8|8,1:0|0:0,0:0:0:0:
95,91,147802,6,0,P|149:158|265:134,1,200,2|8,0:0|0:0,0:0:0:0:
265,46,148174,6,0,P|317:41|374:34,1,100,2|0,0:0|0:0,0:0:0:0:
384,266,148422,2,0,P|436:261|493:254,1,100,2|8,0:0|0:0,0:0:0:0:
153,134,148670,6,0,P|203:140|253:145,1,100,2|0,0:0|0:0,0:0:0:0:
133,364,148918,2,0,P|83:359|34:354,1,100,0|8,0:0|0:0,0:0:0:0:
31,109,149166,6,0,B|112:147|112:147|84:265,1,200,2|0,0:0|0:0,0:0:0:0:
86,254,149538,2,0,P|128:245|192:249,1,100,8|0,0:0|0:0,0:0:0:0:
141,40,149786,5,2,0:0:0:0:
351,334,150034,2,0,P|401:342|448:360,1,100,8|0,0:0|0:0,0:0:0:0:
384,131,150282,1,0,0:0:0:0:
369,232,150406,1,0,0:0:0:0:
293,45,150530,2,0,P|343:36|390:19,1,100,8|0,0:0|0:0,0:0:0:0:
244,172,150777,6,0,P|162:165|101:270,1,200,2|8,0:0|0:0,0:0:0:0:
7,307,151149,1,0,0:0:0:0:
6,199,151273,2,0,P|3:140|-9:84,1,100
203,264,151521,2,0,P|206:323|218:379,1,100,8|0,0:0|0:0,0:0:0:0:
345,125,151769,6,0,P|427:132|488:27,1,200,2|8,0:0|0:0,0:0:0:0:
345,125,152141,2,0,L|335:246,1,100
158,25,152389,2,0,L|148:146,1,100,0|8,0:0|0:0,0:0:0:0:
8,310,152637,5,4,0:0:0:0:
25,38,152885,5,8,0:0:0:0:
41,130,153009,1,8,0:0:0:0:
53,223,153133,1,8,0:0:0:0:
246,80,153257,5,8,0:0:0:0:
246,80,153319,1,8,0:0:0:0:
246,80,153381,2,8,L|301:70,1,50
269,176,153505,5,8,0:0:0:0:
269,176,153567,1,8,0:0:0:0:
269,176,153629,2,8,L|324:166,1,50
446,100,153753,6,0,B|520:132|520:132|492:258,1,200,4|8,0:0|0:0,0:0:0:0:
490,373,154496,6,0,B|424:351|424:351|402:292|402:292|331:271,1,200
238,343,154868,1,0,0:0:0:0:
238,343,154992,2,0,P|239:293|231:244,1,100
327,68,155240,2,0,P|326:118|334:167,1,100,8|0,0:0|0:0,0:0:0:0:
19,195,155488,5,0,0:0:0:0:
133,298,155612,1,0,0:0:0:0:
135,188,155736,5,0,0:0:0:0:
135,188,155798,1,0,0:0:0:0:
135,188,155860,2,0,L|146:128,1,50
219,67,155984,2,0,B|297:85|297:85|269:219,1,200,0|8,0:0|0:0,0:0:0:0:
272,202,156356,1,0,0:0:0:0:
505,349,156480,6,0,L|512:250,1,100
406,368,156728,2,0,L|505:349,1,100
380,105,156976,5,0,0:0:0:0:
392,188,157100,1,0,0:0:0:0:
402,269,157224,1,2,0:3:0:0:
295,358,157348,6,0,L|276:197,1,150.000005722046
189,290,157719,6,0,B|114:270|114:270|94:197|94:197|5:174,1,225.000008583069,4|0,0:2|2:0,0:0:0:0:
15,268,158215,5,0,0:0:0:0:
15,268,158277,1,0,0:0:0:0:
15,268,158339,2,0,P|10:309|-3:346,1,59.9999981689454
198,201,158463,1,8,0:0:0:0:
198,201,158525,1,0,0:0:0:0:
198,201,158587,2,0,P|203:160|216:123,1,59.9999981689454
28,0,158711,6,0,P|37:81|148:65,1,179.999994506836,2|0,0:0|0:0,0:0:0:0:
132,86,158959,1,8,0:0:0:0:
93,198,159083,1,0,0:0:0:0:
93,198,159145,1,0,0:0:0:0:
93,198,159207,2,0,P|111:264|112:337,1,119.999996337891,2|0,0:0|0:0,0:0:0:0:
395,118,159455,2,0,P|377:184|376:257,1,119.999996337891,8|0,0:0|0:0,0:0:0:0:
223,296,159703,6,0,B|349:270|297:397|441:372,1,239.999992675781,2|8,0:0|0:0,0:0:0:0:
250,185,160075,1,0,0:0:0:0:
250,185,160137,1,0,0:0:0:0:
250,185,160199,2,0,P|245:122|220:64,1,119.999996337891
321,0,160447,1,8,0:0:0:0:
399,78,160571,1,0,0:0:0:0:
399,78,160633,1,0,0:0:0:0:
399,78,160695,1,4,0:0:0:0:
377,234,160943,6,0,L|354:335,1,100,2|0,2:0|2:0,2:0:0:0:
354,331,161129,2,0,L|486:363,1,100,2|0,2:0|2:0,2:0:0:0:
475,260,161314,2,0,L|466:191,2,50,0|0|4,0:0|0:0|0:0,0:0:0:0:
133,18,161686,5,0,0:0:0:0:
109,111,161810,1,0,0:0:0:0:
13,93,161934,2,0,P|14:154|3:205,1,100,8|0,0:0|0:0,0:0:0:0:
91,300,162182,2,0,P|129:213|224:212,1,200,2|8,0:0|0:0,0:0:0:0:
421,139,162554,1,0,0:0:0:0:
421,139,162678,6,0,P|383:52|288:51,1,200,2|8,0:0|0:0,0:0:0:0:
372,376,163174,2,0,P|410:289|505:288,1,200,2|8,0:0|0:0,0:0:0:0:
504,287,163670,6,0,B|447:323|447:323|503:179,1,200,2|8,0:0|0:0,0:0:0:0:
455,108,164042,1,0,0:0:0:0:
387,172,164166,2,0,B|285:157|325:256|192:238,1,200,2|8,0:0|0:0,0:0:0:0:
49,259,164662,6,0,B|-8:223|-8:223|48:367,1,200,2|8,0:0|0:0,0:0:0:0:
134,324,165034,1,0,0:0:0:0:
84,160,165157,6,0,P|98:112|95:59,1,100,2|0,0:0|0:0,0:0:0:0:
95,62,165343,1,0,0:0:0:0:
95,62,165405,1,8,0:0:0:0:
196,29,165529,1,0,0:0:0:0:
228,127,165653,5,4,0:0:0:0:
434,22,166025,2,0,L|491:31,2,50,0|0|0,3:0|3:0|3:0,3:0:0:0:
358,85,166273,1,0,3:0:0:0:
372,177,166397,1,0,3:0:0:0:
465,200,166521,1,0,3:0:0:0:
446,110,166645,5,6,0:2:0:0:
396,274,166769,1,2,0:2:0:0:
446,110,166893,5,8,0:0:0:0:
396,274,167017,1,0,0:0:0:0:
192,193,167141,5,2,0:2:0:0:
237,328,167265,1,2,0:2:0:0:
192,193,167389,5,8,0:0:0:0:
296,256,167513,1,0,0:0:0:0:
296,256,167637,6,0,P|224:233|145:333,1,200,6|8,0:2|0:0,0:0:0:0:
90,84,168009,2,0,P|162:107|241:7,1,200
146,3,168381,1,8,0:0:0:0:
393,345,168629,6,0,L|421:142,1,200,4|8,0:2|0:0,0:0:0:0:
420,146,169124,2,0,P|369:142|307:134,1,100
295,256,169372,2,0,P|242:259|182:268,1,100,8|0,0:0|2:0,0:0:0:0:
111,198,169620,6,0,P|125:98|138:-4,1,200,4|8,0:0|0:0,0:0:0:0:
320,136,170364,6,0,P|309:237|298:360,1,200,2|0,0:0|0:0,0:0:0:0:
300,334,170736,1,0,0:0:0:0:
213,365,170860,6,0,P|163:359|108:355,1,100
111,198,171108,2,0,P|161:204|216:208,1,100,8|0,0:0|0:0,0:0:0:0:
56,104,171356,5,0,0:0:0:0:
37,280,171480,1,0,0:0:0:0:
228,99,171604,5,0,0:0:0:0:
228,99,171666,1,0,0:0:0:0:
228,99,171728,2,0,L|150:108,1,50
211,0,171852,2,0,P|278:4|331:124,1,200,2|8,0:0|0:0,0:0:0:0:
418,254,172224,1,0,0:0:0:0:
504,211,172348,6,0,P|500:156|504:106,1,100
320,252,172595,2,0,P|324:307|320:357,1,100
398,158,172843,2,0,P|394:103|398:53,1,100
418,254,173091,1,8,0:0:0:0:
320,252,173215,6,0,P|279:206|189:204,1,150.000005722046,0|2,2:0|2:0,2:0:0:0:
12,125,173587,5,4,0:0:0:0:
45,134,173649,1,0,0:0:0:0:
81,127,173711,1,0,0:0:0:0:
106,101,173773,1,0,0:0:0:0:
114,63,173835,1,8,0:0:0:0:
199,15,173959,5,0,0:0:0:0:
201,54,174021,1,0,0:0:0:0:
216,97,174083,1,0,0:0:0:0:
249,124,174145,1,0,0:0:0:0:
293,134,174207,1,0,0:0:0:0:
333,125,174269,1,0,0:0:0:0:
362,95,174331,1,8,0:0:0:0:
415,179,174455,1,0,0:0:0:0:
506,145,174579,6,0,L|511:96,4,50,0|0|0|0|8,0:0|0:0|0:0|0:0|0:0,0:0:0:0:
512,290,174951,1,0,0:0:0:0:
512,290,175013,1,0,0:0:0:0:
512,290,175075,2,0,L|498:231,4,50,0|0|0|0|8,0:0|0:0|0:0|0:0|0:0,0:0:0:0:
362,95,175571,6,0,L|348:283,1,150,2|0,0:0|2:0,0:0:0:0:
343,325,175819,1,2,3:2:0:0:
81,194,176067,5,0,3:2:0:0:
97,315,176191,1,0,3:2:0:0:
202,363,176314,5,8,3:2:0:0:
221,234,176438,1,0,3:2:0:0:
160,152,176562,5,4,3:2:0:0:
143,286,176686,1,0,3:0:0:0:
0,289,176810,5,8,3:2:0:0:
10,102,176950,5,0,3:0:0:0:
44,117,177012,1,0,3:0:0:0:
81,120,177074,1,0,3:0:0:0:
119,106,177136,1,0,3:0:0:0:
148,77,177198,1,0,3:0:0:0:
160,38,177260,1,0,3:2:0:0:
155,0,177322,1,12,3:2:0:0:
446,179,177554,6,0,B|460:252|460:252|423:288|423:288|440:370,1,200,6|8,0:0|0:0,0:0:0:0:
321,219,177926,1,0,0:0:0:0:
321,219,178050,2,0,B|335:146|335:146|298:110|298:110|315:28,1,200,2|8,0:0|0:0,0:0:0:0:
438,360,178546,6,0,L|236:342,1,200,2|8,0:0|0:0,0:0:0:0:
113,55,179042,2,0,L|315:37,1,200,2|8,0:0|0:0,0:0:0:0:
239,342,179538,5,2,0:0:0:0:
251,250,179662,1,0,0:0:0:0:
261,160,179786,1,8,0:0:0:0:
128,192,179910,5,0,0:0:0:0:
128,192,179972,1,0,0:0:0:0:
128,192,180034,1,0,0:0:0:0:
142,290,180157,1,0,0:0:0:0:
34,305,180281,1,8,0:0:0:0:
23,209,180405,1,0,0:0:0:0:
23,209,180467,1,0,0:0:0:0:
23,209,180529,1,2,0:0:0:0:
294,18,181025,5,2,2:1:0:0:
343,378,181521,5,4,0:0:0:0:
33,306,183133,1,4,0:2:0:0:
181,190,183505,6,0,L|200:291,1,100,4|0,1:2|2:0,0:0:0:0:
199,288,183753,1,4,1:2:0:0:
98,230,184000,2,0,L|1:195,1,100,2|0,2:1|2:0,0:0:0:0:
3,196,184372,5,2,2:0:0:0:
85,129,184620,1,2,2:0:0:0:
166,63,184868,1,2,2:0:0:0:
229,374,185116,5,4,0:2:0:0:
243,281,185240,1,0,2:2:0:0:
256,189,185364,1,0,2:0:0:0:
457,297,185488,6,0,L|360:262,1,100,4|0,1:2|2:0,0:0:0:0:
431,176,185984,2,0,L|449:78,1,100,2|0,2:1|2:0,0:0:0:0:
449,78,186356,5,2,2:0:0:0:
353,42,186604,1,2,2:0:0:0:
257,7,186852,1,2,2:0:0:0:
73,232,187100,5,4,1:2:0:0:
169,196,187224,1,2,2:0:0:0:
265,161,187348,1,2,2:0:0:0:
98,62,187472,5,4,0:2:0:0:
209,345,187719,5,2,2:1:0:0:
396,135,187967,5,4,0:2:0:0:
171,150,188215,5,0,2:0:0:0:
209,345,188339,1,4,1:2:0:0:
98,364,188587,5,0,3:0:0:0:
11,317,188711,1,0,3:0:0:0:
22,270,188773,1,0,3:0:0:0:
35,225,188835,2,0,L|48:180,4,25,0|0|0|0|4,3:0|3:0|3:0|3:0|2:0,3:0:0:0:
254,354,189455,6,0,P|248:296|334:269,1,150.000005722046,4|2,3:2|2:0,2:0:0:0:
442,323,189827,1,0,2:0:0:0:
442,323,189951,6,0,P|464:289|464:249,1,75.0000028610231,0|0,3:0|2:0,0:0:0:0:
322,263,190199,2,0,P|255:243|254:173,1,150.000005722046,0|0,2:0|3:0,2:0:0:0:
395,200,190571,5,0,2:0:0:0:
395,200,190695,2,0,P|388:156|413:109,1,75.0000028610231,2|0,2:0|2:0,2:0:0:0:
322,263,190943,2,0,P|332:298|324:335,1,75.0000028610231,0|0,3:0|2:0,2:0:0:0:
302,178,191191,2,0,P|295:134|320:87,1,75.0000028610231,2|0,2:0|2:0,2:0:0:0:
236,244,191438,6,0,P|178:245|147:336,1,150.000005722046,0|2,3:0|2:0,0:0:0:0:
60,81,191810,1,0,2:0:0:0:
60,81,191934,2,0,P|118:82|149:173,2,150.000005722046,0|2|0,3:0|2:0|3:0,0:0:0:0:
74,230,192554,5,0,2:0:0:0:
74,230,192678,2,0,P|67:186|92:139,1,75.0000028610231,2|0,2:0|2:0,2:0:0:0:
134,296,192926,2,0,P|141:340|116:387,1,75.0000028610231,0|0,3:0|2:0,2:0:0:0:
187,219,193174,2,0,P|180:175|205:128,1,75.0000028610231,2|0,2:0|3:0,3:0:0:0:
189,146,193360,1,0,3:0:0:0:
189,146,193422,1,0,3:0:0:0:
318,368,193546,1,0,3:0:0:0:
497,280,193670,6,0,L|415:295,1,75.0000028610231,8|0,3:2|3:0,3:0:0:0:
423,293,193856,1,0,3:0:0:0:
423,293,193918,1,0,3:0:0:0:
333,195,194042,1,0,3:0:0:0:
510,179,194166,6,0,L|408:180,1,75.0000028610231,8|0,3:2|3:0,3:0:0:0:
435,179,194352,1,0,3:0:0:0:
435,179,194414,6,0,P|429:144|433:101,3,75.0000028610231,2|0|0|0,3:2|3:2|3:2|3:2,3:2:0:0:
333,195,194662,2,0,P|339:230|335:273,3,75.0000028610231,8|0|0|0,3:2|3:2|3:2|3:2,3:2:0:0:
74,192,194910,6,0,P|80:157|76:114,3,75.0000028610231,2|0|0|0,3:2|3:2|3:2|3:2,3:2:0:0:
179,195,195158,2,0,P|173:230|177:273,3,75.0000028610231,8|0|0|0,3:2|3:2|3:2|3:2,3:2:0:0:
256,130,195405,5,2,2:0:0:0:
256,43,195653,1,2,2:0:0:0:
165,374,195901,6,0,B|227:345|227:345|257:289|257:289|287:345|287:345|353:378,1,262.500010013581,2|0,2:1|2:0,2:0:0:0:
359,274,196397,6,0,P|359:235|372:197,1,75.0000028610231,0|0,2:0|2:0,2:0:0:0:
142,200,196645,2,0,P|153:236|153:274,1,75.0000028610231,2|0,2:0|2:0,2:0:0:0:
249,191,196893,6,0,B|191:125|173:12|279:-46|330:32|312:107|244:131,1,350,4|0,0:0|2:0,0:0:0:0:
264,278,197389,6,0,P|215:203|133:203,1,170.000003242493,0|2,3:0|2:0,0:0:0:0:
173,283,197885,6,0,L|171:325,1,42.5000008106232,8|0,2:0|2:0,0:0:0:0:
65,145,198133,2,0,L|63:103,1,42.5000008106232,0|0,3:0|2:0,0:0:0:0:
354,237,198381,6,0,B|396:219|424:253|424:253|404:360,1,170.000003242493,2|0,2:1|3:0,0:0:0:0:
227,192,198876,6,0,B|185:210|157:176|157:176|177:68,1,179.999994506836,8|0,2:1|2:0,0:0:0:0:
91,41,199372,6,0,L|96:100,1,42.5000008106232,2|0,3:0|2:0,0:0:0:0:
175,75,199620,2,0,L|170:16,1,42.5000008106232,2|0,2:1|2:0,0:0:0:0:
313,289,199868,6,0,B|282:273|258:257|258:257|290:383,1,170.000003242493,8|0,2:0|3:0,0:0:0:0:
185,364,200364,1,2,2:0:0:0:
44,296,200612,6,0,L|-5:288,1,42.5000008106232,0|0,3:0|2:0,0:0:0:0:
113,248,200736,2,0,L|155:255,1,42.5000008106232,0|0,3:0|2:0,0:0:0:0:
278,217,200860,6,0,L|229:209,1,42.5000008106232,8|0,3:2|2:0,0:0:0:0:
353,167,200984,2,0,L|391:168,1,42.5000008106232,0|0,3:0|2:0,0:0:0:0:
511,139,201108,6,0,L|462:131,1,42.5000008106232,0|0,3:0|2:0,0:0:0:0:
395,168,201232,2,0,L|344:163,1,42.5000008106232,0|0,3:0|2:0,0:0:0:0:
278,217,201356,5,4,3:2:0:0:
341,351,201480,2,0,B|385:382|385:382|363:256,1,170.000003242493,2|0,2:1|2:0,2:0:0:0:
365,267,201852,2,0,P|411:266|447:285,1,85.0000016212464,8|0,2:0|2:0,0:0:0:0:
278,217,202100,2,0,B|234:248|234:248|256:122,1,170.000003242493,0|2,3:1|2:0,2:0:0:0:
308,69,202472,2,0,B|224:50|241:124|142:105,1,170.000003242493,0|0,3:0|2:0,0:0:0:0:
48,150,202843,2,0,P|51:105|35:67,1,85.0000016212464,8|0,2:0|2:0,0:0:0:0:
125,21,203091,6,0,L|120:-18,4,21.2500004053116,4|0|0|0|0,2:0|2:0|2:0|2:0|2:0,0:0:0:0:
138,200,203339,5,0,3:0:0:0:
171,303,203463,2,0,P|124:238|47:258,1,170.000003242493,2|0,2:0|2:0,2:0:0:0:
9,345,203835,2,0,P|48:355|92:330,1,85.0000016212464,8|0,2:0|2:0,0:0:0:0:
236,182,204083,6,0,B|274:204|313:214|313:214|295:254|295:307,1,170.000003242493,2|0,3:1|2:0,2:0:0:0:
391,271,204455,1,2,2:0:0:0:
461,335,204579,2,0,P|481:297|479:253,1,85.0000016212464,0|0,3:0|2:0,2:0:0:0:
373,363,204827,5,4,2:2:0:0:
42,202,205323,6,0,P|18:160|13:83,1,100,4|0,0:0|0:0,0:0:0:0:
207,119,205571,2,0,P|188:54|217:-20,1,100,8|0,0:0|0:0,0:0:0:0:
192,23,205757,1,0,0:0:0:0:
192,23,205819,6,0,L|85:11,1,100,2|0,1:0|0:0,0:0:0:0:
187,302,206067,2,0,L|294:289,1,100,8|0,1:0|0:0,0:0:0:0:
361,377,206253,1,0,0:0:0:0:
361,377,206314,6,0,P|386:334|391:273,1,100,2|0,0:0|0:0,0:0:0:0:
201,115,206562,2,0,P|158:130|148:210,1,100,8|0,0:0|0:0,0:0:0:0:
137,177,206748,1,0,0:0:0:0:
137,177,206810,6,0,L|17:165,1,100,2|0,1:0|0:0,0:0:0:0:
320,13,207058,2,0,L|440:0,1,100,8|0,1:0|0:0,0:0:0:0:
177,15,207306,6,0,L|135:5,6,25,2|2|2|2|2|2|2,2:0|2:0|2:0|2:0|2:0|2:0|2:0,0:0:0:0:
319,107,207554,1,8,0:0:0:0:
413,120,207678,1,0,0:0:0:0:
361,214,207802,1,0,0:0:0:0:
267,227,207926,1,0,0:0:0:0:
315,323,208050,1,8,0:0:0:0:
413,346,208174,1,0,0:0:0:0:
413,346,208236,1,0,0:0:0:0:
413,346,208298,1,0,0:0:0:0:
14,147,208670,5,2,2:0:0:0:
98,189,208794,2,0,L|119:316,1,100
129,380,209042,1,8,0:0:0:0:
474,244,209290,6,0,P|500:203|501:136,1,100,2|0,0:0|0:0,0:0:0:0:
292,128,209538,2,0,P|284:67|268:16,1,100,8|0,0:0|0:0,0:0:0:0:
273,30,209724,1,0,0:0:0:0:
274,30,209786,6,0,L|381:18,1,100,2|0,1:0|0:0,0:0:0:0:
246,303,210034,2,0,L|353:315,1,100,8|0,1:0|0:0,0:0:0:0:
388,224,210219,1,0,0:0:0:0:
388,224,210281,6,0,L|281:212,1,100,2|0,1:0|0:0,0:0:0:0:
8,166,210529,2,0,L|115:154,1,100,10|0,1:0|0:0,0:0:0:0:
191,99,210715,1,0,0:0:0:0:
191,99,210777,6,0,L|202:207,1,100
459,350,211025,2,0,L|469:245,1,100,8|0,0:0|0:0,0:0:0:0:
450,139,211273,6,0,L|457:185,6,25,2|2|2|2|2|2|2,2:0|2:0|2:0|2:0|2:0|2:0|2:0,0:0:0:0:
250,77,211521,1,8,0:0:0:0:
344,90,211645,1,0,0:0:0:0:
292,184,211769,1,0,0:0:0:0:
198,197,211893,1,0,0:0:0:0:
246,293,212017,1,8,0:0:0:0:
344,316,212141,1,0,0:0:0:0:
344,316,212203,1,0,0:0:0:0:
344,316,212265,1,0,0:0:0:0:
382,222,212389,6,0,P|472:231|489:142,1,200,2|0,2:1|2:0,2:0:0:0:
339,40,212761,6,0,L|344:96,3,50,2|2|2|2,2:0|2:0|2:0|2:0,0:0:0:0:
198,197,213009,6,0,L|203:141,3,50,2|2|2|2,2:0|2:0|2:0|2:0,0:0:0:0:
144,271,213257,6,0,P|78:283|32:198,1,170.000003242493,4|0,3:2|2:0,0:0:0:0:
101,211,213753,6,0,L|106:167,1,42.5000008106232,8|0,3:2|2:0,2:0:0:0:
0,40,214000,2,0,L|5:84,1,42.5000008106232,0|0,3:2|2:0,2:0:0:0:
173,369,214248,6,0,B|240:340|243:246|243:246|263:336|333:358,1,297.500005674362,2|0,2:1|2:0,2:0:0:0:
366,174,214744,6,0,B|306:145|306:145|339:256,1,179.999994506836,8|0,2:0|2:0,2:0:0:0:
439,276,215240,6,0,L|433:329,1,42.5000008106232,2|0,3:0|2:0,2:0:0:0:
477,150,215488,2,0,L|471:203,1,42.5000008106232,2|0,2:0|2:0,2:0:0:0:
159,135,215736,6,0,P|238:150|231:11,1,255.000004863739,8|0,2:2|2:0,0:0:0:0:
209,81,216232,5,2,2:0:0:0:
58,182,216480,6,0,L|60:128,1,42.5000008106232,0|0,2:0|2:0,2:0:0:0:
6,239,216604,2,0,L|4:293,1,42.5000008106232,0|0,3:0|2:0,2:0:0:0:
181,236,216728,6,0,L|183:182,1,42.5000008106232,8|0,2:0|2:0,2:0:0:0:
129,293,216852,2,0,L|127:347,1,42.5000008106232,0|0,3:0|2:0,2:0:0:0:
318,274,216976,6,0,L|320:220,1,42.5000008106232,0|0,3:0|2:0,2:0:0:0:
266,331,217100,2,0,L|264:385,1,42.5000008106232,0|0,3:0|2:0,2:0:0:0:
410,365,217224,5,0,3:0:0:0:
497,331,217348,2,0,B|538:290|517:226|517:226|506:266|479:278,1,170.000003242493,2|0,2:0|2:0,2:0:0:0:
295,133,217719,2,0,B|346:144|346:144|364:185|364:185|435:200,1,170.000003242493,4|0,1:2|3:0,0:0:0:0:
435,200,218215,1,2,2:1:0:0:
295,39,218339,2,0,P|263:106|180:92,1,170.000003242493,0|0,3:0|3:0,2:0:0:0:
171,202,218711,2,0,P|136:211|99:242,1,85.0000016212464,8|0,2:0|2:0,2:0:0:0:
43,148,218959,6,0,L|11:145,4,21.2500004053116,2|2|2|2|2,2:0|2:0|2:0|2:0|2:0,0:0:0:0:
0,246,219207,6,0,P|6:293|8:335,1,85.0000016212464,0|0,3:0|2:0,3:0:0:0:
7,330,219393,1,0,2:0:0:0:
7,330,219455,1,2,2:0:0:0:
171,202,219703,6,0,P|177:155|179:113,1,85.0000016212464,8|0,2:0|2:0,3:0:0:0:
243,274,219951,2,0,P|237:321|235:363,1,85.0000016212464,0|0,3:0|2:0,3:0:0:0:
309,169,220199,5,2,2:0:0:0:
382,245,220323,2,0,P|376:292|374:334,1,85.0000016212464,0|0,3:0|2:0,3:0:0:0:
362,81,220571,1,2,2:0:0:0:
456,108,220695,5,4,2:0:0:0:
374,329,221191,6,0,L|269:338,1,100,4|0,1:0|0:0,0:0:0:0:
98,92,221438,2,0,L|200:102,1,100,8|0,1:0|0:0,0:0:0:0:
202,109,221624,1,0,0:0:0:0:
202,109,221686,6,0,P|213:163|191:206,1,100,2|0,0:0|0:0,0:0:0:0:
106,370,221934,2,0,P|53:352|27:311,1,100,8|0,0:0|0:0,0:0:0:0:
101,285,222120,1,0,0:0:0:0:
101,285,222182,6,0,L|112:173,1,100,2|0,0:0|0:0,0:0:0:0:
326,31,222430,2,0,L|315:143,1,100,8|0,0:0|0:0,0:0:0:0:
307,210,222616,1,0,0:0:0:0:
307,210,222678,6,0,P|359:206|391:163,1,100,2|0,0:0|0:0,0:0:0:0:
97,94,222926,2,0,P|67:50|14:44,1,100,8|0,0:0|0:0,0:0:0:0:
185,281,223174,6,0,L|182:322,6,25,2|2|2|2|2|2|2,2:0|2:0|2:0|2:0|2:0|2:0|2:0,0:0:0:0:
106,370,223422,5,8,0:0:0:0:
17,314,223546,1,0,0:0:0:0:
86,241,223670,1,0,0:0:0:0:
57,133,223794,1,0,0:0:0:0:
161,106,223918,1,8,0:0:0:0:
135,5,224042,1,0,2:0:0:0:
135,5,224104,1,0,2:0:0:0:
135,5,224166,6,2,L|169:-1,4,25,2|2|2|2|2,2:0|2:0|2:0|2:0|2:0,2:0:0:0:
187,200,224414,1,8,0:0:0:0:
282,135,224538,2,2,L|248:129,4,25,2|2|2|2|2,2:0|2:0|2:0|2:0|2:0,2:0:0:0:
282,30,224786,5,8,0:0:0:0:
316,37,224848,1,0,0:0:0:0:
351,43,224910,1,8,0:0:0:0:
387,51,224972,1,0,0:0:0:0:
421,59,225034,1,8,0:0:0:0:
457,67,225095,1,0,0:0:0:0:
494,77,225157,6,0,L|463:191,1,100,2|0,0:0|0:0,0:0:0:0:
311,214,225405,2,0,L|337:310,1,100,8|0,0:0|0:0,0:0:0:0:
308,379,225591,1,0,0:0:0:0:
308,379,225653,6,0,P|361:383|402:343,1,100,2|0,0:0|0:0,0:0:0:0:
153,272,225901,2,0,P|100:276|59:236,1,100,8|0,0:0|0:0,0:0:0:0:
125,202,226087,1,0,0:0:0:0:
125,202,226149,6,0,L|141:93,1,100,2|0,0:0|0:0,0:0:0:0:
387,43,226397,2,0,L|371:152,1,100,8|0,0:0|0:0,0:0:0:0:
325,161,226583,1,0,0:0:0:0:
330,199,226645,1,0,0:0:0:0:
336,238,226707,1,0,0:0:0:0:
342,276,226769,1,0,0:0:0:0:
228,368,226893,2,0,L|244:259,1,100,8|0,0:0|0:0,0:0:0:0:
342,276,227141,6,0,L|345:317,5,25,2|2|2|2|2|2,2:0|2:0|2:0|2:0|2:0|2:0,0:0:0:0:
421,365,227389,5,8,0:0:0:0:
510,309,227513,1,0,0:0:0:0:
440,235,227637,1,0,0:0:0:0:
470,128,227761,1,0,0:0:0:0:
366,101,227885,1,8,0:0:0:0:
392,0,228009,1,0,2:0:0:0:
392,0,228071,1,0,2:0:0:0:
392,0,228133,5,2,2:0:0:0:
313,33,228257,1,2,2:0:0:0:
366,101,228381,1,2,2:0:0:0:
276,200,228629,5,0,0:0:0:0:
229,223,228711,1,0,0:0:0:0:
181,208,228794,1,0,0:0:0:0:
164,159,228876,1,0,0:0:0:0:
179,109,228959,1,0,0:0:0:0:
146,64,229042,1,0,0:0:0:0:
96,69,229124,1,4,0:0:0:0:
256,192,229207,12,2,237058,2:0:0:0:
256,189,244992,5,2,2:0:0:0:
72,265,252926,6,0,P|66:210|58:157,1,101.600003162598,0|0,3:0|0:0,0:0:0:0:
29,333,253918,2,0,P|93:340|147:272,1,152.400004743897,2|0,0:3|0:0,0:0:0:0:
146,198,254910,5,0,3:0:0:0:
255,62,255405,1,0,3:0:0:0:
358,194,255901,2,0,P|402:253|476:250,1,152.400004743897,2|0,0:3|0:0,0:0:0:0:
436,181,256893,5,0,3:0:0:0:
249,153,257389,1,0,3:0:0:0:
418,36,257885,1,2,0:3:0:0:
401,266,258381,1,0,0:0:0:0:
258,238,258876,5,0,3:0:0:0:
249,154,259372,1,0,3:0:0:0:
238,69,259868,1,2,0:3:0:0:
95,226,260860,6,0,P|101:171|109:118,1,101.600003162598,0|0,3:0|0:0,0:0:0:0:
138,294,261852,2,0,P|74:301|20:233,1,152.400004743897,2|0,0:3|0:0,0:0:0:0:
179,209,262843,5,0,3:0:0:0:
254,82,263339,1,0,3:0:0:0:
333,209,263835,2,0,P|397:216|451:148,1,152.400004743897,2|0,0:3|0:0,0:0:0:0:
371,137,264827,5,0,3:0:0:0:
141,137,265323,1,0,3:0:0:0:
256,338,265819,1,2,2:3:0:0:
258,87,266314,1,2,0:0:0:0:
272,254,266810,1,2,3:0:0:0:
235,173,267306,1,0,3:3:0:0:
368,263,267554,5,0,3:0:0:0:
368,263,267637,1,0,3:0:0:0:
368,263,267719,1,0,3:0:0:0:
368,263,267802,6,0,P|364:311|362:355,1,75.0000028610231,0|0,3:0|3:0,3:0:0:0:
452,270,268050,2,0,P|448:318|446:362,1,75.0000028610231,0|0,3:0|3:0,3:0:0:0:
142,191,268298,6,0,P|146:239|148:283,1,75.0000028610231,8|0,3:1|3:0,3:0:0:0:
58,198,268546,2,0,P|62:246|64:290,1,75.0000028610231,0|0,3:0|3:0,3:0:0:0:
257,40,268794,5,4,1:0:0:0:
256,341,269290,1,2,0:2:0:0:
256,40,269786,1,0,2:0:0:0:
117,291,270405,5,4,1:0:0:0:
256,40,270777,1,4,1:0:0:0:
395,291,271025,1,4,1:0:0:0:
256,252,271273,5,2,0:0:0:0:
256,40,271769,1,0,2:0:0:0:
256,336,272389,5,4,1:0:0:0:
117,191,272761,1,4,1:0:0:0:
395,191,273257,1,2,2:0:0:0:
256,40,273753,1,0,2:0:0:0:
198,228,274248,5,2,2:0:0:0:
252,326,274372,2,0,B|316:287|316:287|284:163,1,200,4|0,1:0|0:0,0:0:0:0:
152,44,274744,5,4,1:0:0:0:
400,92,275240,1,4,1:0:0:0:
370,339,275612,1,4,1:0:0:0:
108,295,275860,1,0,3:0:0:0:
162,194,275984,1,0,3:0:0:0:
40,232,276108,6,0,L|50:178,2,50,0|0|0,3:0|3:0|3:0,3:0:0:0:
138,102,276356,1,4,1:0:0:0:
370,339,276645,5,2,0:0:0:0:
370,339,276728,2,0,B|394:220|394:220|464:238|464:238|399:113|399:113|302:197|302:197|365:213|365:213|340:338,1,650,4|4,1:0|1:0,0:0:0:0:
396,31,278711,5,4,1:0:0:0:
261,281,278959,1,4,1:0:0:0:
87,35,279207,6,0,B|113:156|113:156|186:137|186:137|118:269|118:269|16:181|16:181|82:164|82:164|56:33,1,675.000025749208,4|4,2:0|1:0,0:0:0:0:
255,373,280695,5,4,1:0:0:0:
256,192,280757,12,2,284662,0:0:0:0:
256,192,284724,12,0,288381,0:0:0:0:
94,157,288629,5,0,3:0:0:0:
185,174,288753,1,0,3:0:0:0:
166,264,288876,1,8,3:2:0:0:
79,247,289000,1,0,3:0:0:0:
15,127,289124,6,0,P|75:137|119:44,1,170.000003242493,0|8,3:0|3:2,3:0:0:0:
121,52,289496,2,0,L|210:36,1,85.0000016212464,0|0,3:0|3:0,3:0:0:0:
390,159,289744,2,0,L|301:143,1,85.0000016212464,0|8,3:0|3:2,3:0:0:0:
128,240,289992,2,0,L|217:224,1,85.0000016212464,0|0,3:0|3:0,3:0:0:0:
395,334,290240,2,0,L|306:318,1,85.0000016212464,0|8,3:0|3:2,3:0:0:0:
311,318,290426,1,0,3:0:0:0:
311,318,290488,1,0,3:0:0:0:
388,160,290612,5,0,3:0:0:0:
406,244,290736,1,0,3:0:0:0:
490,227,290860,1,8,3:2:0:0:
475,142,290984,1,0,3:0:0:0:
511,74,291108,6,0,P|451:84|407:-9,1,170.000003242493,0|8,3:0|3:2,3:0:0:0:
404,0,291480,2,0,L|320:15,1,85.0000016212464,0|0,3:0|3:0,3:0:0:0:
186,99,291728,2,0,L|102:84,1,85.0000016212464,0|8,3:0|3:2,3:0:0:0:
422,205,291976,2,0,L|338:220,1,85.0000016212464,0|0,3:0|3:0,3:0:0:0:
196,294,292224,2,0,L|112:279,1,85.0000016212464,0|8,3:0|3:2,3:0:0:0:
112,279,292410,1,0,3:0:0:0:
112,279,292472,1,0,3:0:0:0:
19,61,292595,6,0,P|62:70|86:104,3,75.0000028610231,0|0|0|0,3:0|3:0|3:0|3:0,3:0:0:0:
11,244,292843,2,0,P|33:205|72:193,3,75.0000028610231,8|0|0|0,3:2|3:0|3:0|3:0,3:0:0:0:
196,294,293091,2,0,P|165:260|166:219,3,75.0000028610231,0|0|0|0,3:0|3:0|3:0|3:0,3:0:0:0:
309,150,293339,2,0,P|267:168|227:154,3,75.0000028610231,8|0|0|0,3:2|3:0|3:0|3:0,3:0:0:0:
251,10,293587,6,0,L|260:92,3,75.0000028610231,0|0|0|0,3:0|3:0|3:0|3:0,3:0:0:0:
484,199,293835,2,0,L|493:117,3,75.0000028610231,8|0|0|0,3:2|3:0|3:0|3:0,3:0:0:0:
294,251,294083,1,0,3:0:0:0:
286,255,294145,1,0,3:0:0:0:
278,258,294207,2,0,L|287:340,1,75.0000028610231,0|0,3:0|3:0,3:0:0:0:
394,181,294331,6,2,L|398:135,8,37.5000014305115,8|0|0|0|0|0|0|0|4,3:2|0:0|0:0|0:0|0:0|0:0|0:0|0:0|0:0,0:0:0:0:
151,317,294827,6,0,B|167:229|167:229|151:192|151:192|165:111,1,200,2|2,0:1|0:1,0:1:0:0:
0,69,295447,6,0,B|52:78|80:117|80:117|82:59|137:31,2,200,2|2|2,2:0|2:0|2:0,2:0:0:0:
238,181,296191,5,0,3:0:0:0:
52,222,296314,2,0,B|17:269|35:336|95:355|95:355|71:333|73:300,1,225.000008583069,8|0,1:0|0:0,0:0:0:0:
150,299,296562,5,4,2:1:0:0:
329,191,297926,6,0,B|412:179|397:253|483:242,1,170.000003242493,2|0,0:1|0:0,0:0:0:0:
472,86,298298,2,0,P|483:129|457:167,1,85.0000016212464,2|0,0:1|0:0,0:0:0:0:
341,106,298546,6,0,B|258:94|273:168|187:157,1,170.000003242493,0|2,3:0|0:3,0:0:0:0:
201,77,298918,1,0,3:0:0:0:
29,90,299042,2,0,P|18:133|44:171,1,85.0000016212464,2|0,0:0|3:0,0:0:0:0:
37,166,299290,1,8,0:0:0:0:
117,116,299414,6,0,P|122:52|123:17,1,85.0000016212464,2|0,2:3|3:3,0:0:0:0:
130,232,299662,2,0,P|72:259|41:276,1,85.0000016212464,0|8,2:3|3:2,0:0:0:0:
225,167,299910,6,0,P|288:191|349:122,1,170.000003242493,2|0,0:3|3:0,0:0:0:0:
465,282,300281,1,4,0:0:0:0:
176,98,300529,5,4,1:0:0:0:
37,236,300653,1,0,1:0:0:0:
259,344,300777,6,0,B|204:383|204:383|227:247,1,187.5,8|0,0:0|2:0,0:0:0:0:
158,2,301025,6,0,P|235:15|262:138,1,209.999993591309,2|8,0:0|0:0,0:0:0:0:
413,294,301397,6,0,P|373:268|313:272,1,104.999996795654,0|2,0:0|0:0,0:0:0:0:
80,74,301645,2,0,P|120:100|180:96,1,104.999996795654,0|8,0:0|0:0,0:0:0:0:
456,21,301893,6,0,B|373:41|373:41|405:168,1,209.999993591309,0|2,0:0|0:0,0:0:0:0:
259,344,302265,1,8,0:0:0:0:
206,253,302389,1,2,0:0:0:0:
298,189,302513,5,4,0:0:0:0:
138,364,302637,1,0,0:0:0:0:
21,153,302761,6,0,B|96:207|96:207|70:307,1,187.5,8|0,0:0|2:0,0:0:0:0:
200,134,303009,6,0,P|289:141|316:37,1,209.999993591309,2|8,0:0|0:0,0:0:0:0:
145,0,303381,6,0,P|114:44|120:111,1,104.999996795654
366,263,303629,2,0,P|397:219|391:152,1,104.999996795654,0|8,0:0|0:0,0:0:0:0:
259,344,303876,6,0,B|204:341|176:295|176:295|120:273|68:303,1,209.999993591309,0|2,0:0|0:0,0:0:0:0:
22,32,304248,1,8,0:0:0:0:
66,121,304372,1,0,0:0:0:0:
18,208,304496,5,4,0:0:0:0:
153,360,304620,1,0,0:0:0:0:
261,196,304744,6,0,B|228:98|228:98|314:56,1,187.5,8|0,0:0|2:0,0:0:0:0:
474,263,304992,6,0,P|462:183|329:165,1,209.999993591309,2|8,0:0|0:0,0:0:0:0:
158,260,305364,2,0,P|118:298|50:292,1,104.999996795654,2|0,0:0|0:0,0:0:0:0:
193,96,305612,2,0,P|180:42|219:-13,1,104.999996795654,2|8,0:0|0:0,0:0:0:0:
390,234,305860,6,0,B|319:221|319:221|266:252|266:252|183:238,1,209.999993591309,2|0,0:0|0:0,0:0:0:0:
22,32,306232,1,8,0:0:0:0:
66,121,306356,1,0,0:0:0:0:
18,208,306480,5,4,0:0:0:0:
193,96,306604,1,0,0:0:0:0:
190,308,306728,1,8,0:0:0:0:
432,235,306976,5,2,0:0:0:0:
229,189,307100,1,0,0:0:0:0:
298,383,307224,1,8,0:0:0:0:
345,182,307348,6,0,L|326:54,1,104.999996795654,2|0,0:0|0:0,0:0:0:0:
90,269,307595,2,0,L|109:397,1,104.999996795654,2|8,0:0|0:0,0:0:0:0:
135,103,307843,6,0,B|224:139|224:139|194:268,1,209.999993591309,2|0,0:0|0:0,0:0:0:0:
382,307,308215,1,8,0:0:0:0:
345,182,308339,1,0,0:0:0:0:
298,383,308463,5,4,0:0:0:0:
488,342,308587,1,0,0:0:0:0:
449,170,308711,2,0,P|489:106|417:17,1,187.5,8|0,1:0|2:0,0:0:0:0:
345,182,308959,6,0,B|272:168|272:168|218:203|218:203|131:187,1,209.999993591309,2|8,0:0|0:0,0:0:0:0:
138,104,309331,6,0,L|129:-10,1,104.999996795654,2|0,0:0|0:0,0:0:0:0:
291,264,309579,2,0,L|282:378,1,104.999996795654,0|8,0:0|0:0,0:0:0:0:
21,93,309827,6,0,B|28:173|28:173|76:202|76:202|83:286,1,209.999993591309,2|0,0:0|1:0,0:0:0:0:
246,137,310199,1,8,0:0:0:0:
255,34,310323,1,0,0:0:0:0:
148,165,310447,5,4,0:0:0:0:
291,255,310571,1,0,0:0:0:0:
400,99,310695,2,0,B|479:142|479:142|447:250,1,187.5,8|0,0:0|2:0,0:0:0:0:
352,366,310943,6,0,P|331:310|193:325,1,209.999993591309,2|8,0:0|0:0,0:0:0:0:
26,353,311314,2,0,P|-2:314|-2:248,1,104.999996795654
210,91,311562,2,0,P|238:130|238:196,1,104.999996795654,0|8,0:0|0:0,0:0:0:0:
129,296,311810,5,8,0:0:0:0:
129,296,311872,1,8,0:0:0:0:
129,296,311934,2,0,L|71:287,2,52.4999983978272,0|0|0,3:0|3:0|3:0,3:0:0:0:
108,40,312182,1,8,0:0:0:0:
117,151,312306,1,0,0:0:0:0:
210,91,312430,6,0,L|329:81,1,104.999996795654,4|0,3:2|3:0,0:0:0:0:
343,313,312678,2,0,L|462:323,1,104.999996795654,8|0,3:2|3:0,0:0:0:0:
145,341,312864,1,0,3:0:0:0:
134,349,312926,2,0,P|208:356|211:225,1,209.999993591309,0|8,3:0|3:2,3:0:0:0:
148,183,313298,1,0,3:0:0:0:
148,183,313360,1,0,3:0:0:0:
148,183,313422,6,0,L|43:174,1,104.999996795654,2|0,3:0|3:0,3:0:0:0:
149,8,313670,1,8,3:2:0:0:
121,296,313794,1,0,3:0:0:0:
121,296,313856,1,0,3:0:0:0:
121,296,313918,2,0,L|225:287,1,104.999996795654,2|0,3:0|3:0,3:0:0:0:
219,104,314166,6,0,L|175:96,6,26.2499991989136,8|2|2|2|2|2|2,2:0|2:0|2:0|2:0|2:0|2:0|2:0,0:0:0:0:
301,27,314414,5,4,3:2:0:0:
406,61,314538,1,0,3:0:0:0:
381,164,314662,1,8,3:2:0:0:
499,224,314786,1,0,3:0:0:0:
499,224,314848,1,0,3:0:0:0:
499,224,314910,5,4,3:2:0:0:
394,258,315034,1,0,3:0:0:0:
419,361,315158,1,8,3:2:0:0:
253,370,315281,5,2,3:0:0:0:
208,56,315529,1,8,3:2:0:0:
107,272,315777,6,0,P|194:273|223:186,1,187.5,4|0,3:2|2:0,0:0:0:0:
108,116,316025,5,0,3:0:0:0:
108,116,316087,1,0,3:0:0:0:
108,116,316149,2,0,L|118:189,2,62.5,8|0|2,3:2|3:0|3:2,3:0:0:0:
56,9,316397,5,0,3:0:0:0:
56,9,316521,1,0,3:0:0:0:
107,272,316645,6,0,P|106:341|60:375,1,125,12|0,0:0|0:0,0:0:0:0:
317,166,316893,2,0,P|389:169|423:23,1,250,2|8,0:0|0:0,0:0:0:0:
239,2,317265,6,0,P|220:50|230:100,1,104.999996795654,2|0,0:0|0:0,0:0:0:0:
418,298,317513,2,0,P|437:249|426:199,1,104.999996795654,0|8,0:0|0:0,0:0:0:0:
38,256,317761,6,0,B|93:253|121:207|121:207|177:185|229:215,1,209.999993591309,2|0,0:0|0:0,0:0:0:0:
483,101,318133,1,8,0:0:0:0:
346,239,318257,1,0,0:0:0:0:
296,51,318381,5,0,0:0:0:0:
483,101,318505,1,0,0:0:0:0:
426,313,318629,6,0,B|458:265|458:265|435:202,1,125,8|0,0:0|0:0,0:0:0:0:
158,223,318876,2,0,P|152:324|280:345,1,250,2|8,0:0|0:0,0:0:0:0:
101,59,319248,6,0,L|206:47,1,104.999996795654,2|0,0:0|0:0,0:0:0:0:
230,269,319496,2,0,L|349:283,1,104.999996795654,0|8,0:0|0:0,0:0:0:0:
295,151,319744,1,0,0:0:0:0:
129,351,319868,5,0,0:0:0:0:
0,225,319992,1,0,0:0:0:0:
170,169,320116,1,8,0:0:0:0:
170,169,320178,1,0,0:0:0:0:
170,169,320240,1,0,0:0:0:0:
98,253,320364,5,0,3:0:0:0:
98,253,320426,1,0,3:0:0:0:
98,253,320488,2,0,L|91:328,2,62.5,0|0|12,3:0|3:0|3:2,3:0:0:0:
394,124,320860,5,0,3:0:0:0:
394,124,320922,1,0,3:0:0:0:
394,124,320984,2,0,L|387:49,2,62.5,0|0|12,3:0|3:0|3:2,3:0:0:0:
62,36,321356,5,0,3:0:0:0:
62,36,321418,1,0,3:0:0:0:
62,36,321480,2,0,L|55:111,2,62.5,0|0|12,3:0|3:0|3:2,3:0:0:0:
428,351,321852,5,0,3:0:0:0:
428,351,321914,1,0,3:0:0:0:
428,351,321976,2,0,L|435:276,2,62.5,0|0|12,3:0|3:0|3:2,3:0:0:0:
237,60,322348,5,0,3:0:0:0:
247,179,322472,1,0,3:0:0:0:
258,294,322595,1,12,0:2:0:0:
109,365,322843,6,0,P|20:369|9:262,1,187.5,0|0,3:0|3:0,3:0:0:0:
27,214,323091,1,12,3:2:0:0:
144,278,323215,6,0,P|147:217|146:130,1,125,12|0,1:2|3:0,0:0:0:0:
355,26,323463,2,0,P|352:87|353:174,1,125,12|0,3:2|3:0,0:0:0:0:
27,214,323711,5,12,1:2:0:0:
27,214,323835,2,0,P|30:153|29:66,1,125,12|0,1:2|3:0,0:0:0:0:
485,170,324083,2,0,P|482:231|483:318,1,125,12|0,1:2|3:0,0:0:0:0:
254,103,324331,6,0,L|254:59,4,31.25,2|2|2|2|2,2:0|2:0|2:0|2:0|2:0,0:0:0:0:
252,217,324517,1,0,0:0:0:0:
252,217,324579,2,0,P|255:278|254:365,1,125,12|0,1:2|3:0,0:0:0:0:
140,232,324827,6,0,P|136:136|136:30,1,187.5,2|0,0:0|0:0,0:0:0:0:
135,44,325075,1,12,1:2:0:0:
361,196,325199,6,0,P|364:257|363:344,1,125,2|0,1:0|1:0,0:0:0:0:
36,196,325447,2,0,P|33:135|34:48,1,125,2|12,1:0|1:2,0:0:0:0:
461,174,325695,2,0,P|464:235|463:322,1,125,2|0,1:0|1:0,0:0:0:0:
254,371,325943,5,0,0:0:0:0:
254,103,326067,1,8,0:0:0:0:
254,103,326129,1,0,0:0:0:0:
254,103,326191,2,0,P|256:167|250:243,1,125,0|2,0:0|1:0,0:0:0:0:
23,353,326438,1,2,0:0:0:0:
23,353,326500,1,0,0:0:0:0:
23,353,326562,2,0,P|18:285|19:214,1,125,8|0,0:0|1:0,0:0:0:0:
317,313,326810,6,0,P|209:336|176:211,1,250,2|8,0:0|0:0,0:0:0:0:
357,58,327182,1,8,0:0:0:0:
357,58,327244,1,0,0:0:0:0:
357,58,327306,2,0,P|352:121|353:198,1,125,2|0,0:0|1:0,0:0:0:0:
421,243,327492,1,0,0:0:0:0:
421,243,327554,1,8,0:0:0:0:
167,142,327678,6,0,B|87:131|107:213|10:195,1,170.000003242493,2|0,2:1|2:0,2:0:0:0:
32,86,328050,1,4,2:0:0:0:
108,283,328174,1,2,2:0:0:0:
255,226,328298,5,4,1:0:0:0:
255,226,328546,2,0,L|262:65,1,150.000005722046,2|8,2:1|2:0,2:0:0:0:
255,226,329166,6,0,L|248:375,2,150.000005722046,2|2|0,2:1|2:0|3:0,2:0:0:0:
167,157,329786,1,12,2:0:0:0:
473,156,330281,5,0,3:0:0:0:
489,343,330405,1,0,2:0:0:0:
489,343,330529,2,0,B|440:358|440:358|452:282,1,112.500004291535,2|0,2:1|2:0,2:0:0:0:
512,232,330777,5,8,0:0:0:0:
243,348,331149,6,0,B|216:292|216:292|286:272,1,127.50000243187,2|0,2:1|2:0,2:0:0:0:
315,192,331397,2,0,B|376:196|376:196|358:267,1,127.50000243187,2|0,2:1|2:0,2:0:0:0:
352,384,331645,2,0,L|345:333,2,42.5000008106232,0|0|8,3:0|3:0|3:2,3:0:0:0:
300,90,331893,6,0,P|341:92|378:120,1,75.0000028610231,0|0,3:0|3:0,3:0:0:0:
195,52,332017,2,0,P|225:24|271:18,1,75.0000028610231,8|0,3:2|3:3,3:3:0:0:
91,104,332141,2,0,P|93:62|121:26,1,75.0000028610231,0|0,3:0|3:0,3:0:0:0:
113,201,332265,6,0,P|81:141|-17:169,1,150.000005722046,12|0,3:2|3:0,3:0:0:0:
31,208,332451,1,0,3:0:0:0:
35,219,332513,6,0,P|97:220|109:91,1,200,8|2,3:2|3:2,3:0:0:0:
230,160,332885,2,0,L|223:222,1,50,0|0,3:0|3:0,3:0:0:0:
117,330,333009,1,8,3:2:0:0:
128,326,333071,1,0,3:0:0:0:
137,323,333133,2,0,L|193:302,1,50,2|0,3:2|3:0,3:0:0:0:
327,214,333257,5,4,3:2:0:0:
320,218,333319,1,0,3:0:0:0:
314,223,333381,2,0,L|305:327,1,75.0000028610231,0|0,3:0|3:0,3:0:0:0:
401,253,333505,5,12,3:2:0:0:
394,257,333567,1,0,3:0:0:0:
388,262,333629,2,0,L|379:366,1,75.0000028610231,0|0,3:0|3:0,3:0:0:0:
482,291,333752,5,12,3:2:0:0:
475,295,333814,1,0,3:0:0:0:
469,300,333876,2,0,L|460:404,1,75.0000028610231,0|0,3:0|3:0,3:0:0:0:
415,159,334000,6,0,L|158:193,1,225.000008583069,2|0,2:1|2:0,0:0:0:0:
181,190,334248,1,4,0:0:0:0:
31,217,335488,6,2,B|-9:280|14:357|65:379|105:370|131:332|139:297|91:263|91:263|120:290|104:329,1,357.49998363495,0|0,2:0|2:0,2:1:0:0:
205,293,336232,5,6,3:2:0:0:
205,293,336294,1,0,3:0:0:0:
205,293,336356,2,0,P|243:298|274:282,1,75.0000028610231,0|0,3:0|3:0,3:0:0:0:
371,322,336480,2,0,B|313:283|313:283|348:186,1,150.000005722046,10|0,3:2|3:0,0:0:0:0:
283,78,336666,1,0,3:0:0:0:
249,60,336728,2,0,B|191:99|191:99|226:196,1,150.000005722046,2|0,3:2|3:0,0:0:0:0:
395,107,336914,2,0,L|368:10,1,75.0000028610231,0|8,3:2|3:2,3:0:0:0:
377,35,337100,6,0,B|475:56|475:56|494:117,1,150.000005722046,2|0,3:2|3:0,0:0:0:0:
368,234,337286,1,0,3:0:0:0:
340,207,337348,2,0,B|242:228|242:228|223:289,1,150.000005722046,0|8,3:0|3:2,0:0:0:0:
160,337,337533,1,0,3:0:0:0:
132,364,337595,2,0,B|34:343|34:343|15:282,1,150.000005722046,0|2,3:0|3:2,0:0:0:0:
68,190,337843,1,0,3:2:0:0:
41,162,337905,1,0,3:0:0:0:
16,134,337967,2,0,L|25:81,6,37.5000014305115,8|0|0|0|0|0|0,3:2|3:0|3:0|3:0|3:0|3:0|3:0,3:0:0:0:
26,332,338215,5,6,3:2:0:0:
26,332,338277,1,0,3:0:0:0:
26,332,338339,2,0,P|64:337|95:321,1,75.0000028610231,0|0,3:0|3:0,3:0:0:0:
192,361,338463,2,0,B|134:322|134:322|169:225,1,150.000005722046,10|0,3:2|3:0,0:0:0:0:
324,277,338649,1,0,3:0:0:0:
345,310,338711,2,0,B|403:271|403:271|368:174,1,150.000005722046,2|0,3:2|3:0,0:0:0:0:
288,98,338897,2,0,L|271:174,1,75.0000028610231,0|8,3:2|3:2,3:0:0:0:
275,172,339083,6,0,B|202:185|202:185|181:108,1,150.000005722046,2|0,3:2|3:0,3:0:0:0:
440,28,339331,6,0,B|509:53|509:53|489:130,1,150.000005722046,2|8,3:2|3:2,3:0:0:0:
392,136,339517,2,0,B|379:62|379:62|456:42,1,150.000005722046,10|8,3:2|3:2,3:0:0:0:
483,247,339703,6,0,P|434:182|362:211,1,150.000005722046,8|0,3:2|3:0,0:0:0:0:
275,172,339951,2,0,P|226:237|154:208,1,150.000005722046,8|0,3:2|3:0,0:0:0:0:
0,116,340199,5,4,0:0:0:0:
145,357,340323,1,0,1:0:0:0:
177,53,340447,6,0,B|122:14|122:14|145:150,1,187.5,10|0,0:0|2:0,0:0:0:0:
3,279,340695,6,0,B|58:276|86:230|86:230|142:208|194:238,1,209.999993591309,0|8,0:0|0:0,0:0:0:0:
313,336,341067,2,0,P|365:344|413:310,1,104.999996795654,2|0,0:0|0:0,0:0:0:0:
511,121,341314,2,0,P|459:113|411:147,1,104.999996795654,0|8,0:0|0:0,0:0:0:0:
283,236,341562,6,0,B|228:275|228:275|253:132,1,209.999993591309,0|2,0:0|1:0,0:0:0:0:
65,36,341934,1,8,0:0:0:0:
99,298,342058,1,0,0:0:0:0:
226,123,342182,5,0,0:0:0:0:
0,255,342306,1,0,0:0:0:0:
65,36,342430,6,0,B|10:-3|10:-3|35:140,1,187.5,8|0,0:0|2:0,0:0:0:0:
84,213,342678,6,2,B|205:191|187:317|319:290,1,250,2|8,0:0|0:0,0:1:0:0:
229,378,343050,1,4,0:0:0:0:
285,118,343298,1,8,0:0:0:0:
396,147,343422,1,8,0:0:0:0:
504,178,343546,1,8,0:0:0:0:
454,269,343670,6,2,L|468:322,8,31.25,2|2|2|2|2|2|2|2|2,2:1|2:0|2:0|2:0|2:0|2:0|2:0|2:0|2:0,2:0:0:0:
31,259,344166,5,6,3:2:0:0:
31,259,344228,1,0,3:0:0:0:
31,259,344290,2,0,P|69:264|100:248,1,75.0000028610231,0|0,3:0|3:0,3:0:0:0:
81,41,344414,2,0,B|23:80|23:80|58:177,1,150.000005722046,10|0,3:2|3:0,0:0:0:0:
179,126,344600,1,0,3:0:0:0:
149,151,344662,2,0,B|135:219|135:219|228:263,1,150.000005722046,2|0,3:2|3:0,0:0:0:0:
183,348,344848,2,0,L|267:332,1,75.0000028610231,0|8,3:2|3:2,3:0:0:0:
429,167,345034,6,0,B|487:206|487:206|452:303,1,150.000005722046,2|0,3:2|3:0,0:0:0:0:
346,228,345281,2,0,L|339:177,1,37.5000014305115,0|0,3:0|3:0,3:0:0:0:
323,240,345343,2,0,L|316:189,1,37.5000014305115,0|0,3:0|3:0,3:0:0:0:
302,251,345405,1,8,3:2:0:0:
364,0,345529,2,0,B|377:68|377:68|284:112,1,150.000005722046,2|0,3:2|3:0,0:0:0:0:
149,151,345777,1,0,3:2:0:0:
112,133,345839,1,0,3:0:0:0:
76,113,345901,2,0,L|85:60,6,37.5000014305115,8|0|0|0|0|0|0,3:2|3:0|3:0|3:0|3:0|3:0|3:0,3:0:0:0:
109,293,346149,5,6,3:2:0:0:
109,293,346211,1,0,3:0:0:0:
109,293,346273,2,0,P|147:298|178:282,1,75.0000028610231,0|0,3:0|3:0,3:0:0:0:
275,322,346397,2,0,B|217:283|217:283|252:186,1,150.000005722046,10|0,3:2|3:0,0:0:0:0:
45,206,346583,1,0,3:0:0:0:
16,234,346645,2,0,B|74:273|74:273|39:370,1,150.000005722046,2|0,3:2|3:0,0:0:0:0:
234,113,346893,1,8,3:2:0:0:
371,366,347017,6,0,L|385:211,1,150.000005722046,0|0,3:0|3:0,3:0:0:0:
339,200,347203,2,0,L|345:253,1,37.5000014305115,2|0,3:2|3:0,3:0:0:0:
351,196,347265,2,0,L|357:249,1,37.5000014305115,2|0,3:2|3:0,3:0:0:0:
364,192,347327,2,0,L|370:245,1,37.5000014305115,2|0,3:2|3:0,3:0:0:0:
401,171,347389,6,0,L|407:118,1,37.5000014305115,8|0,3:2|3:0,3:0:0:0:
414,175,347451,2,0,L|420:122,1,37.5000014305115,2|0,3:2|3:0,3:0:0:0:
426,179,347513,2,0,L|432:126,1,37.5000014305115,2|0,3:2|3:0,3:0:0:0:
439,183,347575,2,0,L|445:130,1,37.5000014305115,2|0,3:2|3:0,3:0:0:0:
479,201,347637,6,0,P|486:98|240:111,1,419.999987182618,4|0,3:2|2:0,0:0:0:0:
69,121,348133,6,0,P|32:140|-1:138,3,75.0000028610231,4|0|0|0,3:1|3:0|3:0|3:0,3:0:0:0:
72,236,348381,2,0,P|91:273|89:306,3,75.0000028610231,8|0|0|0,3:1|3:0|3:0|3:0,3:0:0:0:
190,207,348629,2,0,P|227:188|260:190,3,75.0000028610231,0|0|0|0,3:1|3:0|3:0|3:0,3:0:0:0:
187,92,348876,1,8,3:2:0:0:
187,92,348938,1,0,3:0:0:0:
187,92,349000,2,0,P|168:55|170:22,1,75.0000028610231,0|0,3:1|3:0,3:0:0:0:
405,186,349124,6,0,P|442:205|475:203,3,75.0000028610231,4|0|0|0,3:2|3:0|3:0|3:0,3:0:0:0:
402,301,349372,2,0,P|383:338|385:371,3,75.0000028610231,8|0|0|0,3:1|3:0|3:0|3:0,3:0:0:0:
284,272,349620,2,0,P|247:253|214:255,3,75.0000028610231,0|0|0|0,3:1|3:0|3:0|3:0,3:0:0:0:
287,157,349867,1,8,3:2:0:0:
287,157,349929,1,0,3:0:0:0:
287,157,349992,2,0,P|306:120|304:87,1,75.0000028610231,0|0,3:1|3:0,3:0:0:0:
237,351,350116,6,2,L|195:361,6,37.5000014305115,6|2|2|2|2|2|2,3:2|3:2|3:2|3:2|3:2|3:2|3:2,3:2:0:0:
215,255,350364,6,2,L|183:284,6,37.5000014305115,6|2|2|2|2|2|2,3:2|3:2|3:2|3:2|3:2|3:2|3:2,3:2:0:0:
125,210,350612,6,2,L|112:251,6,37.5000014305115,6|2|2|2|2|2|2,3:2|3:2|3:2|3:2|3:2|3:2|3:2,3:2:0:0:
25,215,350860,6,2,L|35:257,6,37.5000014305115,6|2|2|2|2|2|2,3:2|3:2|3:2|3:2|3:2|3:2|3:2,3:2:0:0:
168,102,351108,6,0,P|266:113|305:29,1,197.999999395752,0|2,3:0|2:0,3:0:0:0:
66,140,351604,2,0,P|41:97|40:43,1,100,2|0,2:1|3:0,2:0:0:0:
107,271,351852,2,0,P|58:258|20:220,1,100,2|0,2:1|3:0,2:0:0:0:
254,118,352099,5,4,0:0:0:0:
282,372,352223,1,0,0:0:0:0:
507,254,352348,6,0,P|454:335|359:303,1,187.5,8|0,0:0|2:0,0:0:0:0:
295,232,352595,5,2,0:0:0:0:
368,107,352719,2,0,L|376:41,2,62.5,0|0|8,1:0|1:0|1:0,1:0:0:0:
86,160,352967,2,0,P|62:102|80:33,1,125,2|0,0:0|0:0,0:0:0:0:
286,14,353215,2,0,L|272:146,1,125,0|8,0:0|0:0,0:0:0:0:
19,280,353463,6,2,B|76:273|76:273|113:256|113:256|165:269|165:269|199:254|199:254|269:248,1,250,0|0,0:0|0:0,0:0:0:0:
509,300,353835,2,0,B|437:278|437:278|418:220,1,125,8|0,0:0|0:0,0:0:0:0:
325,370,354083,5,0,0:0:0:0:
188,157,354207,1,0,0:0:0:0:
469,118,354331,2,0,P|440:238|333:205,1,250,8|0,0:0|0:0,0:0:0:0:
279,77,354703,2,0,B|288:46|285:13|285:13|301:43|335:64,1,125,2|8,0:0|0:0,0:0:0:0:
259,248,354951,6,0,P|176:196|66:205,1,187.5,2|0,0:0|2:0,0:0:0:0:
4,324,355199,2,0,P|69:324|107:277,1,125,2|8,0:0|0:0,0:0:0:0:
20,19,355447,2,0,P|-12:75|9:131,1,125,2|0,0:0|0:0,0:0:0:0:
105,281,355694,5,0,0:0:0:0:
105,281,355818,2,0,P|40:281|2:328,1,125,8|8,0:0|0:0,0:0:0:0:
244,248,356066,5,12,0:2:0:0:
244,248,356128,1,0,0:0:0:0:
244,248,356190,2,0,B|236:281|236:281|250:273|272:269,1,62.5
297,362,356314,2,0,L|321:167,1,187.5,8|0,0:0|2:0,0:0:0:0:
297,156,356562,6,0,P|329:148|370:148,1,62.5,8|0,0:0|0:0,0:0:0:0:
323,76,356686,2,0,P|353:93|380:121,1,62.5,8|0,0:0|0:0,0:0:0:0:
395,40,356810,2,0,P|403:71|403:113,1,62.5,8|0,0:0|0:0,0:0:0:0:
475,66,356934,2,0,P|459:100|429:123,1,62.5,8|0,0:0|0:0,0:0:0:0:
182,295,357182,6,0,B|101:275|101:275|76:217|76:217|-3:201,1,225.000008583069,8|0,0:0|2:0,0:0:0:0:
196,110,357430,1,8,0:0:0:0:
133,17,357554,1,8,0:0:0:0:
24,35,357678,1,0,0:0:0:0:
24,35,357740,1,0,0:0:0:0:
24,35,357802,2,0,L|31:108,3,62.5,8|0|0|0,0:0|0:0|0:0|0:0,0:0:0:0:
0,201,358050,5,4,0:0:0:0:
297,155,358298,1,2,2:1:0:0:
262,237,358422,6,0,L|253:304,2,62.5,0|0|8,3:0|3:0|1:0,3:0:0:0:
437,78,358670,1,8,0:0:0:0:
260,65,358794,1,0,0:0:0:0:
426,260,358918,6,0,P|420:337|419:414,1,125,10|0,0:0|2:0,0:0:0:0:
156,314,359166,2,0,P|154:252|149:190,1,125,10|0,0:0|2:0,0:0:0:0:
6,147,359413,6,0,P|150:139|156:48,1,250,8|2,1:0|0:0,0:0:0:0:
354,176,359785,1,8,0:0:0:0:
281,230,359909,6,2,B|329:225|329:225|366:208|366:208|418:221|418:221|452:206|452:206|522:200,1,239.999992675781,4|0,0:0|2:0,0:0:0:0:
