osu file format v14

[General]
AudioFilename: Undertale OST - Last Goodbye.mp3
AudioLeadIn: 0
PreviewTime: 68368
Countdown: 0
SampleSet: Soft
StackLeniency: 0.6
Mode: 0
LetterboxInBreaks: 1
WidescreenStoryboard: 1

[Editor]
Bookmarks: 104367
DistanceSpacing: 1.2
BeatDivisor: 2
GridSize: 8
TimelineZoom: 1

[Metadata]
Title:Last Goodbye
TitleUnicode:Last Goodbye
Artist:toby fox
ArtistUnicode:toby fox
Creator:Maemi no Yume
Version:Normal
Source:Undertale
Tags:
BeatmapID:918948
BeatmapSetID:416764

[Difficulty]
HPDrainRate:4
CircleSize:4
OverallDifficulty:4
ApproachRate:4
SliderMultiplier:0.8
SliderTickRate:1

[Events]
//Background and Video events
0,0,"_undertale__outertale_by_xxendlessabyssxx-d9h6xvz.jpg",0,0
//Break Periods
//Storyboard Layer 0 (Background)
//Storyboard Layer 1 (Fail)
//Storyboard Layer 2 (Pass)
//Storyboard Layer 3 (Foreground)
//Storyboard Sound Samples

[TimingPoints]
33,333.333333333333,4,2,0,16,1,0
1366,-100,4,2,0,25,0,0
2699,-100,4,2,0,50,0,0
2700,333.333333333333,4,2,0,50,1,0
30614,-100,4,2,0,5,0,0
30697,-100,4,2,0,50,0,0
37614,-100,4,2,0,5,0,0
37697,-100,4,2,0,50,0,0
40947,-100,4,2,0,5,0,0
41031,-100,4,2,0,50,0,0
44031,-133.333333333333,4,2,0,50,0,0
44531,-133.333333333333,4,2,0,5,0,0
44697,-133.333333333333,4,2,0,50,0,0
45366,722.02166064982,4,2,0,50,1,0
46086,-100,4,2,0,20,0,0
68368,333.333333333333,4,2,0,50,1,0
72951,-100,4,2,0,5,0,0
73034,-100,4,2,0,50,0,0
77784,-100,4,2,0,5,0,0
77867,-100,4,2,0,50,0,0
88451,-100,4,2,0,5,0,0
88534,-100,4,2,0,50,0,0
100367,-200,4,2,0,30,0,0
105701,324.324324324324,4,2,0,50,1,0
108619,-100,4,2,0,5,0,0
108782,-100,4,2,0,50,0,0
109106,-100,4,2,0,5,0,0
109268,-100,4,2,0,50,0,0
109592,-100,4,2,0,5,0,0
109755,-100,4,2,0,50,0,0
110079,-100,4,2,0,5,0,0
110241,-100,4,2,0,50,0,0
110403,-100,4,2,0,5,0,0
110565,-100,4,2,0,50,0,0
110971,-100,4,2,0,5,0,0

[Colours]
Combo1 : 255,40,46
Combo2 : 187,250,253
Combo3 : 205,179,255
Combo4 : 255,36,135

[HitObjects]
128,272,2700,6,0,P|177:289|216:280,1,80
286,237,3366,2,0,P|303:204|301:146,1,80
244,87,4033,6,0,P|298:66|340:69,1,80
404,110,4699,2,0,L|450:106,1,40
409,196,5199,6,0,P|450:223|442:298,1,120
355,308,6033,2,0,L|237:254,1,120
200,243,6699,6,0,P|121:237|109:242,1,80
49,299,7366,2,0,L|63:354,2,40
28,205,8033,6,0,L|78:139,1,80
131,62,8699,2,0,P|186:73|215:65,1,80
294,24,9366,6,0,P|302:71|290:117,1,80
235,177,10033,2,0,L|244:227,1,40
282,303,10533,6,0,P|220:309|146:233,1,160
129,204,11366,2,0,P|155:160|125:93,1,120
97,65,12033,6,0,L|187:66,1,80
255,73,12699,2,0,P|268:105|263:160,1,80
214,231,13366,6,0,L|124:237,1,80
189,315,14033,2,0,L|268:309,1,80
364,298,14699,2,0,P|391:262|396:218,1,80
300,220,15366,2,0,L|258:243,1,40
177,278,15866,6,0,P|115:248|90:205,1,120
100,109,16699,2,0,P|179:146|246:113,1,160
173,49,17699,5,0,0:0:0:0:
78,30,18033,1,0,0:0:0:0:
78,30,18199,1,0,0:0:0:0:
78,30,18366,2,0,L|36:62,1,40
43,102,18699,6,0,L|35:189,1,80
44,277,19366,2,0,P|86:298|125:291,1,80
183,224,20033,2,0,L|255:275,1,80
327,324,20699,2,0,L|375:312,1,40
319,229,21199,6,0,L|382:126,1,120
437,48,22033,2,0,P|403:49|380:44,1,40
301,59,22533,6,0,P|210:64|179:91,1,120
185,175,23366,2,0,L|169:132,2,40
192,270,24033,6,0,L|100:278,1,80
28,230,24699,1,0,0:0:0:0:
114,188,25033,1,0,0:0:0:0:
34,133,25366,6,0,P|70:100|109:90,1,80
189,124,26033,1,0,0:0:0:0:
277,86,26366,1,0,0:0:0:0:
362,43,26699,6,0,L|374:128,1,80
349,215,27366,1,0,0:0:0:0:
406,291,27699,2,0,L|366:315,1,40
279,338,28199,6,0,L|190:321,1,80
57,344,29033,1,0,0:0:0:0:
121,272,29366,5,0,0:0:0:0:
151,181,29699,2,0,L|165:132,1,40
176,96,30033,1,0,0:0:0:0:
271,97,30366,1,0,0:0:0:0:
366,98,30699,5,0,0:0:0:0:
388,191,31033,2,0,L|401:234,1,40
415,274,31366,2,0,P|370:300|332:303,1,80
246,296,32033,6,0,P|268:249|263:200,1,80
186,238,32699,1,0,0:0:0:0:
222,148,33033,1,0,0:0:0:0:
136,103,33366,6,0,P|181:57|275:66,1,160
118,249,34866,6,0,L|139:208,2,40
211,269,35533,2,0,L|232:228,2,40
306,265,36199,6,0,L|285:306,2,40
402,263,36866,2,0,L|381:304,2,40
423,219,37366,6,0,P|447:146|447:128,1,80
381,73,38033,2,0,L|359:120,1,40
297,178,38533,6,0,P|240:173|190:126,1,120
175,38,39366,2,0,P|128:62|105:96,1,80
45,155,40033,5,0,0:0:0:0:
46,250,40366,2,0,P|73:251|94:245,1,40
122,216,40699,2,0,P|155:201|208:202,1,80
288,233,41366,5,0,0:0:0:0:
292,137,41699,2,0,P|319:136|340:142,1,40
367,170,42032,2,0,P|400:185|453:184,1,80
414,94,42699,6,0,L|340:44,1,80
260,8,43366,2,0,P|212:11|179:41,1,80
241,77,44033,6,0,P|269:128|253:197,1,120.000004577637
184,142,45366,5,0,0:0:0:0:
103,280,46088,2,0,L|148:286,1,40
200,229,46810,2,0,L|248:244,1,40
286,304,47532,2,0,L|345:298,1,40
398,267,48254,6,0,L|416:169,1,80
410,108,49337,1,0,0:0:0:0:
335,136,49698,2,0,P|289:121|282:117,1,40
281,46,50420,2,0,P|250:43|227:50,1,40
188,104,51142,6,0,L|195:152,3,40
156,214,52586,2,0,L|175:269,3,40
212,318,54030,22,0,P|269:316|301:302,2,80
244,161,56196,2,0,L|291:174,1,40
359,192,56918,5,0,0:0:0:0:
316,346,57640,2,0,L|270:326,1,40
201,348,58362,2,0,P|168:339|151:335,1,40
129,264,59084,2,0,L|90:247,1,40
38,188,59806,6,0,P|29:119|33:98,1,80
182,59,61250,1,0,0:0:0:0:
338,91,61972,2,0,L|376:103,1,40
395,180,62694,22,0,L|349:200,1,40
281,218,63416,2,0,P|258:209|240:191,1,40
211,127,64138,2,0,L|244:92,1,40
180,42,64860,2,0,L|125:85,1,40
111,137,65582,6,0,L|78:221,2,80
145,302,68368,6,0,L|181:220,1,80
222,144,69034,2,0,P|269:139|317:168,1,80
310,246,69701,6,0,L|359:226,1,40
351,326,70201,2,0,P|287:331|227:280,1,120
219,209,71034,6,0,P|243:173|281:148,1,80
189,111,71701,2,0,L|146:153,1,40
82,195,72201,6,0,P|77:258|119:318,1,120
198,325,73034,2,0,L|284:323,1,80
370,298,73701,6,0,P|405:246|404:204,1,80
314,221,74368,2,0,L|240:174,1,80
190,100,75034,6,0,P|216:108|245:107,1,40
188,21,75534,2,0,P|129:49|110:111,1,120
113,192,76367,6,0,L|155:269,1,80
223,325,77034,2,0,P|201:335|171:338,1,40
223,246,77534,6,0,L|313:258,1,80
349,264,78034,2,0,L|399:271,1,40
376,174,78534,2,0,L|332:178,2,40
406,137,79034,6,0,P|412:93|397:47,1,80
307,54,79701,2,0,L|207:71,1,80
146,118,80367,6,0,L|186:135,1,40
157,40,80867,2,0,P|108:48|67:116,1,120
68,198,81701,6,0,L|126:286,1,80
188,322,82367,2,0,P|168:341|151:349,1,40
252,360,82867,2,0,P|329:333|352:294,1,120
333,206,83701,1,0,0:0:0:0:
292,118,84034,1,0,0:0:0:0:
208,70,84367,6,0,L|119:105,1,80
156,192,85034,2,0,P|212:179|259:193,1,80
201,273,85701,2,0,L|159:280,1,40
219,356,86201,6,0,P|326:341|352:309,1,120
379,253,87034,6,0,L|390:157,1,80
370,79,87701,2,0,P|343:87|323:102,1,40
242,128,88201,6,0,L|160:111,1,80
118,96,88701,2,0,P|95:117|82:137,1,40
89,220,89201,2,0,L|137:228,1,40
222,248,89701,6,0,L|225:289,3,40
247,330,90367,2,0,P|275:338|295:333,3,40
328,315,91034,6,0,L|373:309,3,40
399,272,91701,2,0,L|443:263,3,40
457,211,92367,6,0,P|440:185|436:163,3,40
385,154,93034,2,0,P|366:135|342:119,3,40
302,144,93701,6,0,L|258:141,3,40
206,141,94367,2,0,L|101:142,1,80
76,242,95034,6,0,L|131:239,1,40
154,281,95367,2,0,L|210:283,1,40
233,242,95701,2,0,L|285:246,1,40
306,289,96034,1,0,0:0:0:0:
414,314,96367,6,0,L|406:268,1,40
449,236,96701,2,0,L|444:195,1,40
395,168,97034,2,0,L|387:118,1,40
428,88,97367,1,0,0:0:0:0:
304,52,97701,6,0,L|255:65,1,40
232,126,98034,2,0,L|171:145,1,40
127,109,98367,2,0,L|61:137,1,40
64,192,98701,1,0,0:0:0:0:
105,329,99034,6,0,L|160:317,1,40
213,302,99367,2,0,L|267:283,1,40
312,250,99701,2,0,L|346:225,1,40
391,171,100034,2,0,L|414:133,1,40
423,64,100367,6,0,P|343:46|262:64,1,160
270,268,103034,6,0,P|347:283|425:265,1,160
363,143,105701,6,0,L|312:152,1,40
198,178,106187,2,0,L|148:188,1,40
138,312,106673,2,0,L|187:319,1,40
304,334,107160,2,0,L|353:341,1,40
357,212,107646,1,0,0:0:0:0:
229,224,107971,1,0,0:0:0:0:
104,240,108295,6,0,B|99:173|99:173|119:115,3,120
269,238,110241,2,0,L|245:324,1,80
256,192,110890,12,0,114133,0:0:0:0:
