osu file format v14

[General]
AudioFilename: Undertale OST - Last Goodbye.mp3
AudioLeadIn: 0
PreviewTime: 68368
Countdown: 0
SampleSet: Soft
StackLeniency: 0.6
Mode: 0
LetterboxInBreaks: 1
WidescreenStoryboard: 1

[Editor]
Bookmarks: 104367
DistanceSpacing: 1.6
BeatDivisor: 4
GridSize: 8
TimelineZoom: 1

[Metadata]
Title:Last Goodbye
TitleUnicode:Last Goodbye
Artist:toby fox
ArtistUnicode:toby fox
Creator:Maemi no Yume
Version:Hard
Source:Undertale
Tags:
BeatmapID:907219
BeatmapSetID:416764

[Difficulty]
HPDrainRate:5
CircleSize:4
OverallDifficulty:6
ApproachRate:8
SliderMultiplier:1.2
SliderTickRate:1

[Events]
//Background and Video events
0,0,"_undertale__outertale_by_xxendlessabyssxx-d9h6xvz.jpg",0,0
//Break Periods
//Storyboard Layer 0 (Background)
//Storyboard Layer 1 (Fail)
//Storyboard Layer 2 (Pass)
//Storyboard Layer 3 (Foreground)
//Storyboard Sound Samples

[TimingPoints]
33,333.333333333333,4,2,0,16,1,0
1366,-100,4,2,0,25,0,0
2699,-100,4,2,0,50,0,0
2700,333.333333333333,4,2,0,50,1,0
30614,-100,4,2,0,5,0,0
30697,-100,4,2,0,50,0,0
37614,-100,4,2,0,5,0,0
37697,-100,4,2,0,50,0,0
40947,-100,4,2,0,5,0,0
41031,-100,4,2,0,50,0,0
44031,-133.333333333333,4,2,0,50,0,0
44531,-133.333333333333,4,2,0,5,0,0
44697,-133.333333333333,4,2,0,50,0,0
45366,722.02166064982,4,2,0,50,1,0
46086,-100,4,2,0,20,0,0
68368,333.333333333333,4,2,0,50,1,0
72951,-100,4,2,0,5,0,0
73034,-100,4,2,0,50,0,0
77784,-100,4,2,0,5,0,0
77867,-100,4,2,0,50,0,0
88451,-100,4,2,0,5,0,0
88534,-100,4,2,0,50,0,0
100367,-200,4,2,0,30,0,0
105701,324.324324324324,4,2,0,50,1,0
108619,-100,4,2,0,5,0,0
108782,-100,4,2,0,50,0,0
109106,-100,4,2,0,5,0,0
109268,-100,4,2,0,50,0,0
109592,-100,4,2,0,5,0,0
109755,-100,4,2,0,50,0,0
110079,-100,4,2,0,5,0,0
110241,-100,4,2,0,50,0,0
110403,-100,4,2,0,5,0,0
110565,-100,4,2,0,50,0,0
110971,-100,4,2,0,5,0,0

[Colours]
Combo1 : 255,40,46
Combo2 : 187,250,253
Combo3 : 205,179,255
Combo4 : 255,36,135

[HitObjects]
245,291,2699,6,0,P|326:298|362:271,1,120
290,207,3199,1,0,0:0:0:0:
194,199,3366,2,0,L|124:175,1,60
204,111,3699,2,0,L|283:138,1,60
237,37,4032,6,0,P|166:39|128:81,1,120
107,163,4532,1,0,0:0:0:0:
150,249,4699,1,0,0:0:0:0:
116,339,4866,1,0,0:0:0:0:
116,339,5199,6,0,P|168:351|242:333,1,120
279,253,5699,2,0,L|343:288,1,60
422,312,6032,2,0,P|404:237|432:174,1,120
487,133,6532,1,0,0:0:0:0:
487,133,6616,1,0,0:0:0:0:
487,133,6699,6,0,P|432:109|414:97,1,60
384,25,7032,1,0,0:0:0:0:
384,25,7199,1,0,0:0:0:0:
384,25,7366,2,0,L|334:78,1,60
273,135,7699,1,0,0:0:0:0:
177,126,7866,1,0,0:0:0:0:
103,64,8032,6,0,P|181:29|231:48,1,120
177,126,8532,1,0,0:0:0:0:
101,185,8699,2,0,P|55:196|29:217,1,60
104,277,9032,2,0,P|147:266|168:256,1,60
248,224,9366,6,0,P|304:208|368:240,1,120
400,320,9866,1,0,0:0:0:0:
448,240,10032,1,0,0:0:0:0:
424,144,10199,1,0,0:0:0:0:
424,144,10532,6,0,P|368:104|360:48,1,120
264,37,11032,2,0,P|239:66|212:85,1,60
126,63,11366,2,0,P|135:119|185:174,1,120
269,179,11866,1,0,0:0:0:0:
269,179,12032,6,0,L|235:236,1,60
330,259,12366,1,0,0:0:0:0:
330,259,12532,1,0,0:0:0:0:
330,259,12699,2,0,L|296:316,1,60
205,334,13032,1,0,0:0:0:0:
129,291,13199,1,0,0:0:0:0:
39,325,13366,6,0,P|43:255|82:207,1,120
155,170,13866,1,0,0:0:0:0:
169,75,14032,2,0,P|209:65|245:72,1,60
271,152,14366,2,0,P|306:144|339:130,1,60
385,58,14699,6,0,P|417:99|418:179,1,120
383,252,15199,1,0,0:0:0:0:
293,287,15366,1,0,0:0:0:0:
210,250,15532,1,0,0:0:0:0:
210,250,15866,6,0,P|135:232|85:261,1,120
157,324,16366,2,0,L|215:357,1,60
284,293,16699,2,0,P|293:234|251:178,1,120
170,156,17199,1,0,0:0:0:0:
170,156,17282,1,0,0:0:0:0:
170,156,17366,6,0,L|166:84,1,60
260,119,17699,1,0,0:0:0:0:
260,119,17866,1,0,0:0:0:0:
260,119,18032,2,0,L|283:52,1,60
362,118,18366,1,0,0:0:0:0:
362,118,18532,1,0,0:0:0:0:
362,118,18699,6,0,L|326:242,1,120
298,337,19199,1,0,0:0:0:0:
191,316,19366,2,0,L|115:338,1,60
137,224,19699,2,0,P|107:216|82:195,1,60
183,154,20032,6,0,L|264:151,1,60
216,46,20366,1,0,0:0:0:0:
108,38,20532,1,0,0:0:0:0:
108,38,20616,1,0,0:0:0:0:
108,38,20699,1,0,0:0:0:0:
45,126,20866,1,0,0:0:0:0:
205,127,21199,6,0,P|238:74|299:31,1,120
335,122,21699,2,0,P|299:162|292:188,1,60
387,200,22033,1,0,0:0:0:0:
304,266,22199,1,0,0:0:0:0:
304,266,22532,6,0,P|219:302|187:295,1,120
122,234,23032,2,0,L|117:164,1,60
30,215,23366,2,0,L|34:297,1,60
108,334,23699,1,0,0:0:0:0:
195,297,23866,1,0,0:0:0:0:
228,206,24033,6,0,L|168:93,1,120
121,17,24533,1,0,0:0:0:0:
121,17,24699,2,0,P|198:54|249:46,1,120
420,23,25366,6,0,P|404:60|413:153,1,120
480,200,25866,1,0,0:0:0:0:
413,269,26033,2,0,L|351:243,1,60
258,290,26366,2,0,L|313:313,1,60
217,363,26699,6,0,L|90:308,1,120
46,253,27199,1,0,0:0:0:0:
46,253,27366,2,0,P|72:217|80:184,1,60
84,106,27699,1,0,0:0:0:0:
49,16,27866,5,0,0:0:0:0:
210,120,28199,1,0,0:0:0:0:
378,27,28533,1,0,0:0:0:0:
271,51,28866,1,0,0:0:0:0:
271,51,28949,1,0,0:0:0:0:
271,51,29033,2,0,L|326:95,1,60
393,147,29366,6,0,L|319:169,1,60
244,194,29699,1,0,0:0:0:0:
151,166,29866,1,0,0:0:0:0:
59,196,30033,1,0,0:0:0:0:
244,194,30366,2,0,P|265:140|257:92,1,90
270,77,30699,6,0,L|210:66,1,60
114,67,31033,1,0,0:0:0:0:
36,123,31199,1,0,0:0:0:0:
47,218,31366,1,0,0:0:0:0:
118,282,31533,1,0,0:0:0:0:
118,282,31616,1,0,0:0:0:0:
118,282,31699,2,0,L|186:286,1,60
274,290,32033,6,0,P|324:281|347:264,1,60
378,193,32366,2,0,P|386:151|381:116,1,60
317,65,32699,2,0,L|276:130,1,60
188,109,33033,2,0,L|228:51,1,60
126,49,33366,6,0,P|104:109|128:172,1,120
192,223,33866,1,0,0:0:0:0:
269,165,34033,2,0,P|290:220|268:284,1,120
82,288,34699,6,0,P|65:246|59:215,1,60
72,135,35033,1,0,0:0:0:0:
137,204,35199,1,0,0:0:0:0:
149,108,35366,2,0,P|176:73|191:62,1,60
284,57,35699,1,0,0:0:0:0:
234,139,35866,1,0,0:0:0:0:
330,142,36033,6,0,L|323:211,1,60
316,297,36366,1,0,0:0:0:0:
316,297,36533,1,0,0:0:0:0:
406,267,36699,2,0,L|413:195,1,60
419,110,37033,1,0,0:0:0:0:
359,35,37199,1,0,0:0:0:0:
263,24,37366,6,0,P|210:44|172:74,1,90
157,104,37699,2,0,L|94:121,1,60
7,150,38033,1,0,0:0:0:0:
7,150,38199,1,0,0:0:0:0:
85,217,38533,6,0,P|134:215|209:188,1,120
200,192,38949,1,0,0:0:0:0:
200,192,39033,1,0,0:0:0:0:
309,80,39366,1,0,0:0:0:0:
312,235,39699,1,0,0:0:0:0:
309,80,40033,5,0,0:0:0:0:
312,235,40366,2,0,L|355:294,1,60
434,295,40699,2,0,P|401:353|338:371,1,120
199,309,41366,5,0,0:0:0:0:
53,184,41699,2,0,L|134:183,1,60
152,94,42033,2,0,L|212:128,1,60
204,123,42283,1,0,0:0:0:0:
204,123,42366,1,0,0:0:0:0:
359,236,42699,6,0,P|344:200|345:162,1,60
449,159,43033,2,0,P|464:196|462:238,1,60
433,337,43366,2,0,L|359:316,1,60
272,353,43699,2,0,L|198:332,1,60
215,229,44033,2,0,P|261:233|316:118,1,180.000006866455
247,153,45366,21,0,0:0:0:0:
145,141,46088,2,0,L|134:220,1,60
50,157,46810,2,0,L|58:97,1,60
122,26,47532,2,0,P|175:24|201:38,1,60
222,112,48254,5,0,0:0:0:0:
129,280,48976,2,0,P|177:260|199:265,1,60
215,351,49698,2,0,P|171:369|137:359,2,60
263,267,50781,1,0,0:0:0:0:
270,171,51142,6,0,L|219:113,1,60
317,86,51864,2,0,L|368:140,1,60
427,196,52586,2,0,P|387:205|356:225,1,60
309,287,53308,2,0,P|263:301|230:299,1,60
165,259,54030,22,0,P|119:168|130:134,1,120
197,182,55474,1,0,0:0:0:0:
64,320,56196,2,0,L|54:246,1,60
55,164,56918,5,0,0:0:0:0:
49,169,57640,6,0,L|112:171,1,60
204,168,58362,2,0,P|241:157|266:122,1,60
175,90,59084,2,0,L|101:102,1,60
64,18,59806,21,0,0:0:0:0:
254,40,60528,2,0,P|274:97|257:177,1,120
124,284,61972,1,0,0:0:0:0:
218,298,62333,1,0,0:0:0:0:
313,292,62694,6,0,L|387:269,1,60
442,211,63416,2,0,P|454:173|449:131,1,60
355,163,64138,2,0,L|285:156,1,60
203,130,64860,2,0,P|187:77|203:29,1,90
261,81,65582,5,0,0:0:0:0:
256,192,65763,12,0,68109,0:0:0:0:
217,285,68368,6,0,L|137:275,1,60
196,184,68701,2,0,L|255:191,1,60
350,205,69034,2,0,P|377:164|374:134,1,60
324,73,69368,1,0,0:0:0:0:
324,73,69534,1,0,0:0:0:0:
233,104,69701,6,0,L|175:69,1,60
11,163,70201,2,0,P|74:156|127:209,1,120
125,223,70618,1,0,0:0:0:0:
128,258,70701,2,0,L|106:329,1,60
221,308,71034,6,0,L|238:250,1,60
285,152,71368,2,0,P|337:134|401:154,1,120
340,225,71868,1,0,0:0:0:0:
190,107,72201,6,0,P|250:70|303:53,1,120
296,54,72618,1,0,0:0:0:0:
296,54,72701,1,0,0:0:0:0:
184,209,73034,2,0,P|143:199|96:127,1,120
277,208,73701,6,0,L|246:281,1,60
361,268,74034,2,0,L|384:212,1,60
435,116,74368,2,0,P|384:98|366:85,1,60
310,11,74701,1,0,0:0:0:0:
310,11,74868,1,0,0:0:0:0:
253,102,75034,6,0,P|194:124|175:125,1,60
354,80,75534,2,0,P|365:144|343:207,1,120
316,210,75951,1,0,0:0:0:0:
280,217,76034,2,0,L|245:284,1,60
184,338,76367,6,0,P|135:345|108:334,1,60
29,334,76701,2,0,L|57:275,1,60
150,276,77034,1,0,0:0:0:0:
96,195,77201,1,0,0:0:0:0:
96,195,77534,6,0,P|148:204|188:178,1,90
208,148,77867,1,0,0:0:0:0:
218,52,78034,1,0,0:0:0:0:
122,41,78201,2,0,L|148:100,1,60
218,52,78534,1,0,0:0:0:0:
290,110,78701,2,0,L|351:83,1,60
445,72,79034,6,0,L|432:144,1,60
397,232,79367,2,0,P|353:251|321:250,1,60
247,207,79701,2,0,L|253:273,1,60
266,361,80034,1,0,0:0:0:0:
266,361,80201,1,0,0:0:0:0:
181,316,80367,6,0,P|138:307|112:315,1,60
39,186,80867,2,0,P|106:214|154:188,1,120
169,168,81284,1,0,0:0:0:0:
184,135,81367,2,0,L|161:70,1,60
260,84,81701,6,0,L|280:140,1,60
305,233,82034,2,0,P|245:283|194:286,1,120
221,192,82534,1,0,0:0:0:0:
398,118,82867,6,0,L|422:237,1,120
421,235,83284,1,0,0:0:0:0:
421,235,83367,1,0,0:0:0:0:
382,323,83701,1,0,0:0:0:0:
288,344,84034,1,0,0:0:0:0:
193,325,84367,6,0,L|167:257,1,60
230,192,84701,2,0,L|251:248,1,60
313,174,85034,2,0,P|314:126|319:106,1,60
407,146,85367,1,0,0:0:0:0:
407,146,85534,1,0,0:0:0:0:
387,240,85701,6,0,L|363:295,1,60
170,303,86201,2,0,P|127:315|59:269,1,120
48,247,86617,1,0,0:0:0:0:
45,210,86701,2,0,P|54:175|82:148,1,60
163,137,87034,6,0,L|225:164,1,60
303,205,87367,2,0,P|359:191|403:126,1,120
308,108,87867,1,0,0:0:0:0:
229,283,88201,6,0,P|280:310|327:306,1,90
358,305,88534,1,0,0:0:0:0:
447,269,88701,1,0,0:0:0:0:
373,207,88867,1,0,0:0:0:0:
173,225,89201,1,0,0:0:0:0:
274,184,89367,2,0,L|308:126,1,60
207,135,89701,6,0,P|165:144|131:131,1,60
131,33,90034,2,0,P|164:20|206:28,1,60
275,84,90367,2,0,L|294:156,1,60
386,91,90701,2,0,L|370:32,1,60
474,61,91034,5,0,0:0:0:0:
457,167,91201,1,0,0:0:0:0:
379,241,91367,1,0,0:0:0:0:
275,273,91534,1,0,0:0:0:0:
171,241,91701,2,0,L|147:169,1,60
54,285,92034,2,0,L|72:341,1,60
191,360,92367,6,0,P|248:351|268:338,1,60
196,248,92701,1,0,0:0:0:0:
196,248,92867,1,0,0:0:0:0:
94,218,93034,2,0,P|67:161|68:140,1,60
183,143,93368,1,0,0:0:0:0:
183,143,93534,1,0,0:0:0:0:
278,91,93701,6,0,P|288:124|290:162,1,60
377,66,94034,2,0,P|374:30|390:-8,1,60
476,79,94367,1,0,0:0:0:0:
387,160,94534,1,0,0:0:0:0:
476,240,94701,1,0,0:0:0:0:
411,340,94867,1,0,0:0:0:0:
290,334,95034,6,0,L|212:358,1,60
243,244,95367,2,0,L|300:226,1,60
219,152,95701,2,0,P|180:158|141:140,1,60
159,44,96034,2,0,P|188:38|217:44,1,60
294,44,96367,6,0,P|323:38|353:44,1,60
351,152,96700,2,0,P|322:158|293:152,1,60
211,226,97034,2,0,L|269:244,1,60
279,351,97367,2,0,L|222:334,1,60
121,293,97701,6,0,L|101:222,1,60
72,132,98034,2,0,P|107:104|137:90,1,60
219,54,98367,1,0,0:0:0:0:
335,89,98534,1,0,0:0:0:0:
243,170,98701,1,0,0:0:0:0:
219,54,98867,1,0,0:0:0:0:
335,89,99034,6,0,L|408:89,1,60
243,170,99367,2,0,L|166:172,1,60
157,291,99701,2,0,L|230:291,1,60
115,205,100034,2,0,P|78:240|66:273,1,60
197,201,100367,6,0,P|260:216|316:206,1,120
321,91,101701,2,0,P|258:76|202:86,1,120
200,235,103034,6,0,P|169:294|109:314,1,120
314,235,104367,2,0,P|345:294|405:314,1,120
164,111,105701,6,0,L|95:103,1,60
344,109,106187,2,0,L|413:101,1,60
189,274,106673,5,0,0:0:0:0:
84,302,106836,1,0,0:0:0:0:
323,274,107160,1,0,0:0:0:0:
428,301,107323,1,0,0:0:0:0:
256,171,107646,5,0,0:0:0:0:
256,62,107971,1,0,0:0:0:0:
233,252,108295,6,0,P|155:268|113:233,1,120
183,172,108782,2,0,L|304:155,1,120
397,149,109268,2,0,P|374:220|392:268,1,120
468,208,109755,2,0,P|489:148|469:82,1,120
388,56,110241,2,0,L|311:72,1,60
234,82,110565,1,0,0:0:0:0:
256,192,110890,12,0,114133,0:0:0:0:
