osu file format v14

[General]
AudioFilename: Undertale OST - Last Goodbye.mp3
AudioLeadIn: 0
PreviewTime: 68368
Countdown: 0
SampleSet: Soft
StackLeniency: 0.6
Mode: 0
LetterboxInBreaks: 1
WidescreenStoryboard: 1

[Editor]
DistanceSpacing: 2.8
BeatDivisor: 4
GridSize: 8
TimelineZoom: 1

[Metadata]
Title:Last Goodbye
TitleUnicode:Last Goodbye
Artist:toby fox
ArtistUnicode:toby fox
Creator:Maemi no Yume
Version:Easy
Source:Undertale
Tags:
BeatmapID:903151
BeatmapSetID:416764

[Difficulty]
HPDrainRate:3
CircleSize:3
OverallDifficulty:3
ApproachRate:3
SliderMultiplier:0.6
SliderTickRate:1

[Events]
//Background and Video events
0,0,"_undertale__outertale_by_xxendlessabyssxx-d9h6xvz.jpg",0,0
//Break Periods
2,65782,66928
//Storyboard Layer 0 (Background)
//Storyboard Layer 1 (Fail)
//Storyboard Layer 2 (Pass)
//Storyboard Layer 3 (Foreground)
//Storyboard Sound Samples

[TimingPoints]
33,333.333333333333,4,2,0,50,1,0
2700,333.333333333333,4,2,0,50,1,0
30614,-100,4,2,0,5,0,0
30697,-100,4,2,0,50,0,0
37614,-100,4,2,0,5,0,0
37697,-100,4,2,0,50,0,0
40947,-100,4,2,0,5,0,0
41031,-100,4,2,0,50,0,0
45366,722.02166064982,4,2,0,50,1,0
46086,-100,4,2,0,20,0,0
68368,333.333333333333,4,2,0,50,1,0
72951,-100,4,2,0,5,0,0
73034,-100,4,2,0,50,0,0
77784,-100,4,2,0,5,0,0
77867,-100,4,2,0,50,0,0
88451,-100,4,2,0,5,0,0
88534,-100,4,2,0,50,0,0
100367,-100,4,2,0,30,0,0
105701,324.324324324324,4,2,0,50,1,0
110971,-100,4,2,0,5,0,0

[Colours]
Combo1 : 255,40,46
Combo2 : 187,250,253
Combo3 : 205,179,255
Combo4 : 255,36,135

[HitObjects]
144,240,2699,6,0,P|216:280|256:272,1,120
305,211,3699,1,0,0:0:0:0:
348,138,4033,2,0,L|353:73,1,60
272,52,4699,2,0,L|212:44,1,60
128,48,5366,6,0,P|106:129|104:172,1,120
110,248,6366,1,0,0:0:0:0:
123,330,6699,2,0,P|203:343|246:332,1,120
317,302,7699,1,0,0:0:0:0:
381,247,8033,6,0,P|418:186|422:139,1,120
370,72,9033,1,0,0:0:0:0:
287,58,9366,2,0,P|238:70|221:79,1,60
176,143,10033,2,0,L|105:146,1,60
32,137,10699,6,0,P|29:220|55:274,1,120
187,338,12033,2,0,L|177:266,1,60
261,266,12699,2,0,L|265:184,1,60
278,123,13366,6,0,P|323:75|399:77,1,120
358,154,14366,1,0,0:0:0:0:
380,234,14699,2,0,P|337:269|324:273,1,60
257,307,15366,2,0,P|208:301|182:311,1,60
118,336,16033,6,0,L|131:208,1,120
117,52,17366,2,0,P|50:42|-1:82,1,120
72,118,18366,1,0,0:0:0:0:
38,194,18699,6,0,L|59:277,1,60
103,318,19366,1,0,0:0:0:0:
179,351,19699,1,0,0:0:0:0:
262,339,20033,2,0,L|322:296,1,60
380,256,20699,2,0,P|446:262|473:283,1,90
458,112,21699,6,0,L|385:100,1,60
318,76,22366,1,0,0:0:0:0:
234,66,22699,2,0,P|128:98|110:109,1,120
95,182,23699,1,0,0:0:0:0:
132,257,24033,6,0,L|266:271,1,120
335,274,25033,1,0,0:0:0:0:
419,279,25366,2,0,P|469:233|480:172,1,120
480,100,26366,1,0,0:0:0:0:
408,56,26699,6,0,L|277:89,1,120
209,103,27699,1,0,0:0:0:0:
129,131,28033,2,0,P|94:209|98:259,1,120
162,291,29033,1,0,0:0:0:0:
240,320,29366,5,0,0:0:0:0:
323,310,29699,2,0,L|316:246,1,60
307,166,30366,1,0,0:0:0:0:
296,82,30699,5,0,0:0:0:0:
215,107,31033,2,0,L|138:105,1,60
78,140,31699,1,0,0:0:0:0:
84,223,32033,6,0,P|135:234|159:246,1,60
167,316,32699,2,0,P|226:329|246:328,1,60
307,313,33366,2,0,P|378:272|440:269,1,120
374,104,34699,6,0,P|341:113|303:117,1,60
233,99,35366,2,0,P|170:102|150:106,1,60
93,127,36033,6,0,P|99:170|112:204,1,60
187,188,36699,2,0,P|196:226|192:260,1,60
143,312,37366,6,0,L|206:335,1,60
278,305,38033,1,0,0:0:0:0:
350,346,38366,1,0,0:0:0:0:
432,331,38699,6,0,P|418:265|434:200,1,120
452,133,39699,1,0,0:0:0:0:
370,155,40033,6,0,P|312:159|303:162,1,60
241,207,40699,2,0,P|209:200|183:180,1,60
183,100,41366,1,0,0:0:0:0:
244,42,41699,2,0,L|319:63,1,60
376,97,42366,1,0,0:0:0:0:
361,179,42699,6,0,P|359:217|368:260,1,60
396,315,43366,2,0,P|349:326|319:347,1,60
264,370,44033,6,0,P|218:376|149:318,1,120
334,164,45366,6,0,L|267:164,1,60
184,164,46449,1,0,0:0:0:0:
179,74,46810,2,0,L|218:70,1,30
298,80,47532,2,0,L|336:80,1,30
408,39,48254,6,0,P|420:79|419:108,1,60
399,184,49337,1,0,0:0:0:0:
345,256,49698,2,0,P|291:264|257:264,1,60
200,294,50781,1,0,0:0:0:0:
118,255,51142,6,0,L|121:215,1,30
201,185,51864,2,0,L|209:146,1,30
290,122,52586,6,0,L|293:162,1,30
381,163,53308,2,0,L|389:202,1,30
341,270,54030,6,0,L|275:288,1,60
105,258,55474,2,0,P|86:224|83:191,1,60
172,194,56557,1,0,0:0:0:0:
136,111,56918,6,0,P|175:103|207:111,1,60
273,149,58001,1,0,0:0:0:0:
347,199,58362,2,0,L|352:254,1,30
439,233,59084,2,0,L|445:280,1,30
393,338,59806,6,0,P|349:351|315:356,1,60
171,278,61250,2,0,L|236:293,1,60
50,312,62694,6,0,L|36:260,1,30
100,214,63416,2,0,L|112:184,1,30
196,158,64138,2,0,L|182:106,1,30
121,68,64860,2,0,P|86:68|51:77,1,60,0|0,1:0|1:0,1:0:0:0:
205,300,68368,6,0,P|276:306|283:304,1,60
347,299,69034,2,0,P|392:286|416:272,1,60
448,208,69701,2,0,L|405:109,2,90
365,220,71034,6,0,L|286:213,1,60
221,211,71701,2,0,P|174:222|152:233,1,60
103,286,72368,2,0,P|72:250|54:224,2,60
181,315,73368,1,0,0:0:0:0:
264,303,73701,6,0,P|298:264|308:242,1,60
297,172,74368,2,0,P|316:130|324:112,1,60
373,51,75034,2,0,P|441:39|468:51,2,90
336,126,76367,6,0,L|275:93,1,60
208,59,77034,2,0,P|162:51|143:57,1,60
80,101,77701,2,0,L|43:47,2,60
117,176,78701,1,0,0:0:0:0:
133,258,79034,6,0,P|173:246|203:253,1,60
254,302,79701,2,0,P|298:299|338:286,1,60
389,261,80367,2,0,P|423:289|445:340,2,90
316,218,81701,6,0,P|306:172|314:150,1,60
372,105,82367,2,0,P|361:66|351:43,1,60
269,58,83034,2,0,L|199:84,1,60
152,138,83701,1,0,0:0:0:0:
158,221,84034,1,0,0:0:0:0:
204,291,84367,6,0,P|169:320|142:327,1,60
72,338,85034,2,0,L|72:262,1,60
72,192,85701,2,0,P|57:142|36:107,2,90
50,273,87034,6,0,L|119:287,1,60
182,325,87701,2,0,L|251:297,1,60
313,266,88367,2,0,P|310:215|311:191,2,60
332,347,89367,1,0,0:0:0:0:
399,296,89701,6,0,L|410:212,1,60
411,152,90367,2,0,P|373:157|340:146,1,60
297,88,91034,2,0,L|260:152,1,60
209,201,91701,2,0,P|163:191|135:173,1,60
131,103,92367,6,0,L|67:137,1,60
4,171,93034,2,0,P|12:211|32:237,1,60
104,242,93701,2,0,P|158:249|185:248,1,60
235,205,94367,2,0,L|247:246,3,30
260,272,95034,6,0,L|320:262,1,60
389,215,95701,1,0,0:0:0:0:
434,144,96034,1,0,0:0:0:0:
467,67,96367,6,0,P|422:57|394:55,1,60
324,66,97034,1,0,0:0:0:0:
250,106,97367,1,0,0:0:0:0:
205,177,97701,6,0,P|212:224|226:257,1,60
259,307,98367,1,0,0:0:0:0:
196,363,98701,1,0,0:0:0:0:
113,346,99034,2,0,L|30:325,1,60
54,247,99701,2,0,P|107:235|117:231,1,60
194,189,100367,6,0,P|274:171|317:177,1,120
315,322,101701,2,0,P|255:325|198:308,1,120
237,139,103034,6,0,L|310:36,1,120
371,196,104367,1,0,0:0:0:0:
277,335,105034,2,0,P|211:330|141:295,1,120
112,244,105863,6,0,P|108:193|110:170,1,60
186,205,106349,2,0,P|226:212|258:200,1,60
263,128,106836,2,0,L|317:159,1,60
359,229,107322,1,0,0:0:0:0:
502,141,107646,1,0,0:0:0:0:
350,66,107971,1,0,0:0:0:0:
189,114,108295,6,0,P|178:71|192:17,3,90
327,236,110241,1,0,0:0:0:0:
170,296,110565,1,0,0:0:0:0:
256,192,110890,12,0,114133,0:0:0:0:
