osu file format v14

[General]
AudioFilename: Undertale OST - Last Goodbye.mp3
AudioLeadIn: 0
PreviewTime: 68368
Countdown: 0
SampleSet: Soft
StackLeniency: 0.6
Mode: 0
LetterboxInBreaks: 1
WidescreenStoryboard: 1

[Editor]
DistanceSpacing: 2
BeatDivisor: 4
GridSize: 8
TimelineZoom: 1.6

[Metadata]
Title:Last Goodbye
TitleUnicode:Last Goodbye
Artist:toby fox
ArtistUnicode:toby fox
Creator:Maemi no Yume
Version:Advanced
Source:Undertale
Tags:
BeatmapID:907218
BeatmapSetID:416764

[Difficulty]
HPDrainRate:6
CircleSize:4
OverallDifficulty:6
ApproachRate:9
SliderMultiplier:1.6
SliderTickRate:1

[Events]
//Background and Video events
0,0,"_undertale__outertale_by_xxendlessabyssxx-d9h6xvz.jpg",0,0
//Break Periods
//Storyboard Layer 0 (Background)
//Storyboard Layer 1 (Fail)
//Storyboard Layer 2 (Pass)
//Storyboard Layer 3 (Foreground)
//Storyboard Sound Samples

[TimingPoints]
33,333.333333333333,4,2,0,50,1,0
2700,333.333333333333,4,2,0,50,1,0
30614,-100,4,2,0,5,0,0
30697,-100,4,2,0,50,0,0
37614,-100,4,2,0,5,0,0
37697,-100,4,2,0,50,0,0
40947,-100,4,2,0,5,0,0
41031,-100,4,2,0,50,0,0
44031,-133.333333333333,4,2,0,50,0,0
44531,-133.333333333333,4,2,0,5,0,0
44697,-133.333333333333,4,2,0,50,0,0
45366,722.02166064982,4,2,0,50,1,0
46086,-100,4,2,0,20,0,0
68368,333.333333333333,4,2,0,50,1,0
72951,-100,4,2,0,5,0,0
73034,-100,4,2,0,50,0,0
77784,-100,4,2,0,5,0,0
77867,-100,4,2,0,50,0,0
88451,-100,4,2,0,5,0,0
88534,-100,4,2,0,50,0,0
100367,-200,4,2,0,30,0,0
105701,324.324324324324,4,2,0,50,1,0
108701,-100,4,2,0,5,0,0
108782,-100,4,2,0,50,0,0
109187,-100,4,2,0,5,0,0
109268,-100,4,2,0,50,0,0
109673,-100,4,2,0,5,0,0
109755,-100,4,2,0,50,0,0
110160,-100,4,2,0,5,0,0
110241,-100,4,2,0,50,0,0
110484,-100,4,2,0,5,0,0
110565,-100,4,2,0,50,0,0
110971,-100,4,2,0,5,0,0

[Colours]
Combo1 : 255,40,46
Combo2 : 187,250,253
Combo3 : 205,179,255
Combo4 : 255,36,135

[HitObjects]
240,312,2700,6,0,P|304:304|328:296,1,80
272,184,3033,1,0,0:0:0:0:
152,232,3199,1,0,0:0:0:0:
272,184,3366,2,0,L|352:176,1,80
248,96,3699,2,0,L|152:88,1,80
303,36,4033,6,0,P|325:72|322:135,1,80
197,169,4366,1,0,0:0:0:0:
82,81,4533,1,0,0:0:0:0:
206,10,4699,1,0,0:0:0:0:
197,169,4866,1,0,0:0:0:0:
204,251,5199,6,0,P|127:211|123:136,1,160
260,114,5699,1,0,0:0:0:0:
215,251,5866,1,0,0:0:0:0:
186,109,6033,1,0,0:0:0:0:
299,197,6199,1,0,0:0:0:0:
319,54,6366,1,0,0:0:0:0:
385,182,6533,1,0,0:0:0:0:
390,196,6616,1,0,0:0:0:0:
395,209,6699,6,0,L|382:294,1,80
253,352,7033,1,0,0:0:0:0:
195,220,7199,1,0,0:0:0:0:
273,259,7366,1,0,0:0:0:0:
142,291,7533,1,0,0:0:0:0:
180,143,7699,1,0,0:0:0:0:
132,279,7866,1,0,0:0:0:0:
181,130,8033,6,0,B|188:79|188:79|186:40,1,80
59,119,8366,1,0,0:0:0:0:
129,244,8533,1,0,0:0:0:0:
242,156,8699,1,0,0:0:0:0:
140,263,8866,1,0,0:0:0:0:
281,236,9033,1,0,0:0:0:0:
146,285,9199,1,0,0:0:0:0:
282,330,9366,6,0,L|382:348,1,80
445,227,9699,2,0,L|352:200,1,80
230,158,10033,1,0,0:0:0:0:
230,158,10199,1,0,0:0:0:0:
131,178,10533,6,0,P|151:94|221:51,1,160
244,193,11033,1,0,0:0:0:0:
145,297,11199,1,0,0:0:0:0:
145,297,11366,2,0,P|86:291|44:268,1,80
156,169,11699,1,0,0:0:0:0:
267,260,11866,1,0,0:0:0:0:
215,125,12033,6,0,L|307:101,1,80
144,60,12366,2,0,L|57:79,1,80
97,217,12699,1,0,0:0:0:0:
211,305,12866,1,0,0:0:0:0:
328,221,13033,1,0,0:0:0:0:
185,233,13199,1,0,0:0:0:0:
327,211,13366,6,0,L|418:211,1,80
342,81,13699,1,0,0:0:0:0:
225,165,13866,1,0,0:0:0:0:
225,165,14033,2,0,P|163:163|130:154,1,80
150,14,14366,2,0,P|199:3|247:11,1,80
337,99,14699,6,0,L|349:187,1,80
235,270,15033,1,0,0:0:0:0:
378,277,15199,1,0,0:0:0:0:
234,293,15366,1,0,0:0:0:0:
255,150,15533,1,0,0:0:0:0:
255,143,15866,6,0,P|209:185|133:120,1,160
255,61,16366,1,0,0:0:0:0:
398,51,16533,1,0,0:0:0:0:
404,194,16699,1,0,0:0:0:0:
347,61,16866,1,0,0:0:0:0:
477,122,17033,1,0,0:0:0:0:
334,139,17199,1,0,0:0:0:0:
309,141,17283,1,0,0:0:0:0:
285,144,17366,6,0,L|184:143,1,80
92,52,17699,1,0,0:0:0:0:
200,147,17866,1,0,0:0:0:0:
55,151,18033,1,0,0:0:0:0:
174,71,18199,1,0,0:0:0:0:
131,208,18366,1,0,0:0:0:0:
91,69,18533,1,0,0:0:0:0:
134,220,18699,6,0,L|103:311,1,80
108,295,19033,1,0,0:0:0:0:
220,206,19199,1,0,0:0:0:0:
252,339,19366,1,0,0:0:0:0:
197,204,19533,1,0,0:0:0:0:
323,295,19699,1,0,0:0:0:0:
167,199,19866,1,0,0:0:0:0:
383,238,20033,6,0,L|425:161,1,80
279,151,20366,1,0,0:0:0:0:
206,49,20533,1,0,0:0:0:0:
185,40,20616,1,0,0:0:0:0:
165,29,20699,2,0,L|67:38,1,80
168,118,21199,6,0,P|105:154|96:236,1,160
221,288,21699,1,0,0:0:0:0:
278,155,21866,1,0,0:0:0:0:
247,296,22033,1,0,0:0:0:0:
278,155,22199,2,0,L|313:77,1,80
402,194,22533,6,0,P|392:246|400:298,2,80
442,55,23033,2,0,P|398:54|333:66,1,80
225,104,23366,2,0,P|166:108|125:103,1,80
21,31,23699,1,0,0:0:0:0:
27,175,23866,1,0,0:0:0:0:
27,175,24033,6,0,L|114:195,1,80
232,261,24366,1,0,0:0:0:0:
204,119,24533,1,0,0:0:0:0:
232,261,24699,2,0,L|319:281,1,80
173,329,25033,1,0,0:0:0:0:
160,186,25199,1,0,0:0:0:0:
173,329,25366,6,0,L|59:313,1,80
166,193,25699,1,0,0:0:0:0:
309,176,25866,1,0,0:0:0:0:
309,176,26033,2,0,L|388:185,1,80
280,90,26366,1,0,0:0:0:0:
242,228,26533,1,0,0:0:0:0:
280,90,26699,6,0,P|288:46|298:1,1,80
189,110,27033,1,0,0:0:0:0:
251,239,27199,1,0,0:0:0:0:
192,107,27366,2,0,P|189:146|174:184,1,80
30,202,27699,1,0,0:0:0:0:
151,279,27866,5,0,0:0:0:0:
179,288,28199,1,0,0:0:0:0:
204,293,28533,2,0,L|283:296,1,80
408,224,28866,1,0,0:0:0:0:
408,210,28949,1,0,0:0:0:0:
408,198,29033,2,0,L|388:116,1,80
271,36,29366,5,0,0:0:0:0:
264,43,29699,1,0,0:0:0:0:
156,139,29866,1,0,0:0:0:0:
230,262,30033,2,0,P|294:251|343:236,1,80
201,343,30366,2,0,P|146:296|141:218,1,120
151,181,30699,5,0,0:0:0:0:
166,179,31033,1,0,0:0:0:0:
308,161,31199,1,0,0:0:0:0:
189,78,31366,2,0,P|130:67|83:73,1,80
93,82,31616,1,0,0:0:0:0:
80,100,31699,2,0,P|60:137|38:179,1,80
142,271,32033,6,0,P|179:285|218:291,1,80
259,150,32366,2,0,P|221:138|182:133,1,80
352,196,32699,2,0,L|440:172,1,80
361,46,33033,2,0,P|302:61|262:50,1,80
144,19,33366,6,0,P|165:90|143:178,1,160
76,298,33866,1,0,0:0:0:0:
76,298,34033,2,0,P|162:288|237:321,1,160
360,372,34533,2,0,L|422:304,1,80
399,169,34866,5,0,0:0:0:0:
255,181,35033,1,0,0:0:0:0:
399,169,35199,2,0,L|379:85,1,80
235,88,35533,1,0,0:0:0:0:
109,156,35699,1,0,0:0:0:0:
235,88,35866,2,0,L|175:26,1,80
203,172,36199,5,0,0:0:0:0:
254,304,36366,1,0,0:0:0:0:
203,172,36533,2,0,P|185:213|132:237,1,80
95,101,36866,1,0,0:0:0:0:
236,75,37033,1,0,0:0:0:0:
323,188,37199,1,0,0:0:0:0:
270,322,37366,6,0,P|333:347|400:304,1,120
402,304,37699,2,0,L|390:194,1,80
376,80,38033,1,0,0:0:0:0:
259,164,38199,1,0,0:0:0:0:
231,58,38533,6,0,P|189:117|99:98,1,160
109,107,38949,1,0,0:0:0:0:
109,107,39033,1,0,0:0:0:0:
148,247,39366,2,0,P|97:279|48:279,1,80
174,174,39699,2,0,P|234:191|282:218,1,80
276,341,40033,5,0,0:0:0:0:
300,330,40366,1,0,0:0:0:0:
355,196,40533,1,0,0:0:0:0:
355,196,40699,2,0,P|336:138|352:77,1,120
365,75,41033,2,0,L|263:71,1,80
176,167,41366,5,0,0:0:0:0:
167,198,41699,1,0,0:0:0:0:
171,53,41866,1,0,0:0:0:0:
167,198,42033,2,0,P|231:212|275:222,1,80
315,233,42283,1,0,0:0:0:0:
315,233,42366,2,0,P|337:198|343:155,1,80
247,51,42699,6,0,P|192:47|159:62,1,80
152,199,43033,2,0,L|148:308,1,80
258,184,43366,2,0,L|279:102,1,80
302,248,43699,2,0,P|263:259|224:253,1,80
266,152,44033,6,0,P|337:103|414:140,1,180.000006866455
215,351,44699,2,0,L|181:104,1,240.000009155274
199,193,46088,6,0,L|283:211,1,80
342,280,46810,2,0,P|367:240|362:179,1,80
326,122,47532,2,0,L|257:79,1,80
162,74,48254,6,0,P|131:104|82:93,1,80
58,190,48976,2,0,L|130:248,1,80
170,322,49698,2,0,P|202:289|215:253,2,80
276,320,50781,1,0,0:0:0:0:
364,282,51142,22,0,L|412:207,1,80
374,84,51864,2,0,P|356:141|325:176,1,80
252,183,52586,2,0,L|157:146,1,80
81,50,53308,2,0,P|136:68|159:54,1,80
322,29,54030,6,0,P|304:85|354:177,1,160
405,88,55474,1,0,0:0:0:0:
405,88,56196,1,0,0:0:0:0:
449,172,56557,1,0,0:0:0:0:
429,266,56918,6,0,L|341:297,1,80
264,255,57640,2,0,L|203:307,1,80
115,267,58362,2,0,P|145:237|145:184,2,80
51,194,59445,1,0,0:0:0:0:
72,100,59806,22,0,P|112:107|154:87,1,80
193,7,60528,2,0,P|265:58|363:38,1,160
405,3,61972,1,0,0:0:0:0:
405,98,62333,1,0,0:0:0:0:
360,183,62694,6,0,P|301:182|262:177,1,80
152,184,63416,2,0,P|103:205|75:246,1,80
135,64,64138,2,0,L|213:85,1,80
300,116,64860,2,0,P|350:129|409:87,1,120
341,54,65582,5,0,0:0:0:0:
256,192,65815,12,0,68165,0:0:0:0:
187,255,68368,6,0,P|127:264|98:259,1,80
138,120,68701,1,0,0:0:0:0:
272,171,68868,1,0,0:0:0:0:
272,171,69034,2,0,P|340:172|383:166,1,80
215,119,69368,2,0,P|198:155|219:217,1,80
269,307,69701,5,0,0:0:0:0:
400,248,69868,2,0,L|414:351,1,80
269,307,70201,2,0,P|182:319|136:262,1,160
213,245,70618,1,0,0:0:0:0:
213,245,70701,2,0,L|310:198,1,80
195,96,71034,6,0,L|123:130,1,80
33,15,71368,1,0,0:0:0:0:
107,137,71534,1,0,0:0:0:0:
21,252,71701,2,0,L|47:340,1,80
278,114,72201,2,0,P|246:166|262:269,1,160
283,331,72618,5,0,0:0:0:0:
283,331,72701,2,0,L|158:290,1,120
80,257,73034,2,0,P|163:244|183:169,1,160
188,46,73701,6,0,L|274:90,1,80
353,189,74034,1,0,0:0:0:0:
368,45,74201,1,0,0:0:0:0:
353,189,74368,2,0,L|439:233,1,80
353,351,74701,2,0,L|281:314,1,80
333,190,75034,5,0,0:0:0:0:
199,244,75201,2,0,P|156:231|107:237,1,80
318,272,75534,2,0,P|381:255|404:157,1,160
333,190,75951,1,0,0:0:0:0:
333,190,76034,2,0,P|289:189|248:153,1,80
291,29,76367,6,0,P|345:29|385:58,1,80
233,96,76701,2,0,L|133:85,1,80
113,225,77034,1,0,0:0:0:0:
136,82,77201,1,0,0:0:0:0:
140,92,77534,2,0,L|195:213,1,120
227,263,77867,1,0,0:0:0:0:
277,127,78034,1,0,0:0:0:0:
227,263,78201,1,0,0:0:0:0:
244,307,78534,1,0,0:0:0:0:
383,271,78701,2,0,L|459:246,1,80
440,103,79034,6,0,P|399:82|353:82,1,80
309,212,79367,1,0,0:0:0:0:
299,68,79534,1,0,0:0:0:0:
309,212,79701,2,0,P|360:189|392:166,1,80
257,130,80034,2,0,P|210:115|160:119,1,80
106,217,80367,5,0,0:0:0:0:
241,266,80534,2,0,L|201:186,1,80
187,337,80867,2,0,P|270:351|329:289,1,160
328,232,81284,1,0,0:0:0:0:
328,232,81367,2,0,L|407:228,1,80
296,135,81701,6,0,P|244:141|209:128,1,80
126,19,82034,1,0,0:0:0:0:
149,161,82201,1,0,0:0:0:0:
260,70,82367,1,0,0:0:0:0:
223,209,82534,1,0,0:0:0:0:
299,240,82867,6,0,P|244:286|149:246,1,160
127,203,83284,1,0,0:0:0:0:
127,203,83367,2,0,P|70:191|49:229,1,80
93,342,83701,2,0,L|180:355,1,80
315,368,84034,2,0,P|367:342|392:306,1,80
404,183,84367,6,0,P|444:183|508:183,1,80
384,77,84701,1,0,0:0:0:0:
287,183,84867,1,0,0:0:0:0:
380,73,85034,2,0,L|299:95,1,80
170,150,85367,2,0,P|165:189|180:225,1,80
316,176,85701,5,0,0:0:0:0:
283,315,85867,2,0,L|214:362,1,80
361,354,86201,2,0,P|430:304|440:229,1,160
419,165,86617,1,0,0:0:0:0:
419,165,86701,2,0,L|333:198,1,80
200,209,87034,6,0,P|238:220|278:222,1,80
286,78,87367,2,0,P|246:71|206:74,1,80
74,132,87701,1,0,0:0:0:0:
184,223,87867,1,0,0:0:0:0:
184,338,88201,6,0,P|171:285|197:199,1,120
236,173,88534,1,0,0:0:0:0:
270,312,88701,1,0,0:0:0:0:
254,169,88867,1,0,0:0:0:0:
306,322,89201,1,0,0:0:0:0:
274,164,89367,2,0,L|357:204,1,80
473,268,89701,5,0,0:0:0:0:
464,172,89867,1,0,0:0:0:0:
473,268,90034,2,0,L|388:264,1,80
235,239,90367,5,0,0:0:0:0:
351,177,90534,1,0,0:0:0:0:
315,336,90701,2,0,L|227:359,1,80
122,194,91034,5,0,0:0:0:0:
242,244,91201,1,0,0:0:0:0:
111,326,91367,2,0,B|71:299|71:299|53:264,1,80
83,87,91701,5,0,0:0:0:0:
199,130,91867,1,0,0:0:0:0:
115,203,92034,2,0,P|77:184|41:160,1,80
196,99,92367,5,0,0:0:0:0:
316,137,92534,1,0,0:0:0:0:
218,217,92701,2,0,L|155:294,1,80
308,227,93034,5,0,0:0:0:0:
407,306,93201,1,0,0:0:0:0:
296,348,93367,2,0,B|254:357|254:357|214:354,1,80
93,183,93701,5,0,0:0:0:0:
190,277,93868,1,0,0:0:0:0:
221,148,94034,2,0,B|207:118|207:118|171:87,1,80
93,207,94367,5,0,0:0:0:0:
210,286,94534,1,0,0:0:0:0:
320,222,94701,2,0,L|366:156,1,80
212,68,95034,6,0,P|173:86|126:86,1,80
296,90,95367,2,0,P|331:72|371:70,1,80
371,231,95701,2,0,P|331:229|296:212,1,80
136,214,96034,2,0,P|176:216|212:234,1,80
321,350,96367,6,0,P|306:296|323:253,1,80
431,166,96701,2,0,P|379:168|350:140,1,80
265,21,97034,2,0,P|278:70|266:132,1,80
121,138,97367,2,0,P|142:102|144:54,1,80
94,227,97701,6,0,P|82:269|90:319,1,80
245,353,98034,1,0,0:0:0:0:
401,296,98201,1,0,0:0:0:0:
274,189,98367,1,0,0:0:0:0:
339,369,98534,1,0,0:0:0:0:
368,205,98701,1,0,0:0:0:0:
212,262,98867,1,0,0:0:0:0:
311,276,99034,5,0,0:0:0:0:
310,139,99201,1,0,0:0:0:0:
180,134,99367,1,0,0:0:0:0:
325,134,99534,1,0,0:0:0:0:
161,135,99701,1,0,0:0:0:0:
345,134,99867,1,0,0:0:0:0:
373,253,100034,1,0,0:0:0:0:
264,221,100201,1,0,0:0:0:0:
365,137,100367,6,0,P|461:164|499:224,1,160
232,201,101701,2,0,L|299:48,1,160
276,274,103034,6,0,P|218:283|148:201,1,160
348,171,104367,2,0,L|377:337,1,160
239,231,105701,5,0,0:0:0:0:
321,81,105863,1,0,0:0:0:0:
217,226,106187,5,0,0:0:0:0:
321,81,106349,1,0,0:0:0:0:
192,226,106673,5,0,0:0:0:0:
321,81,106836,1,0,0:0:0:0:
169,225,107160,5,0,0:0:0:0:
321,81,107322,1,0,0:0:0:0:
341,159,107646,5,0,0:0:0:0:
364,234,107971,1,0,0:0:0:0:
149,182,108295,6,0,P|141:120|250:53,1,200
226,139,108782,2,0,L|21:118,1,200
17,105,109268,6,0,B|41:189|41:189|31:261|31:261|77:313,1,200
71,302,109755,2,0,P|130:336|226:264,1,200
214,232,110241,6,0,L|314:313,1,120
321,315,110565,2,0,P|380:324|443:238,1,160
256,192,110971,12,0,115106,0:0:0:0:
