osu file format v14

[General]
AudioFilename: Hopes and Dreams.mp3
AudioLeadIn: 0
PreviewTime: 68613
Countdown: 0
SampleSet: Soft
StackLeniency: 0.7
Mode: 0
LetterboxInBreaks: 0
WidescreenStoryboard: 1

[Editor]
Bookmarks: 18077,23664,46160,57409,68657,91154,113651,124900,136156,147405,158655,169903
DistanceSpacing: 1.4
BeatDivisor: 1
GridSize: 32
TimelineZoom: 2.2

[Metadata]
Title:Hopes and Dreams
TitleUnicode:Hopes and Dreams
Artist:toby fox
ArtistUnicode:toby fox
Creator:pkk
Version:Easy
Source:Undertale
Tags:asriel dreemurr chiptune radiation
BeatmapID:927435
BeatmapSetID:373373

[Difficulty]
HPDrainRate:2
CircleSize:3
OverallDifficulty:2
ApproachRate:2.5
SliderMultiplier:0.7
SliderTickRate:1

[Events]
//Background and Video events
0,0,"BG.jpg",0,0
//Break Periods
2,136004,145905
2,170104,174028
//Storyboard Layer 0 (Background)
//Storyboard Layer 1 (Fail)
//Storyboard Layer 2 (Pass)
//Storyboard Layer 3 (Foreground)
//Storyboard Sound Samples
Sample,18077,0,"AD.wav",60

[TimingPoints]
1198,351.539155602948,4,2,1,15,1,0
1198,-125,4,2,1,15,0,0
22434,351.539155602948,4,2,1,55,1,0
23664,351.539155602948,4,2,1,45,1,0
46162,-100,4,2,1,45,0,0
113658,-100,4,2,1,55,0,1
124555,-100,4,2,1,55,0,0
124907,-100,4,2,1,55,0,1
135804,-100,4,2,1,35,0,1
136156,-100,4,2,1,40,0,0
147405,-100,4,2,1,55,0,0
179044,-100,4,2,1,25,0,0
179747,-100,4,2,1,15,0,0
180274,-100,4,2,1,5,0,0

[Colours]
Combo1 : 234,53,53
Combo2 : 82,226,208
Combo3 : 248,189,80
Combo4 : 96,148,225
Combo5 : 159,91,215
Combo6 : 155,215,102
Combo7 : 241,243,143

[HitObjects]
146,108,1198,6,0,P|87:196|141:287,1,224,2|2,0:0|0:0,0:0:0:0:
370,287,4010,6,0,P|424:195|365:107,1,224,2|2,0:0|0:0,0:0:0:0:
170,198,6822,6,0,B|255:273|255:273|335:197,1,224,2|2,0:0|0:0,0:0:0:0:
139,90,9634,6,0,L|139:314,1,224,2|2,0:0|0:0,0:0:0:0:
361,338,12447,6,0,B|406:230|406:230|294:230,1,224,2|2,0:0|0:0,0:0:0:0:
81,175,15259,6,0,B|36:67|36:67|148:67,1,224,2|2,0:0|0:0,0:0:0:0:
358,127,18071,6,0,B|377:180|336:234|336:234|400:208|434:255,1,224,2|2,0:0|0:0,0:0:0:0:
213,294,20884,6,0,B|194:241|235:187|235:187|171:213|136:165,1,224,2|2,0:0|0:0,0:0:0:0:
286,55,23664,6,0,L|436:54,1,140,4|0,0:0|0:0,0:0:0:0:
500,117,24718,1,8,1:0:0:0:
446,199,25070,2,0,B|377:183|377:183|319:212|319:212|242:195,1,210,0|8,0:0|1:0,0:0:0:0:
198,110,26476,6,0,P|151:199|201:287,1,210,0|8,1:0|1:0,0:0:0:0:
294,256,27882,2,0,P|346:224|472:290,1,210,0|8,0:0|1:0,0:0:0:0:
399,351,29288,6,0,B|333:375|333:375|192:343,1,210,4|8,0:0|0:0,0:0:0:0:
98,347,30694,2,0,B|93:295|93:295|115:265|115:265|110:211,1,140,2|2,3:2|1:2,0:0:0:0:
153,126,31749,1,10,0:0:0:0:
230,186,32100,6,0,P|287:190|380:162,1,140,6|6,0:0|3:2,0:0:0:0:
428,93,33155,1,8,0:0:0:0:
498,161,33507,2,0,L|502:244,1,70,4|10,3:2|0:0,0:0:0:0:
420,285,34210,2,0,L|416:368,1,70,2|10,3:2|0:0,0:0:0:0:
318,362,34913,6,0,P|264:348|166:347,1,140,0|2,1:0|0:0,0:0:0:0:
85,320,35967,1,8,1:0:0:0:
140,239,36319,2,0,B|180:184|145:137|111:91|150:39,1,210,2|8,0:0|1:0,0:0:0:0:
233,89,37725,6,0,P|283:131|410:77,1,210,2|8,0:0|1:0,0:0:0:0:
498,50,39131,2,0,L|483:268,1,210,0|8,0:0|1:0,0:0:0:0:
397,307,40537,6,0,P|324:245|221:283,1,210,4|8,0:0|0:0,0:0:0:0:
127,294,41944,2,0,P|98:214|116:157,1,140,4|2,3:2|1:2,0:0:0:0:
184,97,42998,1,8,0:0:0:0:
277,124,43350,6,0,L|351:120,1,70,6|8,0:0|0:0,0:0:0:0:
395,205,44053,2,0,L|325:208,1,70,6|8,0:0|0:0,0:0:0:0:
237,252,44756,2,0,P|145:232|128:326,1,210,6|10,0:0|0:0,0:0:0:0:
222,349,46162,6,0,B|269:350|269:350|307:326|307:326|356:326,1,140,2|8,1:2|0:0,0:0:0:0:
495,189,47568,2,0,B|448:190|448:190|410:166|410:166|361:166,1,140,2|8,1:2|0:0,0:0:0:0:
193,65,48974,6,0,B|168:129|168:129|191:205,1,140,2|8,1:2|0:0,0:0:0:0:
376,252,50380,2,0,B|396:183|396:183|371:119,1,140,2|8,1:2|0:0,0:0:0:0:
183,63,51787,6,0,L|172:206,1,140,2|8,1:2|0:0,0:0:0:0:
312,339,53193,2,0,L|441:277,1,140,2|8,1:2|0:0,0:0:0:0:
495,90,54599,6,0,L|342:77,1,140,2|8,1:2|0:0,0:0:0:0:
268,122,55654,1,2,1:2:0:0:
174,92,56005,2,0,P|141:133|157:220,1,140,2|8,1:2|0:0,0:0:0:0:
342,166,57411,6,0,P|404:137|470:154,2,140,2|8|2,1:2|0:0|1:2,0:0:0:0:
231,328,59520,1,8,0:0:0:0:
78,204,60224,6,0,L|88:56,2,140,2|8|2,1:2|0:0|1:2,0:0:0:0:
232,327,62333,1,8,0:0:0:0:
419,270,63036,6,0,B|425:222|425:222|402:181|402:181|409:122,2,140,2|8|2,1:2|0:0|1:2,0:0:0:0:
249,367,65145,1,8,0:0:0:0:
76,273,65848,2,0,B|70:225|70:225|93:184|93:184|86:125,2,140,2|8|2,1:2|0:0|0:0,0:0:0:0:
375,334,68661,6,0,P|403:294|377:201,1,140,4|2,3:2|3:2,0:0:0:0:
302,157,69715,1,10,0:0:0:0:
222,213,70067,2,0,P|173:229|97:111,1,210,2|10,3:2|0:0,0:0:0:0:
177,69,71473,6,0,B|250:65|250:65|302:105|302:105|381:98,1,210,6|8,3:2|0:0,0:0:0:0:
453,41,72879,2,0,P|430:91|454:242,1,210,0|10,3:0|0:0,0:0:0:0:
452,337,74285,6,0,P|400:358|314:339,1,140,4|2,3:2|3:2,0:0:0:0:
241,283,75340,1,10,0:0:0:0:
144,301,75691,2,0,B|113:199|113:199|154:91,1,210,2|10,3:2|0:0,0:0:0:0:
240,65,77097,6,0,B|299:86|299:86|365:59|365:59|442:84,1,210,4|8,3:2|0:0,0:0:0:0:
439,180,78504,2,0,B|380:159|380:159|314:186|314:186|237:161,1,210,0|10,3:0|0:0,0:0:0:0:
167,97,79910,6,0,P|137:149|160:234,1,140,6|2,3:2|3:2,0:0:0:0:
229,284,80964,1,10,0:0:0:0:
324,260,81316,2,0,B|423:251|423:251|366:144,1,210,2|10,3:2|0:0,0:0:0:0:
274,172,82722,6,0,L|128:157,1,140,2|2,3:2|3:2,0:0:0:0:
69,84,83777,1,10,0:0:0:0:
16,166,84128,2,0,P|6:235|21:303,1,140,2|2,3:2|3:2,0:0:0:0:
206,240,85534,6,0,P|304:216|382:285,1,210,2|10,3:2|0:0,0:0:0:0:
463,335,86941,2,0,P|504:250|448:149,1,210,2|8,3:2|0:0,0:0:0:0:
374,96,88347,6,0,B|301:106|301:106|235:71,1,140,2|2,3:2|3:2,0:0:0:0:
156,28,89401,1,10,0:0:0:0:
73,80,89753,2,0,B|41:138|41:138|55:210,1,140,2|0,3:2|0:0,0:0:0:0:
227,310,91159,6,0,P|279:293|424:355,1,210,2|8,3:2|0:0,0:0:0:0:
496,288,92565,2,0,L|499:140,1,140,2|2,3:2|3:2,0:0:0:0:
469,54,93620,1,10,0:0:0:0:
385,105,93971,6,0,P|348:125|255:89,1,140,2|2,3:2|3:2,0:0:0:0:
187,30,95026,1,10,0:0:0:0:
103,80,95377,2,0,B|95:118|117:151|117:151|90:195|90:195|117:229|109:274,1,210,2|8,3:2|0:0,0:0:0:0:
185,337,96784,6,0,B|223:316|267:325|267:325|306:349|306:349|340:322|383:331,1,210,2|10,3:2|0:0,0:0:0:0:
469,371,98190,2,0,B|502:301|502:301|477:250|477:250|504:207|491:163,1,210,2|10,3:2|0:0,0:0:0:0:
396,181,99596,6,0,P|356:200|237:104,1,210,2|10,3:2|0:0,0:0:0:0:
148,72,101002,2,0,B|132:134|132:134|155:204|155:204|131:272,1,210,2|8,3:2|0:0,0:0:0:0:
205,336,102408,6,0,L|352:329,1,140,2|2,3:2|3:2,0:0:0:0:
424,272,103463,1,8,0:0:0:0:
464,182,103814,2,0,L|462:98,2,70,2|10|2,3:2|0:0|3:2,0:0:0:0:
424,272,104869,1,10,0:0:0:0:
338,224,105221,6,0,L|191:217,1,140,2|2,3:2|3:2,0:0:0:0:
117,272,106275,1,10,0:0:0:0:
40,210,106627,2,0,P|29:113|114:49,1,210,2|8,3:2|0:0,0:0:0:0:
200,89,108033,6,0,L|281:85,2,70,2|10|2,3:2|0:0|3:2,0:0:0:0:
120,145,109088,1,10,0:0:0:0:
69,228,109439,2,0,L|70:298,2,70,2|10|2,3:2|0:0|3:2,0:0:0:0:
167,223,110494,1,10,0:0:0:0:
249,275,110845,6,0,B|316:303|316:303|377:274,1,140,2|2,3:2|3:2,0:0:0:0:
425,188,111900,1,10,0:0:0:0:
372,105,112251,2,0,B|310:76|310:76|243:104,1,140,2|2,3:2|3:2,0:0:0:0:
56,48,113658,6,0,P|28:113|46:191,1,140,6|2,3:2|3:2,0:0:0:0:
101,255,114712,1,10,0:0:0:0:
190,215,115064,2,0,L|299:208,2,105,2|2|10,3:2|3:2|0:0,0:0:0:0:
117,149,116470,6,0,B|83:47|83:47|190:41,1,210,6|8,3:2|0:0,0:0:0:0:
267,94,117876,2,0,L|343:96,2,70,0|10|2,3:0|0:0|3:2,0:0:0:0:
185,41,118931,1,10,0:0:0:0:
99,88,119282,6,0,L|90:227,1,140,6|2,3:2|3:2,0:0:0:0:
157,298,120337,1,10,0:0:0:0:
247,259,120688,2,0,B|317:260|317:260|365:220|365:220|443:222,1,210,2|10,3:2|0:0,0:0:0:0:
399,133,122094,6,0,B|329:132|329:132|281:172|281:172|203:170,1,210,6|8,3:2|0:0,0:0:0:0:
143,92,123501,2,0,P|114:125|124:224,1,140,0|0,3:0|0:0,0:0:0:0:
191,280,124555,1,8,0:0:0:0:
288,265,124907,6,0,P|317:232|307:133,1,140,6|2,3:2|3:2,0:0:0:0:
249,65,125961,1,10,0:0:0:0:
166,116,126313,2,0,L|57:109,2,105,2|2|10,3:2|3:2|0:0,0:0:0:0:
239,181,127719,6,0,L|387:174,1,140,6|2,3:2|3:2,0:0:0:0:
458,117,128774,1,8,0:0:0:0:
501,204,129125,2,0,L|503:280,2,70,0|10|2,3:0|0:0|3:2,0:0:0:0:
458,117,130180,1,10,0:0:0:0:
361,132,130531,6,0,L|352:271,1,140,6|2,3:2|3:2,0:0:0:0:
287,345,131586,1,10,0:0:0:0:
209,285,131938,2,0,P|162:265|107:280,2,105,2|2|10,3:2|3:2|0:0,0:0:0:0:
290,340,133344,6,0,B|368:342|368:342|416:302|416:302|486:303,1,210,6|8,3:2|0:0,0:0:0:0:
487,205,134750,2,0,L|488:120,1,70,0|8,3:0|0:0,0:0:0:0:
404,82,135453,2,0,L|403:151,1,70,0|0,0:0|1:0,0:0:0:0:
146,127,147405,6,0,B|188:142|216:113|216:113|258:144|258:144|300:116|335:130,1,210,0|8,3:0|0:0,0:0:0:0:
399,56,148811,2,0,P|440:137|371:224,1,210,0|10,3:0|0:0,0:0:0:0:
287,179,150218,6,0,P|234:151|155:179,1,140,2|2,3:2|3:2,0:0:0:0:
107,254,151272,1,10,0:0:0:0:
44,177,151624,2,0,L|47:102,1,70,2|10,3:2|0:0,0:0:0:0:
121,43,152327,2,0,L|190:45,1,70,2|10,3:2|0:0,0:0:0:0:
257,118,153030,6,0,B|357:121|357:121|305:231,1,210,2|8,3:2|0:0,0:0:0:0:
234,282,154436,2,0,B|134:279|134:279|180:179,1,210,0|10,3:0|0:0,0:0:0:0:
122,100,155842,6,0,L|44:97,2,70,6|10|2,3:2|0:0|3:2,0:0:0:0:
211,60,156897,2,0,P|301:103|382:45,1,210,10|2,0:0|3:2,0:0:0:0:
477,18,158303,1,10,0:0:0:0:
503,112,158655,6,0,L|495:263,1,140,0|2,3:0|3:2,0:0:0:0:
414,307,159709,1,8,0:0:0:0:
331,254,160061,2,0,L|180:246,1,140,0|2,3:0|3:2,0:0:0:0:
116,183,161115,1,10,0:0:0:0:
200,133,161467,6,0,B|240:37|240:37|130:31,1,210,2|10,3:2|0:0,0:0:0:0:
80,113,162873,2,0,L|89:198,1,70,2|10,3:2|0:0,0:0:0:0:
145,261,163576,2,0,L|230:252,1,70,2|10,3:2|0:0,0:0:0:0:
295,197,164279,6,0,P|356:169|455:264,1,210,2|8,3:2|0:0,0:0:0:0:
423,344,165685,2,0,P|362:372|263:277,1,210,0|10,3:0|0:0,0:0:0:0:
194,220,167091,6,0,L|116:228,2,70,6|10|2,3:2|0:0|3:2,0:0:0:0:
275,165,168146,2,0,L|353:173,2,70,10|0|10,0:0|3:0|0:0,0:0:0:0:
210,91,169201,2,0,P|170:67|83:113,1,140,2|2,3:2|0:0,0:0:0:0:
28,92,175528,6,0,L|175:77,1,140,2|2,3:2|3:2,0:0:0:0:
256,117,176583,1,10,0:0:0:0:
344,77,176935,2,0,L|426:86,1,70,2|8,0:0|0:0,0:0:0:0:
486,151,177638,2,0,L|494:232,1,70,2|10,3:2|0:0,0:0:0:0:
256,192,178341,12,0,180274,0:0:0:0:
