osu file format v14

[General]
AudioFilename: Hopes and Dreams.mp3
AudioLeadIn: 0
PreviewTime: 68613
Countdown: 0
SampleSet: Soft
StackLeniency: 0.7
Mode: 0
LetterboxInBreaks: 0
WidescreenStoryboard: 0

[Editor]
Bookmarks: 18077,23664,46160,57409,68657,79906,91154,102403,113651,124900,136148,147407,158655,169903
DistanceSpacing: 1.5
BeatDivisor: 4
GridSize: 32
TimelineZoom: 2.4

[Metadata]
Title:Hopes and Dreams
TitleUnicode:Hopes and Dreams
Artist:toby fox
ArtistUnicode:toby fox
Creator:pkk
Version:DREAMER
Source:Undertale
Tags:asriel dreemurr chiptune radiation
BeatmapID:817987
BeatmapSetID:373373

[Difficulty]
HPDrainRate:6
CircleSize:4
OverallDifficulty:8.5
ApproachRate:9
SliderMultiplier:1.9
SliderTickRate:1

[Events]
//Background and Video events
0,0,"BG.jpg",0,0
//Break Periods
2,136268,140478
2,141981,145751
2,170104,174928
//Storyboard Layer 0 (Background)
//Storyboard Layer 1 (Fail)
//Storyboard Layer 2 (Pass)
//Storyboard Layer 3 (Foreground)
//Storyboard Sound Samples
Sample,18077,0,"AD.wav",60

[TimingPoints]
1198,351.539155602948,4,2,1,15,1,0
22434,351.539155602948,4,2,1,55,1,0
23664,351.539155602948,4,2,1,45,1,0
46162,-133.333333333333,4,2,1,45,0,0
46206,-133.333333333333,4,2,1,15,0,0
46514,-133.333333333333,4,2,1,45,0,0
46557,-133.333333333333,4,2,1,15,0,0
46865,-133.333333333333,4,2,1,45,0,0
47612,-133.333333333333,4,2,1,15,0,0
47920,-133.333333333333,4,2,1,45,0,0
47964,-133.333333333333,4,2,1,15,0,0
48271,-133.333333333333,4,2,1,45,0,0
49018,-133.333333333333,4,2,1,15,0,0
49326,-133.333333333333,4,2,1,45,0,0
49370,-133.333333333333,4,2,1,15,0,0
49677,-133.333333333333,4,2,1,45,0,0
50424,-133.333333333333,4,2,1,15,0,0
50732,-133.333333333333,4,2,1,45,0,0
50776,-133.333333333333,4,2,1,15,0,0
51084,-133.333333333333,4,2,1,45,0,0
51831,-133.333333333333,4,2,1,15,0,0
52138,-133.333333333333,4,2,1,45,0,0
52182,-133.333333333333,4,2,1,15,0,0
52490,-133.333333333333,4,2,1,45,0,0
53237,-133.333333333333,4,2,1,15,0,0
53544,-133.333333333333,4,2,1,45,0,0
53588,-133.333333333333,4,2,1,15,0,0
53896,-133.333333333333,4,2,1,45,0,0
54643,-133.333333333333,4,2,1,15,0,0
54950,-133.333333333333,4,2,1,45,0,0
54994,-133.333333333333,4,2,1,15,0,0
55302,-133.333333333333,4,2,1,45,0,0
56049,-133.333333333333,4,2,1,15,0,0
56357,-133.333333333333,4,2,1,45,0,0
56401,-133.333333333333,4,2,1,15,0,0
56708,-133.333333333333,4,2,1,45,0,0
57411,-100,4,2,1,45,0,0
57587,-100,4,2,1,20,0,0
57763,-100,4,2,1,45,0,0
57939,-100,4,2,1,20,0,0
58114,-100,4,2,1,45,0,0
58642,-100,4,2,1,20,0,0
58817,-100,4,2,1,45,0,0
58993,-100,4,2,1,20,0,0
59169,-100,4,2,1,45,0,0
59345,-100,4,2,1,20,0,0
59520,-100,4,2,1,45,0,0
60048,-100,4,2,1,20,0,0
60224,-100,4,2,1,45,0,0
60399,-100,4,2,1,20,0,0
60575,-100,4,2,1,45,0,0
60751,-100,4,2,1,20,0,0
60927,-100,4,2,1,45,0,0
61454,-100,4,2,1,20,0,0
61630,-100,4,2,1,45,0,0
61805,-100,4,2,1,20,0,0
61981,-100,4,2,1,45,0,0
62157,-100,4,2,1,20,0,0
62333,-100,4,2,1,45,0,0
62860,-100,4,2,1,20,0,0
63036,-100,4,2,1,45,0,0
63212,-100,4,2,1,20,0,0
63387,-100,4,2,1,45,0,0
63563,-100,4,2,1,20,0,0
63739,-100,4,2,1,45,0,0
64266,-100,4,2,1,20,0,0
64442,-100,4,2,1,45,0,0
64618,-100,4,2,1,20,0,0
64794,-100,4,2,1,45,0,0
64969,-100,4,2,1,20,0,0
65145,-100,4,2,1,45,0,0
65672,-100,4,2,1,20,0,0
65848,-100,4,2,1,45,0,0
66024,-100,4,2,1,20,0,0
66200,-100,4,2,1,45,0,0
66376,-100,4,2,1,20,0,0
66551,-100,4,2,1,45,0,0
67079,-100,4,2,1,20,0,0
67254,-166.666666666667,4,2,1,35,0,0
68661,-100,4,2,1,55,0,0
113658,-100,4,2,1,55,0,1
124555,-100,4,2,1,55,0,0
124907,-100,4,2,1,55,0,1
135804,-100,4,2,1,35,0,1
136156,-100,4,2,1,40,0,0
140374,-100,4,2,1,15,0,0
141781,-100,4,2,1,30,0,0
145999,-100,4,2,1,35,0,0
147405,-100,4,2,1,55,0,0
179044,-100,4,2,1,25,0,0
179747,-100,4,2,1,15,0,0
180274,-100,4,2,1,5,0,0

[Colours]
Combo1 : 234,53,53
Combo2 : 82,226,208
Combo3 : 248,189,80
Combo4 : 96,148,225
Combo5 : 159,91,215
Combo6 : 155,215,102
Combo7 : 241,243,143

[HitObjects]
128,192,1198,5,2,0:0:0:0:
384,192,1901,1,2,0:0:0:0:
256,192,2604,1,2,0:0:0:0:
256,224,4010,5,2,0:0:0:0:
256,60,4713,1,2,0:0:0:0:
256,320,5416,1,2,0:0:0:0:
142,126,6822,5,2,0:0:0:0:
256,320,7525,1,2,0:0:0:0:
370,126,8228,1,2,0:0:0:0:
370,126,9283,1,2,0:0:0:0:
73,190,9634,5,2,0:0:0:0:
256,192,10338,1,2,0:0:0:0:
439,190,11041,1,2,0:0:0:0:
96,192,12447,5,2,0:0:0:0:
416,192,13150,1,2,0:0:0:0:
96,192,13853,1,2,0:0:0:0:
399,197,15259,5,2,0:0:0:0:
113,197,15962,1,2,0:0:0:0:
399,197,16665,1,2,0:0:0:0:
256,64,18071,37,2,0:0:0:0:
256,256,18774,1,2,0:0:0:0:
256,64,19478,1,2,0:0:0:0:
256,32,20532,1,2,0:0:0:0:
256,256,20884,37,2,0:0:0:0:
256,224,21587,1,2,0:0:0:0:
256,192,22290,1,2,0:0:0:0:
160,64,22434,21,0,0:0:0:0:
160,64,22521,1,8,0:3:0:0:
160,64,22609,1,8,0:3:0:0:
352,64,22785,1,0,0:0:0:0:
90,173,22961,1,8,0:3:0:0:
422,173,23137,1,8,0:3:0:0:
160,284,23312,1,8,0:3:0:0:
352,284,23488,1,8,0:3:0:0:
171,84,23664,6,0,P|157:129|153:176,1,95,4|0,0:0|0:0,0:0:0:0:
394,184,24015,1,0,0:0:0:0:
241,270,24191,1,0,1:0:0:0:
400,170,24367,2,0,P|395:122|382:77,1,95,0|0,0:0|0:0,0:0:0:0:
135,269,24718,2,0,P|139:221|152:176,1,95,8|0,1:0|0:0,0:0:0:0:
387,259,25070,5,0,0:0:0:0:
227,288,25245,2,0,P|172:271|122:269,1,95,0|8,1:0|0:0,0:0:0:0:
38,68,25597,1,0,0:0:0:0:
198,97,25773,2,0,P|253:80|303:78,1,95,0|0,1:0|0:0,0:0:0:0:
227,288,26124,1,8,1:0:0:0:
434,175,26300,1,0,0:0:0:0:
434,175,26388,1,0,0:0:0:0:
434,175,26476,6,0,P|446:221|450:269,1,95,0|0,1:0|0:0,0:0:0:0:
205,314,26827,2,0,P|193:268|189:220,1,95,8|0,0:0|1:0,0:0:0:0:
346,80,27179,2,0,P|342:128|331:174,1,95,0|0,0:0|0:0,0:0:0:0:
86,127,27530,2,0,P|90:79|102:34,1,95,8|0,1:0|0:0,0:0:0:0:
221,222,27882,5,0,0:0:0:0:
346,80,28058,2,0,B|394:66|394:66|447:80,1,95,0|8,1:0|0:0,0:0:0:0:
321,260,28409,1,0,0:0:0:0:
196,118,28585,2,0,B|148:104|148:104|95:118,1,95,0|0,1:0|0:0,0:0:0:0:
281,335,28937,2,0,B|324:346|324:346|372:332,1,95,8|0,1:0|0:0,0:0:0:0:
440,264,29200,1,0,0:0:0:0:
440,264,29288,5,4,0:0:0:0:
262,237,29464,1,0,3:0:0:0:
375,95,29640,1,8,0:0:0:0:
348,273,29815,1,0,3:0:0:0:
84,264,29991,5,0,3:0:0:0:
262,237,30167,1,0,3:0:0:0:
149,95,30343,1,8,0:0:0:0:
176,273,30519,1,0,3:0:0:0:
309,154,30694,5,2,3:2:0:0:
147,17,30870,2,0,L|139:127,1,95,2|8,1:2|0:0,0:0:0:0:
343,132,31222,1,0,3:0:0:0:
134,203,31397,2,0,L|128:109,1,95,2|0,1:2|3:0,0:0:0:0:
355,258,31749,2,0,L|361:163,1,95,10|0,0:0|3:0,0:0:0:0:
54,242,32100,6,0,P|127:297|207:256,1,190,6|8,0:0|0:0,0:0:0:0:
143,107,32628,1,0,3:0:0:0:
302,124,32804,1,6,3:2:0:0:
157,261,32979,1,0,3:0:0:0:
230,29,33155,1,8,0:0:0:0:
323,237,33331,1,0,3:0:0:0:
95,214,33507,5,4,3:2:0:0:
302,124,33682,1,2,3:2:0:0:
70,188,33858,5,10,0:0:0:0:
277,278,34034,1,2,3:2:0:0:
139,96,34210,5,2,3:2:0:0:
187,319,34385,1,2,3:2:0:0:
221,169,34561,5,10,0:0:0:0:
97,360,34737,1,2,3:2:0:0:
379,339,34913,6,0,L|386:237,1,95,0|0,1:0|0:0,0:0:0:0:
115,213,35264,1,8,0:0:0:0:
204,332,35440,1,0,1:0:0:0:
307,100,35616,2,0,L|300:194,1,95,2|0,0:0|0:0,0:0:0:0:
67,128,35967,2,0,L|73:33,1,95,8|0,1:0|0:0,0:0:0:0:
176,229,36319,5,2,0:0:0:0:
286,105,36495,2,0,P|338:82|378:80,1,95,2|8,1:2|0:0,0:0:0:0:
140,154,36846,1,2,0:0:0:0:
249,283,37022,2,0,P|301:306|341:308,1,95,2|0,1:2|0:0,0:0:0:0:
478,152,37374,2,0,P|482:98|467:51,1,95,8|0,1:0|0:0,0:0:0:0:
207,110,37725,6,0,P|195:155|200:202,1,95,2|0,0:0|0:0,0:0:0:0:
407,180,38077,1,8,0:0:0:0:
304,320,38252,1,0,1:0:0:0:
401,163,38428,2,0,L|504:157,1,95,2|0,0:0|0:0,0:0:0:0:
225,280,38780,2,0,L|122:274,1,95,8|0,1:0|0:0,0:0:0:0:
207,110,39131,5,2,0:0:0:0:
366,260,39307,2,0,P|382:212|383:168,1,95,0|8,1:0|0:0,0:0:0:0:
278,27,39659,1,0,0:0:0:0:
102,84,39834,2,0,P|103:132|119:177,1,95,0|0,1:0|0:0,0:0:0:0:
229,358,40186,2,0,P|244:313|246:266,1,95,8|0,1:0|0:0,0:0:0:0:
37,160,40537,6,0,P|106:199|208:132,1,190,4|8,0:0|0:0,0:0:0:0:
323,60,41065,1,0,0:0:0:0:
246,266,41240,1,0,3:0:0:0:
199,154,41416,1,0,3:0:0:0:
367,347,41592,1,8,0:0:0:0:
413,234,41768,1,0,3:0:0:0:
126,248,41944,5,4,3:2:0:0:
405,139,42119,2,0,L|414:246,1,95,2|8,1:2|0:0,0:0:0:0:
210,319,42471,1,0,3:0:0:0:
306,49,42647,2,0,L|315:156,1,95,2|0,1:2|3:0,0:0:0:0:
133,342,42998,2,0,L|125:247,1,95,8|0,0:0|3:0,0:0:0:0:
432,269,43350,6,0,L|320:255,1,95,6|0,0:0|0:0,0:0:0:0:
216,121,43701,1,8,0:0:0:0:
256,326,43877,1,0,0:0:0:0:
42,201,44053,2,0,L|154:187,1,95,6|0,0:0|0:0,0:0:0:0:
258,53,44404,1,8,0:0:0:0:
218,258,44580,1,0,0:0:0:0:
105,80,44756,5,6,0:0:0:0:
309,157,44932,1,0,0:0:0:0:
30,161,45107,1,10,0:0:0:0:
377,94,45283,1,0,0:0:0:0:
137,263,45459,5,2,0:0:0:0:
248,74,45635,1,0,0:0:0:0:
379,249,45810,1,10,0:0:0:0:
143,147,45986,1,0,0:0:0:0:
398,139,46162,6,0,L|401:107,1,17.812500679493,2|0,1:2|0:0,0:0:0:0:
109,245,46514,2,0,L|106:213,1,17.812500679493,2|0,1:2|0:0,0:0:0:0:
333,326,46865,1,8,0:0:0:0:
243,155,47041,1,0,0:0:0:0:
243,155,47129,1,0,0:0:0:0:
243,155,47217,1,2,1:2:0:0:
77,96,47568,6,0,L|73:79,1,17.812500679493,2|0,1:2|0:0,0:0:0:0:
363,176,47920,2,0,L|367:158,1,17.812500679493,2|0,1:2|0:0,0:0:0:0:
148,255,48271,1,8,0:0:0:0:
246,100,48447,1,0,0:0:0:0:
246,100,48535,1,0,0:0:0:0:
246,100,48623,1,2,1:2:0:0:
150,272,48974,6,0,L|147:253,1,17.812500679493,2|0,1:2|0:0,0:0:0:0:
388,347,49326,2,0,L|391:328,1,17.812500679493,2|0,1:2|0:0,0:0:0:0:
52,355,49677,1,8,0:0:0:0:
281,246,49853,1,0,0:0:0:0:
281,246,49941,1,0,0:0:0:0:
281,246,50029,1,2,1:2:0:0:
171,105,50380,6,0,L|168:86,1,17.812500679493,2|0,1:2|0:0,0:0:0:0:
419,211,50732,2,0,L|422:192,1,17.812500679493,2|0,1:2|1:2,0:0:0:0:
83,219,51084,1,8,0:0:0:0:
312,110,51259,1,0,0:0:0:0:
312,110,51347,1,0,0:0:0:0:
312,110,51435,1,2,1:2:0:0:
123,105,51787,6,0,L|133:131,1,17.812500679493,2|0,1:2|0:0,0:0:0:0:
398,162,52138,2,0,L|388:188,1,17.812500679493,2|0,1:2|0:0,0:0:0:0:
80,223,52490,1,8,0:0:0:0:
270,84,52665,1,0,0:0:0:0:
270,84,52753,1,0,0:0:0:0:
270,84,52841,1,2,1:2:0:0:
361,208,53193,6,0,L|351:234,1,17.812500679493,2|0,1:2|0:0,0:0:0:0:
80,223,53544,2,0,L|90:249,1,17.812500679493,2|0,1:2|0:0,0:0:0:0:
404,322,53896,1,8,0:0:0:0:
217,165,54072,1,0,0:0:0:0:
217,165,54160,1,0,0:0:0:0:
217,165,54247,1,2,1:2:0:0:
177,343,54599,6,0,L|173:312,1,17.812500679493,2|0,1:2|0:0,0:0:0:0:
376,289,54950,2,0,L|380:259,1,17.812500679493,2|0,1:2|0:0,0:0:0:0:
68,249,55302,1,8,0:0:0:0:
267,206,55478,1,0,0:0:0:0:
267,206,55566,1,0,0:0:0:0:
267,206,55654,1,2,1:2:0:0:
134,54,56005,6,0,L|138:84,1,17.812500679493,2|0,1:2|0:0,0:0:0:0:
371,125,56357,2,0,L|359:151,1,17.812500679493,2|0,1:2|0:0,0:0:0:0:
71,200,56708,1,8,0:0:0:0:
259,63,56884,1,0,0:0:0:0:
259,63,56972,1,0,0:0:0:0:
259,63,57060,1,2,1:2:0:0:
82,319,57411,6,0,P|94:268|89:206,1,95,2|0,1:2|0:0,0:0:0:0:
305,255,57763,2,0,P|293:204|298:142,1,95,2|0,1:2|0:0,0:0:0:0:
172,79,58114,1,8,0:0:0:0:
409,94,58290,1,0,3:0:0:0:
409,94,58378,1,0,3:0:0:0:
409,94,58466,2,0,P|397:145|402:207,1,95,0|0,1:0|0:0,0:0:0:0:
164,265,58817,6,0,P|121:243|75:232,1,95,2|0,1:2|0:0,0:0:0:0:
354,304,59169,2,0,P|396:282|442:271,1,95,2|0,1:2|0:0,0:0:0:0:
160,353,59520,1,8,0:0:0:0:
342,321,59696,1,0,3:0:0:0:
342,321,59784,1,0,3:0:0:0:
342,321,59872,2,0,P|394:321|439:332,1,95,4|0,1:3|0:0,0:0:0:0:
357,181,60224,6,0,P|343:131|338:82,1,95,2|0,1:2|0:0,0:0:0:0:
165,148,60575,2,0,P|160:195|147:241,1,95,2|0,1:2|0:0,0:0:0:0:
304,293,60927,1,8,0:0:0:0:
70,305,61102,1,0,3:0:0:0:
70,305,61190,1,0,3:0:0:0:
70,305,61278,2,0,P|56:259|51:212,1,95,0|0,1:0|0:0,0:0:0:0:
363,134,61630,6,0,P|349:180|344:227,1,95,2|0,1:2|0:0,0:0:0:0:
173,194,61981,2,0,P|168:147|155:102,1,95,2|0,1:2|0:0,0:0:0:0:
282,25,62333,1,8,0:0:0:0:
77,38,62509,1,0,3:0:0:0:
77,38,62596,1,0,3:0:0:0:
77,38,62684,2,0,P|63:88|58:137,1,95,0|0,1:0|0:0,0:0:0:0:
313,235,63036,6,0,P|335:180|339:141,1,95,2|0,1:2|0:0,0:0:0:0:
196,258,63387,2,0,P|174:203|170:164,1,95,2|0,1:2|0:0,0:0:0:0:
338,331,63739,1,8,0:0:0:0:
160,347,63915,1,0,3:0:0:0:
160,347,64003,1,0,3:0:0:0:
160,347,64091,2,0,P|109:326|65:323,1,95,4|0,1:3|0:0,0:0:0:0:
210,143,64442,6,0,L|216:246,1,95,2|0,1:2|0:0,0:0:0:0:
330,100,64794,2,0,L|324:203,1,95,2|0,1:2|0:0,0:0:0:0:
126,194,65145,1,8,0:0:0:0:
424,159,65321,1,0,3:0:0:0:
424,159,65409,1,0,3:0:0:0:
424,159,65497,2,0,L|429:64,1,95,0|0,1:0|0:0,0:0:0:0:
165,200,65848,6,0,P|191:246|205:298,1,95,2|0,1:2|0:0,0:0:0:0:
331,249,66200,2,0,P|305:295|291:347,1,95,2|0,1:2|0:0,0:0:0:0:
105,309,66551,1,8,0:0:0:0:
416,305,66727,1,0,3:0:0:0:
416,305,66815,1,0,3:0:0:0:
416,305,66903,2,0,P|431:256|435:200,1,95,0|0,1:0|0:0,0:0:0:0:
254,24,67254,6,0,B|188:117|252:186|308:255|252:350,1,341.999989562989,2|2,0:0|0:0,0:0:0:0:
58,152,68661,6,0,L|171:143,1,95,4|0,3:2|3:0,0:0:0:0:
441,241,69012,2,0,L|328:232,1,95,10|0,0:0|3:0,0:0:0:0:
265,90,69364,1,2,3:2:0:0:
196,245,69539,1,0,3:0:0:0:
273,69,69715,2,0,L|386:60,1,95,10|0,0:0|3:0,0:0:0:0:
325,256,70067,5,2,3:2:0:0:
186,141,70242,2,0,B|173:91|173:91|189:38,1,95,2|8,3:2|0:0,0:0:0:0:
351,175,70594,2,0,B|363:216|363:216|350:266,1,95,2|0,3:2|3:0,0:0:0:0:
100,234,70946,1,2,3:2:0:0:
100,234,71033,1,0,0:0:0:0:
100,234,71121,2,0,P|149:217|203:229,1,95,10|0,0:0|3:0,0:0:0:0:
404,343,71473,6,0,P|359:359|313:353,1,95,6|0,3:2|3:0,0:0:0:0:
195,128,71824,2,0,L|189:222,1,95,10|0,0:0|3:0,0:0:0:0:
449,187,72176,1,2,3:2:0:0:
310,45,72352,2,0,L|315:139,1,95,2|8,3:2|0:0,0:0:0:0:
166,295,72703,6,0,L|157:200,1,95,2|0,3:2|3:0,0:0:0:0:
350,357,73055,1,2,3:2:0:0:
350,357,73143,1,0,0:0:0:0:
350,357,73231,2,0,L|359:258,1,95,10|0,0:0|3:0,0:0:0:0:
180,160,73582,2,0,L|171:61,1,95,2|0,3:2|3:0,0:0:0:0:
439,114,73934,2,0,B|392:129|392:129|347:118,1,95,10|0,0:0|3:0,0:0:0:0:
127,241,74285,6,0,B|174:256|174:256|218:245,1,95,4|0,3:2|3:0,0:0:0:0:
347,118,74637,1,10,0:0:0:0:
367,267,74812,1,0,3:0:0:0:
237,139,74988,2,0,P|221:91|226:35,1,95,2|0,3:2|3:0,0:0:0:0:
459,240,75340,2,0,P|460:287|444:331,1,95,10|0,0:0|3:0,0:0:0:0:
174,274,75691,5,2,3:2:0:0:
275,161,75867,2,0,L|377:157,1,95,2|8,3:2|0:0,0:0:0:0:
196,305,76219,2,0,L|94:301,1,95,2|0,3:2|3:0,0:0:0:0:
288,128,76570,1,2,3:2:0:0:
288,128,76658,1,0,0:0:0:0:
288,128,76746,2,0,P|299:185|295:228,1,95,10|0,0:0|3:0,0:0:0:0:
101,301,77097,6,0,P|89:243|94:201,1,95,4|0,3:2|3:0,0:0:0:0:
366,251,77449,1,10,0:0:0:0:
215,222,77625,1,0,3:0:0:0:
384,256,77801,1,2,3:2:0:0:
209,232,77976,2,0,L|201:137,1,95,2|8,3:2|0:0,0:0:0:0:
383,59,78328,6,0,L|375:153,1,95,2|0,3:2|3:0,0:0:0:0:
289,267,78679,1,2,3:2:0:0:
289,267,78767,1,0,0:0:0:0:
289,267,78855,1,10,0:0:0:0:
143,196,79031,1,0,3:0:0:0:
278,107,79207,5,2,3:2:0:0:
289,267,79382,1,0,3:0:0:0:
185,114,79558,1,10,0:0:0:0:
330,184,79734,1,0,3:0:0:0:
164,128,79910,6,0,P|115:115|70:94,1,95,6|0,3:2|3:0,0:0:0:0:
332,211,80261,2,0,P|381:198|426:177,1,95,10|2,0:0|3:2,0:0:0:0:
149,152,80613,1,2,3:2:0:0:
263,308,80789,1,0,3:0:0:0:
263,116,80964,1,10,0:0:0:0:
149,270,81140,1,0,3:0:0:0:
293,325,81316,6,0,P|346:315|393:312,1,95,2|0,3:2|3:0,0:0:0:0:
178,186,81667,2,0,P|130:182|84:173,1,95,8|2,0:0|3:2,0:0:0:0:
347,94,82019,1,2,3:2:0:0:
264,268,82195,1,0,3:0:0:0:
228,80,82371,1,10,0:0:0:0:
369,209,82546,1,0,3:0:0:0:
502,112,82722,6,0,B|512:62|512:62|501:19,1,95,2|0,3:2|3:0,0:0:0:0:
280,56,83074,2,0,B|269:99|269:99|279:149,1,95,10|2,0:0|3:2,0:0:0:0:
415,319,83425,2,0,B|426:276|426:276|416:226,1,95,2|0,3:2|3:0,0:0:0:0:
158,270,83777,2,0,B|147:227|147:227|157:177,1,95,10|0,0:0|3:0,0:0:0:0:
337,109,84128,6,0,P|284:101|236:78,1,95,2|0,3:2|3:0,0:0:0:0:
387,232,84480,2,0,P|440:224|488:201,1,95,10|0,0:0|3:0,0:0:0:0:
227,196,84831,1,2,3:2:0:0:
269,336,85007,1,0,3:0:0:0:
208,215,85183,2,0,L|106:203,1,95,8|0,0:0|3:0,0:0:0:0:
269,336,85534,6,0,B|315:348|315:348|360:333,1,95,2|0,3:2|3:0,0:0:0:0:
378,140,85886,1,10,0:0:0:0:
312,248,86062,1,2,3:2:0:0:
195,133,86237,2,0,P|145:115|100:108,1,95,2|0,3:2|3:0,0:0:0:0:
336,59,86589,2,0,P|386:41|431:34,1,95,10|0,0:0|3:0,0:0:0:0:
340,278,86941,5,2,3:2:0:0:
275,151,87116,1,0,3:0:0:0:
434,234,87292,2,0,B|447:284|447:284|433:333,1,95,8|2,0:0|3:2,0:0:0:0:
231,370,87644,2,0,B|219:328|219:328|232:278,1,95,2|0,3:2|3:0,0:0:0:0:
365,166,87995,1,8,0:0:0:0:
161,72,88171,1,0,3:0:0:0:
161,72,88259,1,0,0:0:0:0:
161,72,88347,6,0,P|148:117|144:164,1,95,2|0,3:2|3:0,0:0:0:0:
378,148,88698,2,0,P|390:193|393:249,1,95,10|2,0:0|3:2,0:0:0:0:
247,164,89050,1,2,3:2:0:0:
296,308,89226,1,0,3:0:0:0:
467,285,89401,1,10,0:0:0:0:
308,332,89577,1,0,3:0:0:0:
121,151,89753,6,0,L|110:262,1,95,2|0,3:2|3:0,0:0:0:0:
150,334,90017,1,0,0:0:0:0:
150,334,90104,1,8,0:0:0:0:
333,246,90280,1,0,3:0:0:0:
201,85,90456,5,2,3:2:0:0:
237,203,90632,1,0,3:0:0:0:
282,24,90807,1,8,0:0:0:0:
106,60,90983,1,0,3:0:0:0:
370,143,91159,6,0,L|373:49,1,95,2|0,3:2|3:0,0:0:0:0:
163,245,91511,2,0,L|161:151,1,95,10|2,0:0|3:2,0:0:0:0:
415,213,91862,1,2,3:2:0:0:
283,301,92038,1,0,3:0:0:0:
389,173,92214,1,8,0:0:0:0:
439,327,92389,1,0,3:0:0:0:
274,182,92565,6,0,P|263:134|265:80,1,95,2|0,3:2|3:0,0:0:0:0:
362,273,92917,2,0,P|362:320|351:366,1,95,10|2,0:0|3:2,0:0:0:0:
122,242,93268,1,2,3:2:0:0:
247,326,93444,1,0,3:0:0:0:
389,187,93620,1,10,0:0:0:0:
242,202,93796,1,0,3:0:0:0:
99,76,93971,6,0,P|145:99|190:104,1,95,2|0,3:2|3:0,0:0:0:0:
433,83,94323,2,0,P|386:89|344:111,1,95,10|2,0:0|3:2,0:0:0:0:
171,18,94674,1,2,3:2:0:0:
263,193,94850,1,0,3:0:0:0:
289,25,95026,1,10,0:0:0:0:
156,203,95202,1,0,3:0:0:0:
346,275,95377,6,0,P|384:178|333:103,1,190,2|8,3:2|0:0,0:0:0:0:
158,92,95905,1,0,3:0:0:0:
282,36,96081,1,2,3:2:0:0:
218,208,96256,1,0,3:0:0:0:
57,168,96432,1,8,0:0:0:0:
206,231,96608,1,0,3:0:0:0:
461,109,96784,5,2,3:2:0:0:
312,142,96959,1,2,3:2:0:0:
169,125,97135,1,10,0:0:0:0:
317,157,97311,1,2,3:2:0:0:
465,124,97487,2,0,B|479:76|479:76|466:30,1,95,2|0,3:2|3:0,0:0:0:0:
205,61,97838,2,0,B|192:104|192:104|206:152,1,95,10|0,0:0|3:0,0:0:0:0:
395,206,98190,5,2,3:2:0:0:
257,269,98366,1,2,3:2:0:0:
109,233,98541,1,10,0:0:0:0:
248,291,98717,1,2,3:2:0:0:
419,286,98893,2,0,B|432:237|432:237|414:191,1,95,2|0,3:2|3:0,0:0:0:0:
224,71,99244,2,0,B|207:112|207:112|220:161,1,95,10|0,0:0|3:0,0:0:0:0:
383,55,99596,5,2,3:2:0:0:
345,218,99772,1,0,3:0:0:0:
220,161,99947,1,10,0:0:0:0:
257,323,100123,1,2,3:2:0:0:
416,261,100299,2,0,L|510:248,1,95,2|0,3:2|3:0,0:0:0:0:
243,187,100651,2,0,L|149:174,1,95,10|0,0:0|3:0,0:0:0:0:
356,13,101002,6,0,P|390:81|337:193,1,190,2|8,3:2|0:0,0:0:0:0:
221,253,101529,1,0,3:0:0:0:
88,115,101705,2,0,P|152:93|197:99,1,95,2|0,3:2|3:0,0:0:0:0:
351,182,102057,1,8,0:0:0:0:
186,245,102233,1,0,3:0:0:0:
452,253,102408,6,0,L|447:158,1,95,2|0,3:2|3:0,0:0:0:0:
270,144,102760,2,0,L|274:49,1,95,10|2,0:0|3:2,0:0:0:0:
110,203,103111,1,2,3:2:0:0:
294,170,103287,1,0,3:0:0:0:
98,278,103463,2,0,L|94:184,1,95,10|0,0:2|3:0,0:0:0:0:
256,346,103814,6,0,P|302:322|367:325,1,95,2|0,3:2|3:0,0:0:0:0:
470,194,104166,2,0,P|422:190|381:167,1,95,10|2,0:0|3:2,0:0:0:0:
222,46,104518,1,2,3:2:0:0:
281,238,104693,1,0,3:0:0:0:
345,49,104869,1,10,0:0:0:0:
182,163,105045,1,0,3:0:0:0:
45,48,105221,6,0,P|89:19|141:13,1,95,2|0,3:2|3:0,0:0:0:0:
331,130,105572,2,0,P|284:121|245:94,1,95,10|2,0:0|3:2,0:0:0:0:
457,53,105924,1,2,3:2:0:0:
427,230,106099,1,0,3:0:0:0:
248,219,106275,1,10,0:0:0:0:
438,214,106451,1,0,3:0:0:0:
251,310,106627,6,0,B|236:263|236:263|248:217,1,95,2|0,3:2|3:0,0:0:0:0:
505,174,106978,2,0,B|516:218|516:218|501:265,1,95,8|0,0:0|3:0,0:0:0:0:
326,131,107330,1,2,3:2:0:0:
376,266,107506,1,0,3:0:0:0:
464,43,107681,1,8,0:0:0:0:
414,178,107857,1,0,3:0:0:0:
250,86,108033,5,2,3:2:0:0:
464,43,108209,1,2,3:2:0:0:
165,72,108384,1,10,0:0:0:0:
393,99,108560,1,2,3:2:0:0:
89,123,108736,2,0,B|76:74|76:74|88:22,1,95,2|0,3:2|3:0,0:0:0:0:
319,134,109088,2,0,B|328:177|328:177|315:226,1,95,10|0,0:0|3:0,0:0:0:0:
183,140,109439,5,2,3:2:0:0:
222,341,109615,1,2,3:2:0:0:
197,55,109791,1,10,0:0:0:0:
166,270,109966,1,2,3:2:0:0:
105,58,110142,2,0,B|152:45|152:45|206:57,1,95,2|0,3:2|3:0,0:0:0:0:
312,217,110494,2,0,B|267:230|267:230|220:221,1,95,10|0,0:0|3:0,0:0:0:0:
405,151,110845,6,0,L|402:259,1,95,2|0,3:2|3:0,0:0:0:0:
247,135,111197,1,10,0:0:0:0:
312,310,111373,1,2,3:2:0:0:
169,219,111548,2,0,L|73:209,1,95,2|0,3:2|3:0,0:0:0:0:
254,96,111900,2,0,L|350:86,1,95,10|0,0:0|3:0,0:0:0:0:
380,260,112251,6,0,P|400:175|486:189,1,190,2|8,3:2|0:0,0:0:0:0:
441,362,112779,1,0,3:0:0:0:
280,294,112954,2,0,L|174:286,1,95,2|0,3:2|3:0,0:0:0:0:
75,155,113306,2,0,L|181:147,1,95,8|0,0:0|3:0,0:0:0:0:
365,53,113658,5,6,3:2:0:0:
289,188,113833,1,0,3:0:0:0:
380,31,114009,2,0,L|474:23,1,95,10|0,0:0|3:0,0:0:0:0:
274,208,114361,2,0,L|179:200,1,95,2|0,3:2|3:0,0:0:0:0:
398,313,114712,2,0,B|414:267|414:267|401:212,1,95,10|0,0:0|3:0,0:0:0:0:
179,200,115064,5,2,3:2:0:0:
336,72,115239,2,0,B|352:118|352:118|339:173,1,95,2|8,3:2|0:0,0:0:0:0:
94,239,115591,2,0,B|83:193|83:193|99:147,1,95,2|0,3:2|3:0,0:0:0:0:
276,229,115943,1,2,3:2:0:0:
276,229,116030,1,0,0:0:0:0:
276,229,116118,2,0,P|323:216|372:215,1,95,10|0,0:0|3:0,0:0:0:0:
223,328,116470,6,0,B|174:332|174:332|130:313,1,95,6|0,3:2|3:0,0:0:0:0:
48,110,116821,2,0,L|42:204,1,95,8|0,0:0|3:0,0:0:0:0:
317,173,117173,1,2,3:2:0:0:
167,26,117349,2,0,L|172:120,1,95,2|8,3:2|0:0,0:0:0:0:
336,210,117700,6,0,P|368:174|383:119,1,95,2|0,3:2|3:0,0:0:0:0:
168,264,118052,1,2,3:2:0:0:
168,264,118140,1,0,0:0:0:0:
168,264,118228,2,0,P|141:214|114:181,1,95,10|0,0:0|3:0,0:0:0:0:
352,299,118579,2,0,P|390:263|430:239,1,95,2|0,3:2|3:0,0:0:0:0:
152,358,118931,2,0,P|107:340|67:315,1,95,10|0,0:0|3:0,0:0:0:0:
282,167,119282,5,6,3:2:0:0:
232,271,119458,1,0,3:0:0:0:
200,93,119634,1,8,0:0:0:0:
380,122,119809,1,0,3:0:0:0:
102,196,119985,1,2,3:2:0:0:
282,167,120161,1,0,3:0:0:0:
436,230,120337,1,10,0:0:0:0:
256,201,120513,1,0,3:0:0:0:
368,89,120688,5,2,3:2:0:0:
466,209,120864,2,0,L|457:307,1,95,2|8,3:2|0:0,0:0:0:0:
340,99,121216,2,0,L|349:4,1,95,2|0,3:2|3:0,0:0:0:0:
196,181,121567,1,2,3:2:0:0:
190,149,121655,1,0,0:0:0:0:
184,117,121743,1,10,0:0:0:0:
117,258,121919,1,0,3:0:0:0:
291,126,122094,6,0,L|391:119,1,95,6|0,3:2|3:0,0:0:0:0:
211,264,122446,2,0,L|111:257,1,95,10|0,0:0|3:0,0:0:0:0:
453,228,122798,1,2,3:2:0:0:
291,126,122973,2,0,B|276:172|276:172|291:224,1,95,2|8,3:2|0:0,0:0:0:0:
119,348,123325,6,0,B|131:303|131:303|116:257,1,95,2|0,3:2|3:0,0:0:0:0:
186,91,123676,2,0,L|180:154,1,47.5,2|0,3:2|0:0,0:0:0:0:
266,33,123852,1,8,0:0:0:0:
363,152,124028,6,0,P|418:185|386:110,1,190,2|2,3:2|3:2,0:0:0:0:
268,126,124555,5,8,0:0:0:0:
266,154,124643,1,0,0:0:0:0:
264,182,124731,1,0,3:0:0:0:
262,211,124819,1,0,0:0:0:0:
260,239,124907,6,0,L|164:233,1,95,6|0,3:2|3:0,0:0:0:0:
353,339,125258,2,0,L|449:333,1,95,10|0,0:0|3:0,0:0:0:0:
378,185,125610,1,2,3:2:0:0:
248,337,125786,1,0,3:0:0:0:
389,156,125961,2,0,L|485:150,1,95,10|0,0:0|3:0,0:0:0:0:
260,239,126313,5,2,3:2:0:0:
164,116,126489,2,0,L|62:112,1,95,2|8,3:2|0:0,0:0:0:0:
167,265,126840,2,0,L|269:261,1,95,2|0,3:2|3:0,0:0:0:0:
350,30,127192,1,2,3:2:0:0:
320,32,127280,1,0,0:0:0:0:
290,37,127368,2,0,P|270:87|275:138,1,95,10|0,0:0|3:0,0:0:0:0:
431,182,127719,5,6,3:2:0:0:
223,218,127895,1,0,3:0:0:0:
450,174,128071,2,0,L|444:268,1,95,8|0,0:0|3:0,0:0:0:0:
199,195,128422,1,2,3:2:0:0:
310,45,128598,2,0,L|315:139,1,95,2|8,3:2|0:0,0:0:0:0:
427,76,128949,1,2,3:2:0:0:
172,134,129125,6,0,B|155:179|155:179|171:234,1,95,0|2,3:0|3:2,0:0:0:0:
230,310,129389,1,0,0:0:0:0:
230,310,129477,1,10,0:0:0:0:
404,258,129653,1,0,3:0:0:0:
271,135,129828,1,2,3:2:0:0:
333,335,130004,1,0,3:0:0:0:
372,158,130180,1,10,0:0:0:0:
200,211,130356,1,0,3:0:0:0:
462,209,130531,6,0,B|478:160|478:160|460:101,1,95,6|0,3:2|3:0,0:0:0:0:
174,43,130883,2,0,B|160:86|160:86|171:134,1,95,8|0,0:0|3:0,0:0:0:0:
340,70,131234,1,2,3:2:0:0:
256,257,131410,1,0,3:0:0:0:
171,134,131586,1,10,0:0:0:0:
365,188,131762,1,0,3:0:0:0:
134,243,131938,5,2,3:2:0:0:
362,282,132113,2,0,L|365:188,1,95,2|8,3:2|0:0,0:0:0:0:
257,30,132465,2,0,L|255:125,1,95,2|0,3:2|3:0,0:0:0:0:
84,165,132816,1,2,3:2:0:0:
79,142,132904,1,0,0:0:0:0:
74,119,132992,1,10,0:0:0:0:
183,258,133168,1,0,3:0:0:0:
372,226,133344,6,0,B|383:271|383:271|369:325,1,95,6|0,3:2|3:0,0:0:0:0:
183,258,133695,2,0,B|170:211|170:211|182:165,1,95,10|0,0:0|3:0,0:0:0:0:
384,128,134047,1,2,3:2:0:0:
309,272,134223,1,2,3:2:0:0:
268,38,134398,1,8,0:0:0:0:
81,180,134574,6,0,L|175:172,1,95,2|0,3:2|3:0,0:0:0:0:
384,128,134926,1,2,3:2:0:0:
309,272,135101,1,8,0:0:0:0:
268,38,135277,1,2,3:2:0:0:
193,273,135453,1,0,3:0:0:0:
291,174,135629,1,2,3:2:0:0:
95,38,135804,5,0,1:0:0:0:
90,85,135892,1,0,1:0:0:0:
85,132,135980,1,0,1:0:0:0:
81,180,136068,1,0,1:0:0:0:
96,96,141078,53,2,0:0:0:0:
416,96,141429,1,2,0:0:0:0:
256,192,141781,1,2,0:0:0:0:
366,57,146351,5,2,0:0:0:0:
136,148,146702,1,2,0:0:0:0:
329,300,147054,1,2,0:0:0:0:
329,300,147405,6,0,L|431:292,1,95,0|0,3:0|3:0,0:0:0:0:
243,142,147757,1,10,0:0:0:0:
353,178,147933,1,0,0:0:0:0:
353,178,148020,1,0,0:0:0:0:
353,178,148108,1,2,3:2:0:0:
223,41,148284,1,2,3:2:0:0:
167,219,148460,1,8,0:0:0:0:
434,221,148636,6,0,B|448:175|448:175|432:120,1,95,2|0,3:2|3:0,0:0:0:0:
243,142,148987,1,2,3:2:0:0:
330,58,149163,1,10,0:0:0:0:
264,262,149339,1,0,0:0:0:0:
115,98,149515,1,2,3:2:0:0:
243,142,149690,1,0,3:0:0:0:
22,175,149866,1,10,0:0:0:0:
234,128,150042,1,0,3:0:0:0:
157,339,150218,5,2,3:2:0:0:
141,217,150393,1,2,3:2:0:0:
280,140,150569,1,8,0:0:0:0:
264,262,150745,1,2,3:2:0:0:
22,175,150921,2,0,P|61:140|125:130,1,95,2|0,3:2|3:0,0:0:0:0:
363,180,151272,2,0,P|308:162|271:129,1,95,10|2,0:0|3:2,0:0:0:0:
480,111,151624,5,2,3:2:0:0:
499,256,151800,1,2,3:2:0:0:
382,35,151975,1,8,0:0:0:0:
363,180,152151,1,2,3:2:0:0:
187,101,152327,2,0,B|232:82|232:82|285:100,1,95,2|0,3:2|3:0,0:0:0:0:
163,291,152678,2,0,B|119:305|119:305|74:286,1,95,10|0,0:0|3:0,0:0:0:0:
123,19,153030,6,0,P|144:77|127:209,1,190,2|10,3:2|0:0,0:0:0:0:
3,139,153557,1,0,3:0:0:0:
262,212,153733,1,2,3:2:0:0:
74,286,153909,1,2,3:2:0:0:
261,234,154085,1,8,0:0:0:0:
17,126,154260,6,0,B|1:171|1:171|16:218,1,95,2|0,3:2|3:0,0:0:0:0:
174,286,154612,1,2,3:2:0:0:
355,196,154788,2,0,B|370:241|370:241|355:290,1,95,10|0,0:0|3:0,0:0:0:0:
251,116,155139,1,2,3:2:0:0:
174,286,155315,1,0,3:0:0:0:
166,175,155491,1,10,0:0:0:0:
265,335,155666,1,0,3:0:0:0:
71,213,155842,6,0,B|58:164|58:164|69:121,1,95,6|0,3:2|3:0,0:0:0:0:
352,99,156194,2,0,B|363:141|363:141|350:190,1,95,10|0,0:0|3:0,0:0:0:0:
187,323,156545,2,0,B|174:274|174:274|185:231,1,95,2|0,3:2|3:0,0:0:0:0:
468,209,156897,2,0,B|479:251|479:251|466:300,1,95,10|0,0:0|3:0,0:0:0:0:
185,231,157248,5,0,3:0:0:0:
307,301,157424,1,0,3:0:0:0:
326,97,157600,1,10,0:0:0:0:
285,201,157776,1,0,3:0:0:0:
177,8,157951,1,2,3:2:0:0:
218,112,158127,1,0,3:0:0:0:
391,178,158303,1,10,0:0:0:0:
171,204,158479,1,0,3:0:0:0:
473,226,158655,6,0,B|485:178|485:178|469:129,1,95,0|0,3:0|3:0,0:0:0:0:
218,112,159006,1,10,0:0:0:0:
354,35,159182,1,0,0:0:0:0:
354,35,159270,1,0,0:0:0:0:
354,35,159358,1,2,3:2:0:0:
342,228,159533,1,2,3:2:0:0:
470,134,159709,1,8,0:0:0:0:
218,112,159885,6,0,B|204:158|204:158|217:203,1,95,2|0,3:2|3:0,0:0:0:0:
371,135,160236,1,2,3:2:0:0:
143,36,160412,1,10,0:0:0:0:
284,21,160588,1,0,0:0:0:0:
217,203,160764,1,2,3:2:0:0:
75,185,160940,1,0,3:0:0:0:
284,126,161115,1,10,0:0:0:0:
308,274,161291,1,0,3:0:0:0:
101,212,161467,6,0,P|106:163|120:110,1,95,2|2,3:2|3:2,0:0:0:0:
285,202,161818,1,8,0:0:0:0:
223,339,161994,1,2,3:2:0:0:
40,305,162170,2,0,P|15:261|-2:210,1,95,2|0,3:2|3:0,0:0:0:0:
211,198,162521,1,10,0:0:0:0:
95,149,162697,1,2,3:2:0:0:
332,138,162873,5,2,3:2:0:0:
279,289,163049,1,2,3:2:0:0:
187,101,163225,1,8,0:0:0:0:
342,60,163400,1,2,3:2:0:0:
105,39,163576,2,0,P|87:90|98:142,1,95,2|0,3:2|3:0,0:0:0:0:
279,289,163928,2,0,P|283:242|266:198,1,95,10|0,0:0|3:0,0:0:0:0:
392,112,164279,6,0,P|456:156|432:86,1,190,2|10,3:2|0:0,0:0:0:0:
148,154,164806,1,0,3:0:0:0:
305,99,164982,1,2,3:2:0:0:
263,230,165158,1,2,3:2:0:0:
220,37,165334,1,8,0:0:0:0:
21,103,165510,6,0,B|8:149|8:149|24:203,1,95,2|0,3:2|3:0,0:0:0:0:
128,290,165861,1,2,3:2:0:0:
277,182,166037,2,0,L|376:172,1,95,10|0,0:0|3:0,0:0:0:0:
209,321,166388,2,0,L|110:311,1,95,2|0,3:2|3:0,0:0:0:0:
154,113,166740,1,10,0:0:0:0:
193,227,166916,1,0,3:0:0:0:
353,95,167091,6,0,B|353:79|353:79|344:56|344:56|361:51|361:51|353:31|353:31|353:14,1,95,6|0,3:2|3:0,0:0:0:0:
167,125,167443,2,0,B|167:109|167:109|176:86|176:86|159:81|159:81|167:61|167:61|167:44,1,95,10|0,0:0|3:0,0:0:0:0:
451,203,167795,2,0,B|451:187|451:187|442:164|442:164|459:159|459:159|451:139|451:139|451:122,1,95,2|0,3:2|3:0,0:0:0:0:
250,280,168146,2,0,B|250:264|250:264|259:241|259:241|242:236|242:236|250:216|250:216|250:199,1,95,10|0,0:0|3:0,0:0:0:0:
96,130,168498,6,0,B|96:146|96:146|105:169|105:169|88:174|88:174|96:194|96:194|96:210,1,95,0|0,3:0|3:0,0:0:0:0:
353,67,168849,2,0,B|353:83|353:83|344:106|344:106|361:111|361:111|353:131|353:131|353:147,1,95,10|0,0:0|3:0,0:0:0:0:
201,11,169201,2,0,B|201:27|201:27|210:50|210:50|193:55|193:55|201:75|201:75|201:91,1,95,2|0,3:2|3:0,0:0:0:0:
159,346,169552,5,10,0:0:0:0:
256,181,169728,1,0,3:0:0:0:
348,346,169904,1,2,0:0:0:0:
290,84,175528,5,2,3:2:0:0:
290,299,175704,1,0,3:0:0:0:
164,125,175880,1,10,0:0:0:0:
369,192,176056,1,0,0:0:0:0:
164,258,176231,5,2,3:2:0:0:
290,84,176407,1,0,3:0:0:0:
290,299,176583,1,10,0:0:0:0:
164,125,176759,1,0,0:0:0:0:
387,99,176935,6,0,P|383:146|369:192,1,95,2|0,0:0|0:0,0:0:0:0:
145,313,177286,2,0,P|131:268|127:221,1,95,10|0,0:0|0:0,0:0:0:0:
344,197,177638,5,2,3:2:0:0:
141,211,177813,1,0,3:0:0:0:
223,114,177989,1,10,0:0:0:0:
252,297,178165,1,0,0:0:0:0:
233,86,178341,5,2,0:0:0:0:
256,192,178429,12,0,180274,0:0:0:0:
