osu file format v14

[General]
AudioFilename: Asriel Dreemurr Theme.mp3
AudioLeadIn: 0
PreviewTime: 21322
Countdown: 0
SampleSet: Soft
StackLeniency: 0.7
Mode: 0
LetterboxInBreaks: 0
WidescreenStoryboard: 0

[Editor]
DistanceSpacing: 0.1
BeatDivisor: 4
GridSize: 4
TimelineZoom: 1.3

[Metadata]
Title:Hopes and Dreams
TitleUnicode:Hopes and Dreams
Artist:toby fox
ArtistUnicode:toby fox
Creator:Fatfan Kolek
Version:Rumi's Insane
Source:UNDERTALE
Tags:Little CloudSplash16 Mazziv Rumia- MoeMoeKyunNN asriel dreemurr
BeatmapID:923907
BeatmapSetID:414432

[Difficulty]
HPDrainRate:6
CircleSize:4
OverallDifficulty:8
ApproachRate:9
SliderMultiplier:1.6
SliderTickRate:1

[Events]
//Background and Video events
0,0,"wallhaven-280596.jpg",0,0
//Break Periods
2,168992,172762
//Storyboard Layer 0 (Background)
//Storyboard Layer 1 (Fail)
//Storyboard Layer 2 (Pass)
//Storyboard Layer 3 (Foreground)
//Storyboard Sound Samples

[TimingPoints]
84,351.539155602948,4,2,8,25,1,0
84,-133.333333333333,4,2,8,25,0,0
21176,-80,4,1,7,55,0,0
21322,351.539155602948,4,2,7,60,1,0
22552,351.539155602948,4,2,7,60,1,1
22552,-80,4,2,7,60,0,1
45050,-100,4,2,7,35,0,0
45753,-100,4,2,7,35,0,0
49532,-100,4,2,7,5,0,0
49620,-100,4,2,7,35,0,0
49884,-100,4,2,7,5,0,0
49972,-100,4,2,7,35,0,0
55157,-100,4,2,7,5,0,0
55245,-100,4,2,7,5,0,0
55508,-100,4,2,7,5,0,0
55596,-100,4,2,7,35,0,0
66054,-100,4,2,7,5,0,0
66142,-100,4,2,7,35,0,0
66406,-100,4,2,7,5,0,0
66494,-100,4,2,7,35,0,0
66758,-100,4,2,7,5,0,0
66845,-100,4,2,7,35,0,0
67549,-86.9565217391304,4,2,7,65,0,1
78798,-80,4,2,7,65,0,1
90047,-80,4,1,7,55,0,0
101296,-80,4,2,7,55,0,0
101384,-80,4,1,7,55,0,0
112546,-80,4,2,7,65,0,1
134868,-200,4,2,7,65,0,0
134956,-200,4,2,8,25,0,0
139966,-133.333333333333,4,2,7,35,0,0
140317,-100,4,2,7,25,0,0
140669,-100,4,2,7,35,0,0
141020,-133.333333333333,4,2,8,25,0,0
145942,-100,4,2,7,55,0,0
146293,-80,4,1,7,55,0,0
168792,-100,4,2,7,30,0,0
174416,-80,4,2,7,55,0,0
177229,-125,4,2,7,35,0,0
177317,-125,4,2,7,10,0,0
179338,-125,4,2,7,15,0,0

[Colours]
Combo1 : 255,30,221
Combo2 : 255,30,30
Combo3 : 242,115,0
Combo4 : 255,255,15
Combo5 : 108,255,38
Combo6 : 36,146,255
Combo7 : 13,49,255
Combo8 : 131,30,255

[HitObjects]
184,192,84,6,0,P|192:128|184:60,1,120.000004577637,2|0,0:0|0:0,0:0:0:0:
96,248,611,1,0,0:0:0:0:
176,316,787,2,0,P|228:324|308:308,1,120.000004577637,2|0,0:0|0:0,0:0:0:0:
360,240,1314,1,0,0:0:0:0:
288,80,1490,6,0,P|272:136|291:199,1,120.000004577637,2|0,0:0|0:0,0:0:0:0:
384,136,2017,1,0,0:0:0:0:
360,240,2193,2,0,L|368:308,1,60.0000022888184
384,136,2544,2,0,L|388:60,1,60.0000022888184
202,195,2896,6,0,P|212:137|260:104,1,120.000004577637,2|0,0:0|0:0,0:0:0:0:
368,240,3423,1,0,0:0:0:0:
264,268,3599,2,0,L|124:268,1,120.000004577637,2|0,0:0|0:0,0:0:0:0:
28,160,4126,1,0,0:0:0:0:
112,220,4302,6,0,L|232:220,1,120.000004577637,2|0,0:0|0:0,0:0:0:0:
342,156,4829,1,0,0:0:0:0:
427,224,5005,2,0,P|435:256|427:296,1,60.0000022888184
342,156,5357,2,0,P|351:124|377:93,1,60.0000022888184
272,224,5708,6,0,B|220:244|180:216|180:216|204:204,1,120.000004577637,2|0,0:0|0:0,0:0:0:0:
342,156,6235,1,0,0:0:0:0:
356,260,6411,2,0,B|376:312|348:352|348:352|336:328,1,120.000004577637,2|0,0:0|0:0,0:0:0:0:
342,156,6939,1,0,0:0:0:0:
272,224,7114,6,0,B|233:264|185:255|185:255|201:234,1,120.000004577637,2|0,0:0|0:0,0:0:0:0:
342,156,7642,2,0,B|352:101|318:66|318:66|310:92,1,120.000004577637
372,244,8169,2,0,P|408:224|428:196,1,60.0000022888184,2|0,0:0|0:0,0:0:0:0:
320,64,8520,6,0,P|284:84|264:112,1,60.0000022888184,2|0,0:0|0:0,0:0:0:0:
406,111,9048,1,0,0:0:0:0:
327,77,9224,2,0,P|287:87|260:108,1,60.0000022888184,2|0,0:0|0:0,0:0:0:0:
412,120,9751,1,0,0:0:0:0:
328,268,9927,5,2,0:0:0:0:
296,184,10102,1,0,0:0:0:0:
316,96,10278,1,0,0:0:0:0:
388,40,10454,1,0,0:0:0:0:
408,128,10630,5,0,0:0:0:0:
316,96,10805,1,0,0:0:0:0:
388,40,10981,1,0,0:0:0:0:
332,188,11157,1,0,0:0:0:0:
224,48,11333,6,0,B|216:92|216:92|224:124|224:124|217:165,1,120.000004577637,2|0,0:0|0:0,0:0:0:0:
128,132,11860,1,0,0:0:0:0:
224,48,12036,2,0,L|296:56,1,60.0000022888184,2|0,0:0|0:0,0:0:0:0:
217,165,12387,2,0,L|292:160,1,60.0000022888184
448,92,12739,6,0,B|400:84|400:84|364:156,1,120.000004577637,2|0,0:0|0:0,0:0:0:0:
329,234,13266,1,0,0:0:0:0:
276,161,13441,1,0,0:0:0:0:
190,188,13617,1,0,0:0:0:0:
190,278,13793,1,0,0:0:0:0:
276,306,13969,1,0,0:0:0:0:
111,333,14145,6,0,P|99:253|127:201,1,120.000004577637,2|0,0:0|0:0,0:0:0:0:
190,278,14672,1,0,0:0:0:0:
267,336,14848,2,0,P|283:279|269:221,1,120.000004577637,2|0,0:0|0:0,0:0:0:0:
216,148,15375,1,0,0:0:0:0:
276,80,15551,6,0,B|308:84|326:73|326:73|348:88|348:88|376:76|409:76,1,120.000004577637,2|0,0:0|0:0,0:0:0:0:
492,160,16079,1,0,0:0:0:0:
396,156,16254,1,0,0:0:0:0:
436,244,16430,1,0,0:0:0:0:
500,172,16606,1,0,0:0:0:0:
408,144,16782,1,0,0:0:0:0:
420,240,16957,6,0,P|356:228|284:248,1,120.000004577637,2|0,0:0|0:0,0:0:0:0:
232,304,17485,1,0,0:0:0:0:
204,212,17660,2,0,P|192:152|212:88,1,120.000004577637,2|0,0:0|0:0,0:0:0:0:
312,152,18188,1,0,0:0:0:0:
384,52,18364,6,0,P|326:36|268:48,1,120.000004577637,2|0,0:0|0:0,0:0:0:0:
392,140,18891,2,0,P|328:152|284:208,1,120.000004577637
440,220,19418,2,0,P|416:244|404:276,1,60.0000022888184,2|0,0:0|0:0,0:0:0:0:
264,80,19770,5,2,0:0:0:0:
248,88,20473,1,2,0:0:0:0:
228,100,21176,1,0,0:0:0:0:
404,156,21322,1,0,0:0:0:0:
404,156,21409,1,0,0:0:0:0:
404,156,21497,5,0,0:0:0:0:
300,123,21673,1,0,0:0:0:0:
235,211,21849,1,0,0:0:0:0:
300,300,22025,1,0,0:0:0:0:
404,266,22200,1,0,0:0:0:0:
404,156,22376,1,0,0:0:0:0:
235,211,22552,6,0,P|188:216|124:204,1,100
76,120,22903,1,8,0:0:0:0:
136,208,23079,2,0,P|140:264|124:328,1,100
180,112,23430,1,0,0:0:0:0:
76,120,23606,2,0,P|72:64|88:0,1,100,8|0,0:0|0:0,0:0:0:0:
180,112,23958,5,0,0:0:0:0:
232,192,24133,1,0,0:0:0:0:
136,208,24309,1,8,0:0:0:0:
180,112,24485,1,0,0:0:0:0:
232,192,24661,2,0,P|236:256|216:320,1,100
40,228,25012,2,0,P|36:164|56:100,1,100,8|0,0:0|0:0,0:0:0:0:
216,49,25364,6,0,B|261:38|300:60|300:60|344:36|344:36|376:48|428:40,1,200,0|8,0:0|0:0,0:0:0:0:
408,212,25891,1,0,0:0:0:0:
416,128,26067,2,0,P|360:140|360:280,1,200,0|8,0:0|0:0,0:0:0:0:
480,344,26594,1,0,0:0:0:0:
420,260,26770,5,0,0:0:0:0:
488,168,26946,2,0,P|500:128|492:64,1,100,0|8,0:0|0:0,0:0:0:0:
328,176,27297,1,0,0:0:0:0:
416,140,27473,2,0,P|446:111|471:51,1,100
376,264,27825,2,0,P|385:304|424:356,1,100,8|0,0:0|0:0,0:0:0:0:
264,176,28176,5,0,0:0:0:0:
180,144,28352,1,0,0:0:0:0:
100,188,28528,1,8,0:0:0:0:
84,276,28703,1,0,0:0:0:0:
208,344,28879,2,0,B|200:236,1,100
104,360,29231,1,8,0:0:0:0:
244,312,29407,6,0,B|236:196,1,100
88,172,29758,2,0,P|48:204|36:252,1,100,0|8,0:0|0:0,0:0:0:0:
152,352,30110,1,0,0:0:0:0:
220,272,30285,1,0,0:0:0:0:
124,256,30461,1,0,0:0:0:0:
296,328,30637,2,0,P|312:264|296:212,1,100,8|0,0:0|0:0,0:0:0:0:
236,156,30988,6,0,B|312:148|312:148|368:172|368:172|456:164,1,200,0|8,0:0|0:0,0:0:0:0:
388,80,31516,1,0,0:0:0:0:
293,235,31692,1,0,0:0:0:0:
468,232,31867,1,0,0:0:0:0:
336,160,32043,1,8,0:0:0:0:
496,80,32219,1,0,0:0:0:0:
384,264,32395,5,0,0:0:0:0:
400,100,32570,1,0,0:0:0:0:
504,200,32746,1,8,0:0:0:0:
296,168,32922,1,0,0:0:0:0:
372,336,33098,5,0,0:0:0:0:
408,188,33273,1,0,0:0:0:0:
220,240,33449,1,8,0:0:0:0:
444,276,33625,1,0,0:0:0:0:
276,317,33801,6,0,P|324:337|380:333,1,100
220,240,34152,1,8,0:0:0:0:
132,304,34328,2,0,P|112:252|120:204,1,100
172,44,34680,1,0,0:0:0:0:
220,192,34855,2,0,L|228:320,1,100,8|0,0:0|0:0,0:0:0:0:
57,128,35207,6,0,P|93:108|150:114,2,100,0|0|8,0:0|0:0|0:0,0:0:0:0:
115,200,35734,1,0,0:0:0:0:
169,278,35910,2,0,P|113:294|45:266,1,100
207,182,36262,2,0,P|263:166|331:194,1,100,8|0,0:0|0:0,0:0:0:0:
392,240,36613,6,0,B|400:176|400:176|388:140|388:140|400:108|400:108|384:24,1,200,0|8,0:0|0:0,0:0:0:0:
296,8,37140,1,0,0:0:0:0:
224,84,37316,2,0,B|154:75|154:75|101:85|101:85|23:73,1,200,0|8,0:0|0:0,0:0:0:0:
152,264,37843,1,0,0:0:0:0:
324,164,38019,5,0,0:0:0:0:
151,263,38195,2,0,L|145:164,1,100,0|8,0:0|0:0,0:0:0:0:
232,312,38547,1,0,0:0:0:0:
256,108,38722,2,0,P|315:75|371:95,1,100
392,216,39074,2,0,P|333:249|277:229,1,100,8|0,0:0|0:0,0:0:0:0:
208,168,39425,6,0,B|152:152|152:152|112:176|112:176|80:156|80:156|12:176,1,200,0|8,0:0|0:0,0:0:0:0:
120,72,39953,1,0,0:0:0:0:
24,264,40128,2,0,P|88:248|52:340,1,200,0|8,0:0|0:0,0:0:0:0:
200,144,40656,1,0,0:0:0:0:
233,281,40832,6,0,B|273:277|273:277|297:261|297:261|345:257,1,100
200,144,41183,2,0,B|160:140|160:140|136:124|136:124|88:120,1,100,8|0,0:0|0:0,0:0:0:0:
292,96,41535,2,0,P|352:92|404:64,1,100
458,142,41886,2,0,P|406:106|382:62,1,100,8|0,0:0|0:0,0:0:0:0:
328,259,42238,6,0,B|340:178|340:178|372:147|372:147|391:51,1,200,0|8,0:0|0:0,0:0:0:0:
292,96,42765,1,0,0:0:0:0:
412,232,42941,2,0,P|335:171|252:215,1,200,0|8,0:0|0:0,0:0:0:0:
320,364,43468,1,0,0:0:0:0:
176,240,43644,5,0,0:0:0:0:
152,368,43820,1,0,0:0:0:0:
248,320,43995,1,8,0:0:0:0:
80,280,44171,1,0,0:0:0:0:
172,140,44347,5,0,0:0:0:0:
56,172,44523,1,0,0:0:0:0:
92,52,44698,1,8,0:0:0:0:
144,240,44874,1,0,0:0:0:0:
96,144,45050,5,0,0:0:0:0:
108,128,45402,1,8,0:0:0:0:
120,112,45753,1,2,0:0:0:0:
248,52,45929,2,0,L|264:132,1,80
260,272,46456,5,0,0:0:0:0:
240,260,46808,1,8,0:0:0:0:
220,248,47159,1,2,0:0:0:0:
136,152,47335,2,0,L|228:136,1,80
380,180,47862,5,0,0:0:0:0:
392,200,48214,1,8,0:0:0:0:
476,172,48390,1,0,0:0:0:0:
404,224,48565,2,0,L|396:316,1,80,2|0,0:0|0:0,0:0:0:0:
280,352,48917,2,0,L|272:264,1,80
168,244,49268,6,0,P|112:260|43:214,1,120
120,165,49620,2,0,P|176:149|245:195,1,120,8|0,0:0|0:0,0:0:0:0:
260,256,49972,2,0,L|260:344,2,80,2|0|0,0:0|0:0|0:0,0:0:0:0:
264,80,50675,5,0,0:0:0:0:
264,60,51026,1,8,0:0:0:0:
264,40,51378,1,2,0:0:0:0:
264,144,51553,2,0,L|264:232,1,80
380,280,52081,5,0,0:0:0:0:
380,300,52432,1,8,0:0:0:0:
380,320,52784,1,2,0:0:0:0:
380,216,52960,2,0,L|380:128,1,80
248,264,53487,5,0,0:0:0:0:
220,280,53838,1,8,0:0:0:0:
176,184,54014,1,0,0:0:0:0:
220,280,54190,2,0,L|320:284,1,80,2|0,0:0|0:0,0:0:0:0:
176,184,54542,6,0,L|80:188,1,80
237,97,54893,2,0,L|374:102,1,120
451,146,55245,2,0,P|460:88|439:33,1,120,8|0,0:0|0:0,0:0:0:0:
345,12,55596,1,2,0:0:0:0:
357,193,55772,1,0,0:0:0:0:
237,97,55948,1,0,0:0:0:0:
428,148,56299,6,0,P|440:216|420:304,2,160,0|8|2,0:0|0:0|0:0,0:0:0:0:
332,88,57178,2,0,B|292:100|292:100|240:88,1,80
184,248,57705,6,0,B|240:232|256:212|256:212|281:238|329:246,2,160,0|8|2,0:0|0:0|0:0,0:0:0:0:
112,160,58584,1,0,0:0:0:0:
80,248,58760,2,0,P|92:296|124:332,1,80
252,304,59112,5,0,0:0:0:0:
252,304,59463,1,8,0:0:0:0:
328,324,59639,1,0,0:0:0:0:
404,300,59815,1,2,0:0:0:0:
456,240,59990,1,0,0:0:0:0:
476,164,60166,6,0,L|472:76,1,80
372,24,60518,2,0,L|368:112,1,80
268,172,60869,2,0,L|264:84,1,80,8|0,0:0|0:0,0:0:0:0:
164,32,61221,2,0,L|160:120,1,80,2|0,0:0|0:0,0:0:0:0:
64,176,61572,2,0,L|58:96,1,80
64,332,61924,5,0,0:0:0:0:
224,240,62275,1,8,0:0:0:0:
64,176,62627,2,0,L|56:88,2,80,2|0|0,0:0|0:0|0:0,0:0:0:0:
288,336,63330,5,0,0:0:0:0:
128,244,63682,1,8,0:0:0:0:
288,152,64033,2,0,L|296:64,2,80,2|0|0,0:0|0:0|0:0,0:0:0:0:
288,328,64736,6,0,L|376:328,1,80
456,240,65088,2,0,P|460:192|452:144,1,80,8|0,0:0|0:0,0:0:0:0:
396,56,65439,1,2,0:0:0:0:
312,116,65615,1,0,0:0:0:0:
216,40,65791,6,0,P|216:104|200:160,1,120
216,276,66142,2,0,P|208:188|192:132,1,120
318,151,66494,2,0,P|258:162|178:151,1,120
112,140,66845,2,0,L|20:136,2,80
324,324,67549,5,0,0:0:0:0:
408,268,67724,1,0,0:0:0:0:
304,312,67900,2,0,B|236:308|236:308|192:336|192:336|112:328,1,184.000003509522,8|0,0:0|0:0,0:0:0:0:
48,256,68427,1,0,0:0:0:0:
152,240,68603,2,0,P|168:188|172:136,1,92.0000017547608,8|0,0:0|0:0,0:0:0:0:
0,148,68955,6,0,P|44:168|108:164,1,92.0000017547608
180,68,69306,1,8,0:0:0:0:
280,216,69482,2,0,B|280:172|288:144|288:144|276:104|276:104|288:64|288:12,1,184.000003509522
287,35,69921,1,0,0:0:0:0:
287,35,70009,1,8,0:0:0:0:
400,80,70185,1,0,0:0:0:0:
392,204,70361,6,0,P|396:256|412:308,1,92.0000017547608
264,176,70712,2,0,P|280:104|280:60,1,92.0000017547608,8|0,0:0|0:0,0:0:0:0:
232,308,71064,1,0,0:0:0:0:
324,256,71240,1,0,0:0:0:0:
160,216,71415,1,8,0:0:0:0:
320,348,71591,6,0,P|384:328|400:212,1,184.000003509522
392,196,72031,1,0,0:0:0:0:
376,176,72119,2,0,P|324:164|264:184,1,92.0000017547608,8|0,0:0|0:0,0:0:0:0:
232,308,72470,2,0,P|284:320|344:300,1,92.0000017547608
160,216,72822,2,0,P|108:204|48:224,1,92.0000017547608,8|0,0:0|0:0,0:0:0:0:
192,124,73173,5,0,0:0:0:0:
256,220,73349,1,0,0:0:0:0:
244,56,73525,2,0,P|172:40|108:140,1,184.000003509522,8|0,0:0|0:0,0:0:0:0:
112,216,74052,1,0,0:0:0:0:
192,124,74228,1,8,0:0:0:0:
72,104,74404,1,0,0:0:0:0:
112,216,74579,2,0,L|100:312,2,92.0000017547608,0|0|8,0:0|0:0|0:0,0:0:0:0:
148,48,75107,6,0,P|220:40|276:132,1,184.000003509522
276,148,75546,1,0,0:0:0:0:
272,176,75634,2,0,L|256:280,1,92.0000017547608,8|0,0:0|0:0,0:0:0:0:
384,124,75985,5,0,0:0:0:0:
384,124,76161,1,0,0:0:0:0:
398,236,76337,2,0,L|408:328,1,92.0000017547608,8|0,0:0|0:0,0:0:0:0:
472,156,76689,2,0,P|476:96|468:48,2,92.0000017547608,0|0|8,0:0|0:0|0:0,0:0:0:0:
398,236,77216,6,0,B|340:248|304:224|304:224|262:244|262:244|214:236,1,184.000003509522
204,232,77655,1,0,0:0:0:0:
187,224,77743,2,0,L|95:207,1,92.0000017547608,8|0,0:0|0:0,0:0:0:0:
26,114,78095,2,0,L|141:104,1,92.0000017547608
116,298,78446,2,0,L|0:288,1,92.0000017547608,8|0,0:0|0:0,0:0:0:0:
187,224,78798,5,0,0:0:0:0:
269,279,78974,1,0,0:0:0:0:
348,218,79149,1,8,0:0:0:0:
314,124,79325,1,0,0:0:0:0:
214,127,79501,6,0,B|170:147|125:124|125:124|101:144|101:144|59:118|8:137,1,200,0|8,0:0|0:0,0:0:0:0:
176,48,80028,1,0,0:0:0:0:
187,224,80204,2,0,P|260:212|290:183,1,100
337,71,80555,1,8,0:0:0:0:
455,116,80731,6,0,B|470:173|470:173|452:216|452:216|466:253|466:253|455:325,1,200
440,332,81171,1,0,0:0:0:0:
416,349,81259,2,0,P|368:359|296:349,1,100,8|0,0:0|0:0,0:0:0:0:
184,224,81610,5,0,0:0:0:0:
211,324,81786,1,0,0:0:0:0:
184,224,81962,2,0,P|124:216|80:228,1,100,8|0,0:0|0:0,0:0:0:0:
32,320,82313,1,0,0:0:0:0:
88,224,82489,2,0,P|96:160|88:112,1,100,0|8,0:0|0:0,0:0:0:0:
40,48,82840,6,0,B|128:16|148:96|244:48,1,200
260,42,83280,1,0,0:0:0:0:
284,31,83368,2,0,L|268:155,1,100,8|0,0:0|0:0,0:0:0:0:
177,263,83719,2,0,L|164:163,1,100
378,117,84071,2,0,L|362:241,1,100,8|0,0:0|0:0,0:0:0:0:
480,264,84422,6,0,P|408:240|328:348,1,200,0|8,0:0|0:0,0:0:0:0:
417,330,84950,1,0,0:0:0:0:
432,200,85125,2,0,P|428:148|408:96,1,100
324,264,85477,2,0,P|308:324|312:368,1,100,8|0,0:0|0:0,0:0:0:0:
320,152,85829,2,0,B|312:108|312:108|320:88|320:88|316:28,2,100,0|0|8,0:0|0:0|0:0,0:0:0:0:
240,216,86356,6,0,P|188:240|84:140,1,200
80,136,86795,1,0,0:0:0:0:
84,112,86883,2,0,L|96:12,1,100,8|0,0:0|0:0,0:0:0:0:
184,96,87235,2,0,L|184:208,1,100
100,296,87586,2,0,L|92:196,1,100,8|0,0:0|0:0,0:0:0:0:
272,164,87938,2,0,P|292:108|284:60,2,100,0|0|8,0:0|0:0|0:0,0:0:0:0:
204,276,88465,6,0,P|296:260|392:308,1,200
408,324,88905,1,0,0:0:0:0:
432,344,88992,2,0,L|444:236,1,100,8|0,0:0|0:0,0:0:0:0:
360,252,89344,2,0,L|372:144,1,100
288,168,89695,2,0,L|300:60,1,100,8|0,0:0|0:0,0:0:0:0:
212,80,90047,5,0,0:0:0:0:
120,136,90223,1,0,0:0:0:0:
36,64,90399,1,8,0:0:0:0:
112,172,90574,1,0,0:0:0:0:
232,96,90750,5,0,0:0:0:0:
232,96,90926,1,0,0:0:0:0:
120,204,91102,1,8,0:0:0:0:
32,104,91277,1,0,0:0:0:0:
212,208,91453,5,0,0:0:0:0:
112,288,91629,2,0,P|66:269|37:212,1,100,0|8,0:0|0:0,0:0:0:0:
222,293,91980,2,0,P|268:274|297:217,1,100
120,204,92332,1,0,0:0:0:0:
212,208,92508,1,8,0:0:0:0:
216,116,92684,1,0,0:0:0:0:
124,112,92859,5,0,0:0:0:0:
124,112,93035,1,0,0:0:0:0:
212,208,93211,1,8,0:0:0:0:
212,208,93387,1,0,0:0:0:0:
300,116,93562,1,0,0:0:0:0:
300,116,93738,1,0,0:0:0:0:
368,220,93914,2,0,P|440:212|480:168,1,100,8|0,0:0|0:0,0:0:0:0:
396,136,94265,5,0,0:0:0:0:
396,136,94441,1,0,0:0:0:0:
296,268,94617,2,0,P|316:328|344:364,1,100,8|0,0:0|0:0,0:0:0:0:
468,288,94969,1,0,0:0:0:0:
468,288,95144,1,0,0:0:0:0:
336,352,95320,2,0,P|276:360|224:348,1,100,8|0,0:0|0:0,0:0:0:0:
40,316,95672,5,0,0:0:0:0:
148,244,95847,1,0,0:0:0:0:
40,316,96023,1,8,0:0:0:0:
148,244,96199,1,0,0:0:0:0:
68,176,96375,2,0,P|56:120|68:64,2,100,0|0|8,0:0|0:0|0:0,0:0:0:0:
148,244,96902,1,0,0:0:0:0:
168,152,97078,6,0,P|220:180|248:236,1,100
288,320,97429,1,8,0:0:0:0:
339,211,97605,2,0,P|279:203|223:223,1,100
304,104,97957,1,0,0:0:0:0:
400,136,98132,2,0,P|460:144|516:124,1,100,8|0,0:0|0:0,0:0:0:0:
448,56,98484,5,0,0:0:0:0:
448,56,98660,1,0,0:0:0:0:
468,220,98835,1,8,0:0:0:0:
468,220,99011,1,0,0:0:0:0:
380,340,99187,1,0,0:0:0:0:
468,220,99363,1,0,0:0:0:0:
380,340,99539,2,0,P|320:352|264:328,1,100,8|0,0:0|0:0,0:0:0:0:
340,184,99890,5,0,0:0:0:0:
340,184,100066,1,0,0:0:0:0:
216,240,100242,2,0,L|224:344,1,100,8|0,0:0|0:0,0:0:0:0:
136,204,100593,5,0,0:0:0:0:
136,204,100769,1,0,0:0:0:0:
260,148,100945,2,0,L|252:44,1,100,8|0,0:0|0:0,0:0:0:0:
136,116,101296,6,0,P|88:128|80:264,1,200,4|8,0:0|0:0,0:0:0:0:
148,324,101824,1,0,0:0:0:0:
252,336,101999,2,0,B|304:352|304:352|376:332,1,100
356,200,102351,2,0,B|304:184|304:184|232:204,1,100,8|0,0:0|0:0,0:0:0:0:
432,280,102702,5,0,0:0:0:0:
432,280,102878,1,0,0:0:0:0:
456,156,103054,2,0,L|468:40,1,100,8|0,0:0|0:0,0:0:0:0:
356,200,103406,2,0,L|368:96,2,100,0|0|8,0:0|0:0|0:0,0:0:0:0:
340,308,103933,1,0,0:0:0:0:
280,160,104109,6,0,P|344:116|436:180,1,200,0|8,0:0|0:0,0:0:0:0:
340,308,104636,1,0,0:0:0:0:
356,200,104812,2,0,L|368:92,2,100,0|0|8,0:0|0:0|0:0,0:0:0:0:
272,88,105339,1,0,0:0:0:0:
208,168,105515,6,0,P|148:184|100:172,1,100
12,44,105866,2,0,P|72:28|120:40,1,100,8|0,0:0|0:0,0:0:0:0:
144,208,106218,1,0,0:0:0:0:
272,88,106394,2,0,P|340:80|388:88,2,100,0|8|0,0:0|0:0|0:0,0:0:0:0:
320,168,106921,5,0,0:0:0:0:
224,204,107097,1,0,0:0:0:0:
332,272,107272,1,8,0:0:0:0:
417,169,107448,1,0,0:0:0:0:
272,88,107624,2,0,P|332:76|416:188,1,200,0|8,0:0|0:0,0:0:0:0:
440,40,108151,1,0,0:0:0:0:
417,169,108327,6,0,L|408:280,1,100
336,352,108679,1,8,0:0:0:0:
484,324,108854,1,0,0:0:0:0:
288,272,109030,2,0,P|244:320|240:368,1,100
376,212,109382,2,0,L|480:208,1,100,8|0,0:0|0:0,0:0:0:0:
248,192,109733,5,0,0:0:0:0:
248,192,109909,1,0,0:0:0:0:
292,60,110085,1,8,0:0:0:0:
292,60,110261,1,0,0:0:0:0:
149,83,110436,2,0,P|100:81|47:90,1,100
48,225,110788,2,0,P|97:233|147:231,1,100,8|0,0:0|0:0,0:0:0:0:
88,316,111139,5,0,0:0:0:0:
148,232,111315,1,0,0:0:0:0:
180,328,111491,1,8,0:0:0:0:
84,288,111667,1,0,0:0:0:0:
176,244,111842,1,0,0:0:0:0:
156,343,112018,1,0,0:0:0:0:
84,268,112194,1,8,0:0:0:0:
192,260,112370,1,0,0:0:0:0:
76,120,112546,6,0,B|128:120|164:72|164:72|220:64|280:120,2,200,0|8|0,0:0|0:0|0:0,0:0:0:0:
202,286,113424,2,0,B|195:236|195:236|212:184,1,100,0|8,0:0|0:0,0:0:0:0:
253,98,113776,1,0,0:0:0:0:
49,148,113952,2,0,L|50:254,1,100
56,352,114303,1,8,0:0:0:0:
204,368,114479,6,0,P|272:324|284:212,1,200
272,184,114918,1,0,0:0:0:0:
252,164,115006,2,0,P|200:168|144:196,1,100,8|0,0:0|0:0,0:0:0:0:
128,293,115358,2,0,P|78:297|32:280,2,100,0|0|8,0:0|0:0|0:0,0:0:0:0:
156,186,115885,1,0,0:0:0:0:
230,258,116061,2,0,P|250:218|246:146,2,100,0|0|8,0:0|0:0|0:0,0:0:0:0:
205,91,116588,6,0,B|305:92|305:92|375:163,1,200
398,190,117028,1,0,0:0:0:0:
415,217,117116,2,0,B|373:249|373:249|308:255,1,100,8|0,0:0|0:0,0:0:0:0:
294,86,117467,2,0,B|336:53|336:53|382:49,1,100
503,180,117819,2,0,B|461:212|461:212|396:218,1,100,8|0,0:0|0:0,0:0:0:0:
228,216,118170,6,0,P|164:188|32:236,1,200,0|8,0:0|0:0,0:0:0:0:
56,340,118697,1,0,0:0:0:0:
44,223,118873,2,0,L|40:103,1,100
200,36,119225,2,0,L|192:164,1,100,8|0,0:0|0:0,0:0:0:0:
227,228,119576,1,0,0:0:0:0:
44,223,119752,2,0,P|124:211|152:191,1,100,0|8,0:0|0:0,0:0:0:0:
240,32,120104,6,0,B|224:108|224:108|236:176|236:176|224:248,1,200
225,255,120543,1,0,0:0:0:0:
221,283,120631,2,0,P|178:314|121:313,1,100,8|0,0:0|0:0,0:0:0:0:
164,178,120982,2,0,P|254:151|309:231,1,200,0|8,0:0|0:0,0:0:0:0:
368,348,121510,1,0,0:0:0:0:
400,246,121686,2,0,P|456:230|504:242,2,100,0|0|8,0:0|0:0|0:0,0:0:0:0:
272,152,122213,6,0,P|208:168|136:144,1,100
116,48,122564,1,0,0:0:0:0:
175,163,122740,1,8,0:0:0:0:
40,120,122916,2,0,B|48:172|32:208|32:208|56:236|56:236|32:276|40:344,1,200
200,344,123443,1,8,0:0:0:0:
124,284,123619,1,0,0:0:0:0:
276,272,123795,6,0,P|364:304|460:248,1,200,0|8,0:0|0:0,0:0:0:0:
448,360,124322,1,0,0:0:0:0:
453,257,124498,2,0,L|457:153,1,100
272,172,124849,2,0,L|276:276,1,100,8|0,0:0|0:0,0:0:0:0:
368,140,125201,1,0,0:0:0:0:
256,84,125377,2,0,P|196:120|184:168,1,100,0|8,0:0|0:0,0:0:0:0:
112,316,125728,6,0,P|108:232|60:128,1,200
44,108,126168,1,0,0:0:0:0:
28,88,126256,2,0,P|88:88|144:80,1,100,8|0,0:0|0:0,0:0:0:0:
252,28,126607,1,0,0:0:0:0:
252,28,126783,1,0,0:0:0:0:
200,116,126959,2,0,P|196:184|204:228,2,100,8|0|0,0:0|0:0|0:0,0:0:0:0:
320,116,127486,2,0,P|316:196|296:256,1,100,0|8,0:0|0:0,0:0:0:0:
112,144,127837,6,0,P|128:56|232:32,1,200
240,36,128277,1,0,0:0:0:0:
252,44,128365,2,0,P|304:52|368:44,1,100,8|0,0:0|0:0,0:0:0:0:
472,144,128716,2,0,P|392:156|348:148,1,100
268,256,129068,2,0,P|320:264|384:256,1,100,8|0,0:0|0:0,0:0:0:0:
184,320,129419,6,0,P|164:264|252:152,1,200,0|8,0:0|0:0,0:0:0:0:
354,119,129947,1,0,0:0:0:0:
236,156,130122,2,0,P|180:168|112:136,1,100
144,40,130474,2,0,P|200:28|268:60,1,100,8|0,0:0|0:0,0:0:0:0:
354,119,130826,2,0,L|346:227,2,100,0|0|8,0:0|0:0|0:0,0:0:0:0:
424,248,131353,6,0,P|332:300|264:216,1,200
255,210,131792,1,0,0:0:0:0:
244,172,131880,2,0,L|252:72,1,100,8|0,0:0|0:0,0:0:0:0:
432,120,132232,1,0,0:0:0:0:
348,219,132407,1,0,0:0:0:0:
384,48,132583,2,0,P|432:32|504:68,1,100,8|0,0:0|0:0,0:0:0:0:
432,120,132935,5,0,0:0:0:0:
344,212,133111,2,0,P|312:160|320:112,1,100,0|8,0:0|0:0,0:0:0:0:
432,120,133462,5,0,0:0:0:0:
428,116,133814,1,0,0:0:0:0:
328,24,133989,1,8,0:0:0:0:
208,84,134165,2,0,P|152:112|24:64,1,200
228,187,134692,1,8,0:0:0:0:
228,187,134868,6,0,P|297:204|352:192,1,120,4|2,0:0|0:0,0:0:0:0:
403,122,135747,1,2,0:0:0:0:
403,122,135923,1,2,0:0:0:0:
452,229,136274,6,0,P|439:304|430:317,1,80,2|2,0:0|0:0,0:0:0:0:
325,237,136802,2,0,L|332:186,1,40,2|0,0:0|0:0,0:0:0:0:
237,269,137153,2,0,L|240:315,1,40,2|0,0:0|0:0,0:0:0:0:
151,237,137505,2,0,L|158:186,1,40,2|0,0:0|0:0,0:0:0:0:
76,312,137856,6,0,P|46:242|80:170,1,160,2|2,0:0|0:0,0:0:0:0:
295,229,139087,2,0,P|211:262|141:228,1,160,2|0,0:0|0:0,0:0:0:0:
105,156,139966,6,0,B|104:104|104:104|112:80|112:80|108:20,1,120.000004577637
40,214,140669,1,0,0:0:0:0:
217,260,141020,2,0,L|279:268,1,60.0000022888184,2|0,0:0|0:0,0:0:0:0:
158,197,141372,1,2,0:0:0:0:
159,334,141548,2,0,P|184:349|226:353,1,60.0000022888184,2|0,0:0|0:0,0:0:0:0:
276,268,141899,6,0,P|330:247|395:283,1,120.000004577637,2|2,0:0|0:0,0:0:0:0:
436,335,142426,2,0,L|442:193,2,120.000004577637,2|2|2,0:0|0:0|0:0,0:0:0:0:
331,220,143481,6,0,P|272:231|205:212,1,120.000004577637,2|2,0:0|0:0,0:0:0:0:
109,115,144184,2,0,P|168:104|235:123,1,120.000004577637,2|2,0:0|0:0,0:0:0:0:
256,192,144711,12,0,145942,0:0:0:0:
204,316,146293,5,0,0:0:0:0:
304,264,146469,1,0,0:0:0:0:
421,296,146645,2,0,B|409:268|401:224|401:224|429:156|429:156|422:114|409:76,1,200,8|0,0:0|0:0,0:0:0:0:
488,228,147172,1,0,0:0:0:0:
492,80,147348,1,8,0:0:0:0:
348,152,147524,6,0,B|292:160|256:192|256:192|224:160|160:156,1,200
328,240,148051,2,0,L|316:348,1,100,8|0,0:0|0:0,0:0:0:0:
188,344,148403,2,0,L|184:236,1,100
208,92,148754,2,0,B|232:96|256:108|256:108|280:92|316:84,1,100,8|0,0:0|0:0,0:0:0:0:
468,140,149106,5,0,0:0:0:0:
328,240,149281,1,0,0:0:0:0:
320,44,149457,1,8,0:0:0:0:
452,116,149633,1,0,0:0:0:0:
300,152,149809,2,0,P|376:164|408:276,1,200,0|8,0:0|0:0,0:0:0:0:
248,348,150336,1,0,0:0:0:0:
328,240,150512,5,0,0:0:0:0:
184,208,150688,1,0,0:0:0:0:
312,260,150863,1,8,0:0:0:0:
260,76,151039,1,0,0:0:0:0:
172,220,151215,2,0,P|104:232|48:216,1,100
324,252,151566,2,0,P|392:240|448:256,1,100,8|0,0:0|0:0,0:0:0:0:
120,336,151918,6,0,B|108:272|108:272|124:208|124:208|112:120,2,200,0|8|0,0:0|0:0|0:0,0:0:0:0:
44,200,152797,2,0,P|32:136|44:72,1,100,0|8,0:0|0:0,0:0:0:0:
192,272,153148,2,0,B|248:268|284:240|284:240|320:268|396:272,1,200
472,196,153676,2,0,L|480:88,1,100,8|0,0:0|0:0,0:0:0:0:
348,36,154027,2,0,L|352:148,1,100
228,192,154379,2,0,L|236:84,1,100,8|0,0:0|0:0,0:0:0:0:
56,188,154730,5,0,0:0:0:0:
100,68,154906,1,0,0:0:0:0:
48,212,155082,2,0,P|88:300|208:308,2,200,8|0|8,0:0|0:0|0:0,0:0:0:0:
240,260,156136,6,0,B|312:252|312:252|368:284|368:284|468:276,1,200,0|8,0:0|0:0,0:0:0:0:
476,156,156664,1,0,0:0:0:0:
384,192,156839,2,0,P|380:128|400:88,1,100
476,244,157191,2,0,P|484:304|468:352,1,100,8|0,0:0|0:0,0:0:0:0:
288,356,157543,5,0,0:0:0:0:
288,356,157718,1,0,0:0:0:0:
216,208,157894,2,0,P|216:148|236:104,1,100,8|0,0:0|0:0,0:0:0:0:
356,64,158246,1,0,0:0:0:0:
240,100,158421,2,0,P|184:104|136:84,1,100,0|8,0:0|0:0,0:0:0:0:
32,148,158773,6,0,P|104:176|136:296,1,200
315,311,159300,2,0,B|287:271|243:263|243:263|195:303|131:283,1,200,8|0,0:0|0:0,0:0:0:0:
40,256,159828,1,0,0:0:0:0:
138,285,160003,2,0,L|154:169,1,100,8|0,0:0|0:0,0:0:0:0:
256,36,160355,5,0,0:0:0:0:
392,164,160531,1,0,0:0:0:0:
276,176,160706,1,8,0:0:0:0:
348,48,160882,1,0,0:0:0:0:
257,270,161058,2,0,P|190:201|212:108,1,200,0|8,0:0|0:0,0:0:0:0:
422,181,161585,6,0,B|373:201|351:242|351:242|319:177|261:173,1,200
100,188,162113,1,8,0:0:0:0:
192,288,162288,1,0,0:0:0:0:
275,175,162464,2,0,P|279:115|263:67,1,100
185,190,162816,2,0,P|181:250|197:298,1,100,8|0,0:0|0:0,0:0:0:0:
268,77,163167,6,0,P|176:36|88:80,1,200,0|8,0:0|0:0,0:0:0:0:
32,208,163694,1,0,0:0:0:0:
168,220,163870,2,0,L|179:116,2,100,0|0|8,0:0|0:0|0:0,0:0:0:0:
318,237,164398,6,0,P|242:173|162:237,1,200
68,336,164925,2,0,P|124:348|196:320,1,100,8|0,0:0|0:0,0:0:0:0:
167,219,165276,2,0,P|111:207|39:235,1,100
319,331,165628,2,0,P|332:283|316:233,1,100,8|0,0:0|0:0,0:0:0:0:
184,160,165979,5,0,0:0:0:0:
268,20,166155,1,0,0:0:0:0:
340,156,166331,1,8,0:0:0:0:
184,72,166507,1,0,0:0:0:0:
259,198,166683,1,0,0:0:0:0:
340,64,166858,1,0,0:0:0:0:
184,160,167034,1,8,0:0:0:0:
324,272,167210,1,0,0:0:0:0:
488,164,167386,6,0,P|500:212|480:276,1,100
324,272,167737,2,0,P|312:224|332:160,1,100,8|0,0:0|0:0,0:0:0:0:
370,347,168089,2,0,P|325:360|266:337,1,100
408,212,168440,2,0,P|456:200|504:215,1,100,8|0,0:0|0:0,0:0:0:0:
491,347,168792,5,0,0:0:0:0:
116,240,173362,6,0,P|108:160|180:108,2,160
276,80,174416,5,0,0:0:0:0:
188,200,174592,1,0,0:0:0:0:
328,220,174768,1,8,0:0:0:0:
200,120,174944,1,0,0:0:0:0:
248,256,175119,1,0,0:0:0:0:
336,140,175295,1,0,0:0:0:0:
424,328,175471,5,8,0:0:0:0:
328,220,175647,1,0,0:0:0:0:
468,200,175823,1,0,0:0:0:0:
346,301,175998,1,0,0:0:0:0:
392,164,176174,1,8,0:0:0:0:
479,275,176350,1,0,0:0:0:0:
352,317,176526,6,0,B|300:317|259:284|259:284|215:323|127:319,1,200,0|8,0:0|0:0,0:0:0:0:
257,149,177053,1,0,0:0:0:0:
49,238,177229,6,0,B|83:246|119:221|119:221|147:245|203:253|217:215|217:215|159:179|158:83|212:81|258:16|316:84|355:94|351:182|295:214|295:214|339:267|399:216|399:216|431:234|462:229,1,768,4|0,0:0|0:0,0:0:0:0:
