osu file format v14

[General]
AudioFilename: Asriel Dreemurr Theme.mp3
AudioLeadIn: 0
PreviewTime: 21322
Countdown: 0
SampleSet: Soft
StackLeniency: 0.7
Mode: 0
LetterboxInBreaks: 0
WidescreenStoryboard: 0

[Editor]
DistanceSpacing: 0.8
BeatDivisor: 4
GridSize: 4
TimelineZoom: 1.3

[Metadata]
Title:Hopes and Dreams
TitleUnicode:Hopes and Dreams
Artist:toby fox
ArtistUnicode:toby fox
Creator:Fatfan Kolek
Version:Little's Normal
Source:UNDERTALE
Tags:Little CloudSplash16 Mazziv Rumia- MoeMoeKyunNN asriel dreemurr
BeatmapID:908846
BeatmapSetID:414432

[Difficulty]
HPDrainRate:3
CircleSize:3
OverallDifficulty:4
ApproachRate:5
SliderMultiplier:1.25
SliderTickRate:1

[Events]
//Background and Video events
0,0,"wallhaven-280596.jpg",0,0
//Break Periods
2,135067,145093
2,168992,170404
//Storyboard Layer 0 (Background)
//Storyboard Layer 1 (Fail)
//Storyboard Layer 2 (Pass)
//Storyboard Layer 3 (Foreground)
//Storyboard Sound Samples

[TimingPoints]
84,351.539155602948,4,2,16,60,1,0
84,-166.666666666667,4,2,16,60,0,0
21176,-100,4,2,16,50,0,0
21322,351.539155602948,4,2,16,60,1,0
22552,351.539155602948,4,2,16,80,1,1
22552,-100,4,2,16,80,0,1
45050,-166.666666666667,4,2,16,70,0,0
67549,-100,4,2,16,80,0,0
90047,-100,4,2,16,70,0,0
112546,-100,4,2,16,80,0,0
146293,-100,4,2,16,90,0,1
168792,-100,4,2,16,80,0,0
177229,-100,4,2,16,60,0,0
178283,-100,4,2,16,40,0,0
179338,-100,4,2,16,20,0,0
180041,-100,4,2,16,5,0,0

[Colours]
Combo1 : 255,30,221
Combo2 : 255,30,30
Combo3 : 242,115,0
Combo4 : 255,255,15
Combo5 : 108,255,38
Combo6 : 36,146,255
Combo7 : 13,49,255
Combo8 : 131,30,255

[HitObjects]
138,277,84,6,0,P|195:234|256:271,2,150.000005722046,2|2|2,0:0|0:0|0:0,0:0:0:0:
373,277,2896,6,0,P|316:234|256:271,2,150.000005722046,2|2|2,0:0|0:0|0:0,0:0:0:0:
256,67,5708,6,0,L|256:217,2,150.000005722046,2|2|2,0:0|0:0|0:0,0:0:0:0:
421,137,8169,5,2,0:0:0:0:
413,196,8520,2,0,P|420:265|482:312,2,149.999995422363,2|2|2,0:0|0:0|0:0,0:0:0:0:
202,80,11333,6,0,B|136:45|136:45|68:82,1,149.999995422363,2|2,0:0|0:0,0:0:0:0:
133,182,12739,1,2,0:0:0:0:
336,309,14145,6,0,B|402:344|402:344|468:309,1,149.999995422363,2|2,0:0|0:0,0:0:0:0:
400,208,15551,1,2,0:0:0:0:
221,47,16957,5,2,0:0:0:0:
142,137,17660,1,2,0:0:0:0:
196,244,18364,2,0,P|255:205|313:245,1,150.000005722046,2|0,0:0|0:0,0:0:0:0:
297,326,19418,5,2,0:0:0:0:
215,326,19770,1,2,0:0:0:0:
256,167,20473,1,2,0:0:0:0:
256,192,21176,12,4,22552,3:2:0:0:
116,98,23255,6,0,P|93:156|112:214,1,125,0|8,3:0|0:0,0:0:0:0:
200,259,23958,2,0,B|232:263|232:263|292:255|292:255|324:259,1,125,0|8,3:0|0:0,0:0:0:0:
372,247,24485,1,0,0:0:0:0:
372,247,24661,2,0,P|400:207|380:139,1,125,0|8,3:0|0:0,0:0:0:0:
284,103,25364,6,0,L|262:226,1,125,0|8,3:0|0:0,0:0:0:0:
188,291,26067,2,0,P|129:271|68:281,1,125,0|8,3:0|0:0,0:0:0:0:
24,191,26770,2,0,B|56:179|56:179|70:89,1,125,0|8,3:0|0:0,0:0:0:0:
80,39,27297,1,0,0:0:0:0:
80,39,27473,2,0,P|141:48|199:29,1,125,0|8,3:0|0:0,0:0:0:0:
296,56,28176,6,0,B|316:108|316:108|280:144|280:204|280:204|232:192|194:218,1,250,0|0,3:0|3:0,0:0:0:0:
251,299,29231,1,8,0:0:0:0:
251,299,29582,2,0,P|313:299|362:263,2,125,0|8|0,3:0|0:0|3:0,0:0:0:0:
159,257,30637,1,8,0:0:0:0:
232,189,30988,6,0,L|216:64,1,125,0|8,3:0|0:0,0:0:0:0:
115,69,31692,2,0,L|99:193,1,125,0|8,3:0|0:0,0:0:0:0:
50,280,32395,2,0,B|99:306|148:283|148:283|218:303|218:303|291:288,1,250,0|0,3:0|3:0,0:0:0:0:
388,268,33449,1,8,0:0:0:0:
388,268,33801,6,0,P|410:212|392:153,1,125,0|8,3:0|0:0,0:0:0:0:
304,107,34504,2,0,B|272:103|272:103|212:111|212:111|180:107,1,125,0|8,3:0|0:0,0:0:0:0:
88,152,35207,2,0,P|69:210|92:267,1,125,0|8,3:0|0:0,0:0:0:0:
132,300,35734,1,0,0:0:0:0:
132,300,35910,2,0,P|192:287|252:302,1,125,0|8,3:0|0:0,0:0:0:0:
336,244,36613,6,0,L|348:104,1,125,0|8,3:0|0:0,0:0:0:0:
272,52,37316,2,0,P|244:72|144:64,1,125,0|8,3:0|0:0,0:0:0:0:
63,108,38019,2,0,P|31:159|50:216,1,125,0|8,3:0|0:0,0:0:0:0:
88,252,38547,1,0,0:0:0:0:
88,252,38722,2,0,L|212:248,1,125,0|8,3:0|0:0,0:0:0:0:
268,332,39425,6,0,B|328:372|380:300|332:252|332:252|296:216|309:171,1,250,0|0,3:0|3:0,0:0:0:0:
376,96,40480,1,8,0:0:0:0:
376,96,40832,2,0,L|500:108,1,125,0|8,3:0|0:0,0:0:0:0:
500,208,41535,2,0,L|376:220,1,125,0|8,3:0|0:0,0:0:0:0:
288,269,42238,6,0,P|233:288|204:348,2,125,0|8|0,3:0|0:0|3:0,0:0:0:0:
296,169,43292,1,8,0:0:0:0:
248,80,43644,2,0,B|300:55|354:79|354:79|411:67|411:67|478:119,1,250,0|0,3:0|3:0,0:0:0:0:
492,215,44698,1,8,0:0:0:0:
392,236,45050,6,0,B|348:260|348:260|248:248,1,150.000005722046,0|8,3:0|0:0,0:0:0:0:
180,348,46456,2,0,B|224:372|224:372|323:360,1,150.000005722046,0|8,3:0|0:0,0:0:0:0:
432,312,47862,2,0,P|409:244|456:190,2,150.000005722046,0|8|0,3:0|0:0|3:0,0:0:0:0:
323,359,49972,1,8,0:0:0:0:
204,340,50675,6,0,B|140:328|140:328|176:244,1,149.999995422363,0|8,3:0|0:0,0:0:0:0:
264,172,52081,2,0,B|328:184|328:184|292:268,1,149.999995422363,0|8,3:0|0:0,0:0:0:0:
173,249,53487,2,0,B|121:229|69:253|69:253|77:210,2,149.999995422363,0|8|0,3:0|0:0|3:0,0:0:0:0:
272,328,55596,1,8,0:0:0:0:
392,316,56299,6,0,P|437:259|418:190,1,150.000005722046,0|8,3:0|0:0,0:0:0:0:
332,108,57705,2,0,L|182:96,1,149.999995422363,0|8,3:0|0:0,0:0:0:0:
80,164,59112,1,0,3:0:0:0:
103,282,59815,1,8,0:0:0:0:
212,332,60518,2,0,P|249:336|285:327,2,74.9999977111817,0|0|8,3:0|0:0|0:0,0:0:0:0:
164,220,61924,6,0,P|225:181|298:192,1,150.000005722046,0|8,3:0|0:0,0:0:0:0:
408,240,63330,2,0,B|432:168|432:168|412:88,1,149.999995422363,0|8,3:0|0:0,0:0:0:0:
308,40,64736,1,0,3:0:0:0:
220,120,65439,1,8,0:0:0:0:
173,231,66142,1,0,0:0:0:0:
172,231,67549,6,0,P|232:215|293:229,1,125,0|8,3:0|0:0,0:0:0:0:
391,212,68252,2,0,P|416:156|392:100,1,125,0|8,3:0|0:0,0:0:0:0:
292,120,68955,1,0,3:0:0:0:
292,120,69130,2,0,L|229:112,1,62.5,0|8,3:0|0:0,0:0:0:0:
188,135,69482,2,0,P|101:152|57:76,1,187.5,0|8,3:0|0:0,0:0:0:0:
57,76,70361,6,0,L|41:200,1,125,0|8,3:0|0:0,0:0:0:0:
96,284,71064,1,0,3:0:0:0:
96,284,71240,2,0,P|157:277|215:299,1,125,0|0,3:0|3:0,0:0:0:0:
312,320,71943,1,0,3:0:0:0:
312,320,72119,2,0,L|444:300,2,125,8|0|8,0:0|3:0|0:0,0:0:0:0:
215,299,73173,6,0,P|245:244|301:220,1,125,0|8,3:0|0:0,0:0:0:0:
400,204,73876,2,0,B|412:164|412:164|401:81,1,125,0|8,3:0|0:0,0:0:0:0:
316,28,74579,1,0,3:0:0:0:
316,28,74755,2,0,P|304:56|304:92,1,62.5,0|8,3:0|0:0,0:0:0:0:
280,132,75107,2,0,B|236:148|188:132|188:132|160:96|109:85,1,187.5,0|8,3:0|0:0,0:0:0:0:
20,132,75985,6,0,L|31:256,1,125,0|8,3:0|0:0,0:0:0:0:
112,316,76689,1,0,3:0:0:0:
112,316,76864,2,0,P|171:300|197:245,1,125,0|0,3:0|3:0,0:0:0:0:
157,153,77567,1,0,3:0:0:0:
157,153,77743,2,0,B|145:113|145:113|155:30,2,125,8|0|8,0:0|3:0|0:0,0:0:0:0:
245,105,78798,6,0,P|305:115|355:81,1,125,2|8,3:2|0:0,0:0:0:0:
425,153,79501,2,0,P|386:199|390:260,1,125,2|10,3:2|0:0,0:0:0:0:
293,284,80204,2,0,P|271:226|217:199,1,125,2|8,3:2|0:0,0:0:0:0:
165,197,80731,2,0,B|105:217|105:217|46:197,1,125,2|0,3:2|3:0,0:0:0:0:
0,176,81259,1,10,0:0:0:0:
8,76,81610,6,0,P|63:50|121:70,1,125,2|8,3:2|0:0,0:0:0:0:
220,92,82313,2,0,L|264:47,2,62.5,2|0|10,3:2|3:0|0:0,0:0:0:0:
188,132,82840,2,0,B|180:172|180:172|190:255,1,125,0|0,0:0|0:0,0:0:0:0:
196,304,83368,1,8,0:0:0:0:
292,271,83719,2,0,P|312:214|284:160,1,125,2|8,3:2|0:0,0:0:0:0:
188,132,84422,6,0,P|127:142|77:108,1,125,2|8,3:2|0:0,0:0:0:0:
8,180,85125,2,0,P|46:226|42:287,1,125,2|10,3:2|0:0,0:0:0:0:
140,311,85829,2,0,P|161:253|215:226,1,125,2|8,3:2|0:0,0:0:0:0:
268,224,86356,2,0,B|328:244|328:244|386:224,1,125,2|0,3:2|3:0,0:0:0:0:
433,203,86883,1,10,0:0:0:0:
400,108,87235,6,0,L|276:97,1,125,2|8,3:2|0:0,0:0:0:0:
184,140,87938,2,0,L|121:134,2,62.5,2|0|10,3:2|3:0|0:0,0:0:0:0:
228,164,88465,2,0,P|253:219|233:277,1,125,0|0,0:0|0:0,0:0:0:0:
196,312,88992,1,8,0:0:0:0:
284,364,89344,2,0,B|324:372|324:372|407:361,1,125,2|8,3:2|0:0,0:0:0:0:
464,280,90047,6,0,P|416:204|327:210,1,187.5,2|2,3:2|0:0,0:0:0:0:
284,236,90750,2,0,L|159:232,1,125,2|10,3:2|0:0,0:0:0:0:
100,152,91453,2,0,P|147:76|236:82,1,187.5,2|2,3:2|3:2,0:0:0:0:
284,100,92156,2,0,P|345:101|396:67,1,125,2|10,0:0|0:0,0:0:0:0:
488,108,92859,6,0,L|472:294,1,187.5,2|2,3:2|0:0,0:0:0:0:
468,344,93562,1,2,3:2:0:0:
372,312,93914,1,10,0:0:0:0:
280,352,94265,2,0,P|219:360|165:330,1,125,2|8,3:2|0:0,0:0:0:0:
76,372,94969,2,0,P|67:311|97:257,1,125,2|8,3:2|0:0,0:0:0:0:
192,232,95672,6,0,P|197:142|121:95,1,187.5,2|2,3:2|0:0,0:0:0:0:
92,56,96375,2,0,L|217:52,1,125,2|10,3:2|0:0,0:0:0:0:
296,116,97078,2,0,P|385:110|432:186,1,187.5,2|2,3:2|3:2,0:0:0:0:
428,236,97781,2,0,P|393:286|394:348,1,125,2|10,0:0|0:0,0:0:0:0:
296,332,98484,6,0,B|240:324|240:324|111:348,1,187.5,2|2,3:2|0:0,0:0:0:0:
64,360,99187,1,2,3:2:0:0:
16,272,99539,1,10,0:0:0:0:
80,196,99890,2,0,P|141:194|191:230,1,125,2|8,3:2|0:0,0:0:0:0:
292,232,100593,2,0,P|353:233|403:197,1,125,2|8,3:2|0:0,0:0:0:0:
416,96,101296,6,0,B|388:76|388:76|235:64,1,187.5,2|2,3:2|0:0,0:0:0:0:
192,92,101999,2,0,P|152:112|64:96,1,125,2|10,3:2|0:0,0:0:0:0:
8,176,102702,2,0,P|14:265|96:302,1,187.5,2|2,3:2|3:2,0:0:0:0:
144,288,103406,2,0,B|180:276|180:276|266:282,1,125,2|10,0:0|0:0,0:0:0:0:
359,320,104109,6,0,P|426:260|406:173,1,187.5,2|2,3:2|0:0,0:0:0:0:
368,140,104812,1,2,3:2:0:0:
272,120,105163,1,10,0:0:0:0:
206,193,105515,2,0,L|214:321,1,125,2|8,3:2|0:0,0:0:0:0:
308,352,106218,2,0,L|316:224,1,125,2|8,3:2|0:0,0:0:0:0:
284,132,106921,6,0,P|202:92|124:136,1,187.5,2|2,3:2|0:0,0:0:0:0:
108,184,107624,2,0,B|114:280|114:280|87:267,1,125,2|10,3:2|0:0,0:0:0:0:
72,368,108327,2,0,P|162:365|211:289,1,187.5,2|2,3:2|3:2,0:0:0:0:
216,240,109030,2,0,B|210:144|210:144|237:157,1,125,2|10,0:0|0:0,0:0:0:0:
328,192,109733,6,0,B|344:60|344:60|389:89,1,187.5,2|2,3:2|0:0,0:0:0:0:
432,116,110436,1,2,3:2:0:0:
419,215,110788,1,10,0:0:0:0:
347,284,111139,2,0,P|287:274|230:299,1,125,2|8,3:2|0:0,0:0:0:0:
141,251,111842,2,0,P|102:203|103:142,1,125,2|8,3:2|0:0,0:0:0:0:
160,60,112546,6,0,B|196:68|196:68|248:64|248:64|282:72,1,125,0|8,3:0|0:0,0:0:0:0:
328,164,113249,2,0,B|292:172|292:172|240:168|240:168|205:176,1,125,0|8,3:0|0:0,0:0:0:0:
156,264,113952,1,0,3:0:0:0:
156,264,114127,1,0,3:0:0:0:
244,312,114479,2,0,P|294:276|355:277,1,125,0|0,3:0|3:0,0:0:0:0:
404,292,115006,1,8,0:0:0:0:
471,220,115358,6,0,P|483:159|456:104,1,125,0|8,3:0|0:0,0:0:0:0:
360,76,116061,1,0,3:0:0:0:
360,76,116236,1,0,3:0:0:0:
284,144,116588,2,0,P|224:161|165:142,1,125,0|0,3:0|3:0,0:0:0:0:
124,116,117116,1,8,0:0:0:0:
40,172,117467,2,0,L|47:296,1,125,0|8,3:0|0:0,0:0:0:0:
128,360,118170,6,0,P|182:331|243:337,1,125,0|8,3:0|0:0,0:0:0:0:
339,312,118873,2,0,P|359:254|332:200,1,125,0|8,3:0|0:0,0:0:0:0:
252,140,119576,1,0,3:0:0:0:
252,140,119751,1,0,3:0:0:0:
156,164,120104,2,0,L|148:288,1,125,0|0,3:0|3:0,0:0:0:0:
144,340,120631,1,8,0:0:0:0:
240,368,120982,6,0,P|295:343|323:288,1,125,0|8,3:0|0:0,0:0:0:0:
376,200,121686,2,0,L|448:212,2,62.5,0|0|8,3:0|3:0|0:0,0:0:0:0:
328,188,122213,1,0,3:0:0:0:
240,140,122564,2,0,L|232:76,1,62.5,0|8,3:0|0:0,0:0:0:0:
256,32,122916,2,0,P|300:16|376:44,1,125,0|0,3:0|3:0,0:0:0:0:
400,80,123443,1,8,0:0:0:0:
392,180,123795,6,0,B|384:216|384:216|388:268|388:268|380:302,1,125,0|8,3:0|0:0,0:0:0:0:
288,348,124498,2,0,B|280:312|280:312|284:260|284:260|276:225,1,125,0|8,3:0|0:0,0:0:0:0:
176,204,125201,1,0,3:0:0:0:
176,204,125376,1,0,3:0:0:0:
172,304,125728,2,0,P|116:329|56:314,1,125,0|0,3:0|3:0,0:0:0:0:
16,288,126256,1,8,0:0:0:0:
28,188,126607,6,0,L|36:64,1,125,0|8,3:0|0:0,0:0:0:0:
128,24,127310,1,0,3:0:0:0:
128,24,127485,1,0,3:0:0:0:
196,96,127837,2,0,P|282:121|355:67,1,187.5,0|8,3:0|0:0,0:0:0:0:
456,76,128716,1,0,3:0:0:0:
412,164,129068,1,8,0:0:0:0:
344,236,129419,6,0,P|285:219|230:246,1,125,0|8,3:0|0:0,0:0:0:0:
224,344,130122,2,0,P|272:356|352:352,1,125,0|8,3:0|0:0,0:0:0:0:
428,296,130826,1,0,3:0:0:0:
428,296,131001,1,0,3:0:0:0:
388,204,131353,2,0,B|340:196|340:196|248:204|248:204|202:196,1,187.5,0|8,3:0|0:0,0:0:0:0:
144,276,132232,6,0,P|84:300|16:256,1,125,0|8,3:0|0:0,0:0:0:0:
0,184,132935,1,0,3:0:0:0:
0,184,133110,1,0,3:0:0:0:
80,124,133462,2,0,L|180:49,1,125,0|0,3:0|3:0,0:0:0:0:
228,60,133989,1,8,0:0:0:0:
228,60,134165,2,0,P|280:84|364:64,1,125,0|0,3:0|3:0,0:0:0:0:
389,52,134692,2,0,L|451:8,1,62.5,8|0,0:0|0:0,0:0:0:0:
96,112,146293,5,0,3:0:0:0:
184,164,146645,2,0,L|308:156,1,125,8|0,0:0|3:0,0:0:0:0:
360,156,147172,1,0,3:0:0:0:
436,220,147524,2,0,P|421:279|372:316,1,125,0|0,3:0|3:0,0:0:0:0:
324,316,148051,1,8,0:0:0:0:
228,280,148403,1,0,3:0:0:0:
140,324,148754,1,8,0:0:0:0:
48,280,149106,6,0,P|23:224|41:165,1,125,0|8,3:0|0:0,0:0:0:0:
120,104,149809,2,0,B|160:112|160:112|243:102,1,125,0|8,3:0|0:0,0:0:0:0:
288,80,150336,2,0,P|374:86|388:172,1,187.5,0|8,3:0|0:0,0:0:0:0:
312,236,151215,1,0,3:0:0:0:
216,208,151566,1,8,0:0:0:0:
239,303,151918,6,0,P|293:334|354:325,1,125,0|8,3:0|0:0,0:0:0:0:
432,264,152621,2,0,L|440:200,1,62.5,0|0,3:0|3:0,0:0:0:0:
452,104,153148,2,0,L|328:122,1,125,0|0,3:0|3:0,0:0:0:0:
280,112,153676,2,0,P|223:88|165:107,2,125,8|0|8,0:0|3:0|0:0,0:0:0:0:
284,212,154730,6,0,L|264:352,1,125,0|8,3:0|0:0,0:0:0:0:
168,348,155433,1,0,3:0:0:0:
76,312,155785,2,0,B|40:256|76:196|76:196|148:200|196:164,1,250,8|8,0:0|0:0,0:0:0:0:
280,112,156839,2,0,L|297:235,1,125,0|8,3:0|0:0,0:0:0:0:
384,288,157543,5,0,3:0:0:0:
472,236,157894,2,0,P|488:184|456:116,1,125,8|0,0:0|3:0,0:0:0:0:
424,88,158421,1,0,3:0:0:0:
332,130,158773,2,0,P|272:136|208:96,1,125,0|0,3:0|3:0,0:0:0:0:
179,73,159300,1,8,0:0:0:0:
80,68,159652,1,0,3:0:0:0:
24,148,160003,1,8,0:0:0:0:
64,240,160355,6,0,P|117:269|177:256,1,125,0|8,3:0|0:0,0:0:0:0:
260,312,161058,2,0,P|313:282|373:295,1,125,0|8,3:0|0:0,0:0:0:0:
424,296,161585,2,0,B|444:256|444:256|432:113,1,187.5,0|8,3:0|0:0,0:0:0:0:
352,56,162464,1,0,3:0:0:0:
264,104,162816,1,8,0:0:0:0:
172,68,163167,6,0,P|114:47|56:69,1,125,0|8,3:0|0:0,0:0:0:0:
12,160,163870,2,0,P|40:171|72:169,1,62.5,0|0,3:0|3:0,0:0:0:0:
172,172,164398,2,0,L|156:296,1,125,0|0,3:0|3:0,0:0:0:0:
148,344,164925,2,0,P|90:323|32:345,2,125,8|0|8,0:0|3:0|0:0,0:0:0:0:
248,336,165979,6,0,P|305:358|363:337,1,125,0|8,3:0|0:0,0:0:0:0:
424,256,166683,2,0,P|366:233|308:254,1,125,0|8,3:0|0:0,0:0:0:0:
256,192,167386,12,0,168792,3:0:0:0:
256,192,171604,5,0,3:0:0:0:
408,96,173362,6,0,L|420:228,2,125,2|2|2,0:0|0:0|0:0,0:0:0:0:
320,48,174416,6,0,P|276:76|192:64,1,125,0|8,3:0|0:0,0:0:0:0:
108,92,175119,2,0,P|76:140|92:224,1,125,0|8,3:0|0:0,0:0:0:0:
148,280,175823,1,0,3:0:0:0:
236,232,176174,2,0,P|300:220|368:264,2,125,8|0|8,0:0|3:0|0:0,0:0:0:0:
256,192,177229,12,0,180041,0:0:0:0:
