osu file format v14

[General]
AudioFilename: Asriel Dreemurr Theme.mp3
AudioLeadIn: 0
PreviewTime: 21322
Countdown: 0
SampleSet: Soft
StackLeniency: 0.7
Mode: 0
LetterboxInBreaks: 0
WidescreenStoryboard: 0

[Editor]
DistanceSpacing: 1
BeatDivisor: 4
GridSize: 4
TimelineZoom: 1.3

[Metadata]
Title:Hopes and Dreams
TitleUnicode:Hopes and Dreams
Artist:toby fox
ArtistUnicode:toby fox
Creator:Fatfan Kolek
Version:Easy
Source:UNDERTALE
Tags:Little CloudSplash16 Mazziv Rumia- MoeMoeKyunNN asriel dreemurr
BeatmapID:1220231
BeatmapSetID:414432

[Difficulty]
HPDrainRate:2
CircleSize:2
OverallDifficulty:2
ApproachRate:3
SliderMultiplier:0.9
SliderTickRate:1

[Events]
//Background and Video events
0,0,"wallhaven-280596.jpg",0,0
//Break Periods
2,135067,138526
2,140869,143799
2,168992,170164
//Storyboard Layer 0 (Background)
//Storyboard Layer 1 (Fail)
//Storyboard Layer 2 (Pass)
//Storyboard Layer 3 (Foreground)
//Storyboard Sound Samples

[TimingPoints]
84,351.539155602948,4,2,16,60,1,0
84,-117.647058823529,4,2,16,60,0,0
21322,351.539155602948,4,2,16,60,1,0
22552,351.539155602948,4,2,16,75,1,1
22552,-100,4,2,16,75,0,1
45050,-117.647058823529,4,2,16,50,0,0
67549,-100,4,2,16,70,0,0
78798,-100,4,2,16,70,0,0
90047,-100,4,2,16,70,0,0
112546,-100,4,2,16,80,0,1
134868,-100,4,2,16,80,0,0
139966,-100,4,2,16,50,0,0
146293,-100,4,2,16,75,0,0
178108,-100,4,2,16,60,0,0
178635,-100,4,2,16,40,0,0
179162,-100,4,2,16,20,0,0
180041,-100,4,2,16,5,0,0

[Colours]
Combo1 : 255,30,221
Combo2 : 255,30,30
Combo3 : 242,115,0
Combo4 : 255,255,15
Combo5 : 108,255,38
Combo6 : 36,146,255
Combo7 : 13,49,255
Combo8 : 131,30,255

[HitObjects]
164,288,84,6,0,P|104:300|35:369,2,153.000002918243,2|2|2,0:0|0:0|0:0,0:0:0:0:
439,155,2896,6,0,B|475:99|475:99|475:12,2,153.000002918243,2|2|2,0:0|0:0|0:0,0:0:0:0:
134,183,5708,6,0,P|70:167|20:98,2,153.000002918243,2|2|2,0:0|0:0|0:0,0:0:0:0:
339,284,8169,5,2,0:0:0:0:
374,351,8520,2,0,B|406:312|406:312|439:291|439:291|480:243,2,153.000002918243,2|2|2,0:0|0:0|0:0,0:0:0:0:
105,203,11333,6,0,P|44:156|8:74,2,153.000002918243,2|2|2,0:0|0:0|0:0,0:0:0:0:
407,159,14145,6,0,P|468:112|504:30,2,153.000002918243,2|2|2,0:0|0:0|0:0,0:0:0:0:
124,276,16957,6,0,B|160:343|160:343|242:344,2,153.000002918243,2|2|2,0:0|0:0|0:0,0:0:0:0:
213,64,19418,5,2,0:0:0:0:
289,69,19770,2,0,L|444:80,2,153.000002918243,2|2|0,0:0|0:0|0:0,0:0:0:0:
32,86,22552,6,0,P|92:138|99:249,1,180,4|0,3:2|3:0,0:0:0:0:
154,309,23606,1,8,0:0:0:0:
236,346,23958,2,0,B|296:310|296:310|303:192,1,180,0|0,3:0|3:0,0:0:0:0:
450,98,25364,6,0,L|440:279,1,180,0|0,3:0|3:0,0:0:0:0:
363,324,26418,1,8,0:0:0:0:
296,263,26770,2,0,P|249:226|130:220,1,180,0|0,3:0|3:0,0:0:0:0:
2,343,28176,6,0,L|20:148,1,180,0|0,3:0|3:0,0:0:0:0:
152,40,29582,2,0,B|146:107|146:107|162:153|162:153|155:225,1,180,0|0,3:0|3:0,0:0:0:0:
196,300,30637,1,8,0:0:0:0:
276,340,30988,6,0,P|360:324|404:240,2,180,0|0|0,3:0|3:0|3:0,0:0:0:0:
224,264,32746,2,0,L|216:172,1,90,8|0,0:0|3:0,0:0:0:0:
256,93,33449,1,8,0:0:0:0:
341,63,33801,6,0,P|429:75|439:161,1,180,0|0,3:0|3:0,0:0:0:0:
386,222,34855,1,8,0:0:0:0:
296,230,35207,2,0,B|206:234|206:234|131:295,1,180,0|0,3:0|3:0,0:0:0:0:
3,169,36613,6,0,P|61:101|161:75,1,180,0|0,3:0|3:0,0:0:0:0:
235,74,37668,1,8,0:0:0:0:
319,43,38019,2,0,P|315:113|225:164,1,180,0|0,3:0|3:0,0:0:0:0:
68,244,39425,6,0,B|132:252|132:252|176:280|176:280|248:288,1,180,0|0,3:0|3:0,0:0:0:0:
418,306,40832,2,0,P|447:238|435:128,1,180,0|0,3:0|3:0,0:0:0:0:
387,59,41886,1,8,0:0:0:0:
296,62,42238,6,0,B|232:75|232:75|197:109|197:109|121:124,2,180,0|0|0,3:0|3:0|3:0,0:0:0:0:
387,62,43995,2,0,P|417:98|428:147,1,90,8|0,0:0|3:0,0:0:0:0:
429,229,44698,1,8,0:0:0:0:
371,298,45050,6,0,L|212:312,1,153.000002918243,0|8,3:0|0:0,0:0:0:0:
127,188,46456,2,0,L|282:201,1,153.000002918243,0|8,3:0|0:0,0:0:0:0:
408,123,47862,6,0,L|484:129,2,76.5000014591217,0|0|8,3:0|0:0|0:0,0:0:0:0:
274,48,49268,2,0,L|349:33,2,76.5000014591217,0|0|8,3:0|0:0|0:0,0:0:0:0:
123,75,50675,6,0,P|71:134|66:205,1,153.000002918243,0|8,3:0|0:0,0:0:0:0:
166,321,52081,2,0,P|217:261|222:190,1,153.000002918243,0|8,3:0|0:0,0:0:0:0:
239,37,53487,6,0,P|274:25|318:22,2,76.5000014591217,0|0|8,3:0|0:0|0:0,0:0:0:0:
329,160,54893,2,0,P|365:157|409:166,2,76.5000014591217,0|0|8,3:0|0:0|0:0,0:0:0:0:
317,303,56299,6,0,B|272:324|272:324|155:324,1,153.000002918243,0|8,3:0|0:0,0:0:0:0:
53,222,57705,2,0,B|98:201|98:201|211:201,1,153.000002918243,0|8,3:0|0:0,0:0:0:0:
352,227,59112,6,0,B|390:231|390:231|429:226,2,76.5000014591217,0|0|8,3:0|0:0|0:0,0:0:0:0:
399,81,60518,2,0,B|437:75|437:75|472:60,2,76.5000014591217,0|0|8,3:0|0:0|0:0,0:0:0:0:
249,50,61924,6,0,P|173:44|106:88,1,153.000002918243,0|8,3:0|0:0,0:0:0:0:
12,201,63330,2,0,L|36:353,1,153.000002918243,0|8,3:0|0:0,0:0:0:0:
168,275,64736,6,0,P|208:246|309:256,1,153.000002918243,0|8,3:0|0:0,0:0:0:0:
429,348,66142,1,2,0:0:0:0:
429,348,67549,6,0,L|418:243,1,90,0|8,3:0|0:0,0:0:0:0:
358,192,68252,2,0,L|347:87,1,90,0|8,3:0|0:0,0:0:0:0:
273,52,68955,2,0,B|210:30|210:30|140:47,2,135,0|0|8,3:0|3:0|0:0,0:0:0:0:
348,102,70361,6,0,P|315:133|260:139,1,90,0|8,3:0|0:0,0:0:0:0:
182,145,71064,2,0,P|139:157|102:194,1,90,0|8,3:0|0:0,0:0:0:0:
101,277,71767,2,0,P|148:351|233:355,1,180,0|8,3:0|3:2,0:0:0:0:
384,257,73173,6,0,L|295:243,1,90,0|8,3:0|0:0,0:0:0:0:
255,162,73876,2,0,L|344:148,1,90,0|8,3:0|0:0,0:0:0:0:
387,71,74579,2,0,P|448:81|487:144,2,135,0|0|8,3:0|3:0|0:0,0:0:0:0:
300,47,75985,6,0,L|205:47,1,90,0|8,3:0|0:0,0:0:0:0:
123,71,76689,2,0,P|89:115|86:160,1,90,0|8,3:0|0:0,0:0:0:0:
127,226,77392,2,0,P|187:244|261:149,1,180,0|8,3:0|3:2,0:0:0:0:
402,55,78798,6,0,L|389:155,1,90,2|8,3:2|0:0,0:0:0:0:
442,217,79501,2,0,P|414:271|377:294,1,90,2|10,3:2|0:0,0:0:0:0:
313,332,80204,2,0,B|247:349|247:349|174:328,2,135,2|2|10,3:2|3:2|0:0,0:0:0:0:
391,287,81610,6,0,L|400:192,1,90,2|8,3:2|0:0,0:0:0:0:
368,112,82313,2,0,P|321:101|269:70,1,90,2|10,3:2|0:0,0:0:0:0:
204,39,83016,2,0,P|124:36|59:110,1,180,2|2,3:2|3:2,0:0:0:0:
41,284,84422,6,0,L|135:307,1,90,2|8,3:2|0:0,0:0:0:0:
211,271,85125,2,0,L|305:294,1,90,2|10,3:2|0:0,0:0:0:0:
387,309,85829,2,0,B|442:272|442:272|465:195,2,135,2|2|10,3:2|3:2|0:0,0:0:0:0:
298,292,87235,6,0,P|252:251|239:214,1,90,2|8,3:2|0:0,0:0:0:0:
262,138,87938,2,0,L|159:132,1,90,2|10,3:2|0:0,0:0:0:0:
88,166,88641,2,0,P|86:102|186:44,1,180,2|10,3:2|3:2,0:0:0:0:
354,48,90047,5,2,3:2:0:0:
416,113,90399,2,0,L|416:215,2,90,8|2|10,0:0|3:2|0:0,0:0:0:0:
354,48,91453,2,0,P|297:76|273:191,1,180,2|2,3:2|0:0,0:0:0:0:
336,243,92508,1,10,0:0:0:0:
293,321,92859,6,0,L|202:332,1,90,2|8,3:2|0:0,0:0:0:0:
150,259,93562,2,0,L|60:248,1,90,2|10,3:2|0:0,0:0:0:0:
22,166,94265,2,0,P|42:111|160:56,1,180,2|2,3:2|3:2,0:0:0:0:
323,45,95672,5,2,3:2:0:0:
393,101,96023,2,0,P|437:97|480:78,2,90,8|2|10,0:0|3:2|0:0,0:0:0:0:
309,134,97078,2,0,P|289:188|385:244,1,180,2|2,3:2|0:0,0:0:0:0:
465,257,98132,1,10,0:0:0:0:
417,333,98484,6,0,B|318:340,1,90,2|8,3:2|0:0,0:0:0:0:
249,293,99187,2,0,P|203:285|150:299,1,90,2|10,3:2|0:0,0:0:0:0:
80,333,99890,2,0,L|54:140,1,180,2|2,3:2|3:2,0:0:0:0:
204,53,101296,5,2,3:2:0:0:
262,121,101648,2,0,P|289:81|291:30,2,90,8|2|10,0:0|3:2|0:0,0:0:0:0:
180,158,102702,2,0,P|249:210|337:170,1,180,2|2,3:2|0:0,0:0:0:0:
371,99,103757,1,10,0:0:0:0:
458,77,104109,6,0,L|458:172,1,90,2|8,3:2|0:0,0:0:0:0:
485,252,104812,2,0,P|461:290|409:318,1,90,2|10,3:2|0:0,0:0:0:0:
339,347,105515,2,0,B|274:347|274:347|229:322|229:322|156:322,1,180,2|2,3:2|3:2,0:0:0:0:
51,183,106921,5,2,3:2:0:0:
113,118,107272,2,0,B|75:95|75:95|19:95,2,90,8|2|10,0:0|3:2|0:0,0:0:0:0:
139,204,108327,2,0,P|208:210|293:131,1,180,2|2,3:2|0:0,0:0:0:0:
257,57,109382,1,10,0:0:0:0:
342,27,109733,6,0,L|440:47,1,90,2|8,3:2|0:0,0:0:0:0:
497,105,110436,2,0,P|508:149|497:197,1,90,2|10,3:2|0:0,0:0:0:0:
496,283,111139,2,0,P|430:253|423:140,1,180,2|2,3:2|3:2,0:0:0:0:
239,12,112546,6,0,L|235:114,1,90,0|8,3:0|0:0,0:0:0:0:
268,185,113249,2,0,P|251:233|207:272,1,90,0|8,3:0|0:0,0:0:0:0:
140,293,113952,2,0,B|72:270|72:270|46:192,2,135,0|0|8,3:0|3:0|0:0,0:0:0:0:
210,348,115358,6,0,L|302:348,1,90,0|8,3:0|0:0,0:0:0:0:
389,343,116061,2,0,P|411:304|421:251,1,90,0|8,3:0|0:0,0:0:0:0:
432,170,116764,2,0,B|390:123|390:123|343:113|343:113|291:58,1,180,0|0,3:0|3:0,0:0:0:0:
213,100,117819,1,8,0:0:0:0:
136,53,118170,6,0,P|123:109|140:153,1,90,0|8,3:0|0:0,0:0:0:0:
122,228,118873,2,0,P|168:222|212:179,1,90,0|8,3:0|0:0,0:0:0:0:
285,163,119576,2,0,L|422:185,2,135,0|0|8,3:0|3:0|0:0,0:0:0:0:
201,195,120982,6,0,P|228:233|266:251,1,90,0|8,3:0|0:0,0:0:0:0:
355,264,121686,2,0,L|346:368,1,90,0|8,3:0|0:0,0:0:0:0:
257,363,122389,2,0,P|180:321|85:340,1,180,0|0,3:0|3:0,0:0:0:0:
19,283,123443,1,8,0:0:0:0:
19,192,123795,6,0,L|31:98,1,90,0|8,3:0|0:0,0:0:0:0:
86,32,124498,2,0,P|114:68|120:112,1,90,0|8,3:0|0:0,0:0:0:0:
173,183,125201,2,0,B|259:183|259:183|297:150,2,135,0|0|8,3:0|3:0|0:0,0:0:0:0:
102,239,126607,6,0,P|137:266|189:272,1,90,0|8,3:0|0:0,0:0:0:0:
268,296,127310,2,0,L|341:234,1,90,0|8,3:0|0:0,0:0:0:0:
426,226,128013,2,0,P|375:155|286:163,1,180,0|0,3:0|3:0,0:0:0:0:
232,90,129068,1,8,0:0:0:0:
144,110,129419,6,0,P|164:150|201:176,1,90,0|8,3:0|0:0,0:0:0:0:
290,160,130122,2,0,L|281:268,1,90,0|8,3:0|0:0,0:0:0:0:
337,321,130826,2,0,P|401:305|471:332,2,135,0|0|8,3:0|3:0|0:0,0:0:0:0:
251,349,132232,6,0,P|207:359|152:341,1,90,0|8,3:0|0:0,0:0:0:0:
89,297,132935,2,0,L|99:192,1,90,0|8,3:0|0:0,0:0:0:0:
111,118,133638,2,0,P|198:108|258:174,1,180,0|0,3:0|0:0,0:0:0:0:
260,260,134692,2,0,L|326:259,1,45,8|0,0:0|0:0,0:0:0:0:
200,96,139966,6,0,P|256:38|311:100,1,180,2|2,0:0|0:0,0:0:0:0:
312,288,145239,6,0,P|256:346|201:284,1,180,2|2,0:0|0:0,0:0:0:0:
258,218,146293,6,0,L|258:127,1,90,0|8,3:0|0:0,0:0:0:0:
316,58,146996,2,0,P|381:89|446:75,2,135,0|2|8,3:0|0:0|0:0,0:0:0:0:
227,39,148403,2,0,L|131:49,1,90,0|8,3:0|0:0,0:0:0:0:
47,58,149106,5,0,3:0:0:0:
130,217,149809,2,0,B|130:295|130:295|88:345,2,135,2|2|8,3:2|0:0|0:0,0:0:0:0:
118,127,151215,2,0,P|164:130|204:165,1,90,0|8,3:0|0:0,0:0:0:0:
256,224,151918,6,0,L|356:224,1,90,0|8,3:0|0:0,0:0:0:0:
396,149,152621,2,0,P|392:89|440:32,2,135,0|2|8,3:0|0:0|0:0,0:0:0:0:
458,213,154027,2,0,P|469:257|458:307,1,90,0|8,3:0|0:0,0:0:0:0:
384,347,154730,6,0,L|274:333,1,90,0|8,3:0|0:0,0:0:0:0:
235,267,155433,2,0,L|125:253,1,90,0|8,3:0|0:0,0:0:0:0:
91,183,156136,2,0,P|109:101|194:60,1,180,0|0,3:0|3:0,0:0:0:0:
278,47,157191,1,8,0:0:0:0:
365,68,157543,6,0,P|389:123|385:161,1,90,0|8,3:0|0:0,0:0:0:0:
329,220,158246,2,0,P|342:296|386:340,2,135,0|2|8,3:0|0:0|0:0,0:0:0:0:
300,134,159652,2,0,L|199:133,1,90,0|8,3:0|0:0,0:0:0:0:
143,72,160355,5,0,3:0:0:0:
91,244,161058,2,0,B|138:290|138:290|215:290,2,135,2|2|8,3:2|0:0|0:0,0:0:0:0:
47,165,162464,2,0,P|91:153|136:165,1,90,0|8,3:0|0:0,0:0:0:0:
214,203,163167,6,0,L|243:110,1,90,0|8,3:0|0:0,0:0:0:0:
299,48,163870,2,0,B|355:24|355:24|438:24,2,135,0|2|8,3:0|0:0|0:0,0:0:0:0:
240,117,165276,2,0,P|277:136|331:132,1,90,0|8,3:0|0:0,0:0:0:0:
411,112,165979,6,0,L|422:210,1,90,0|8,3:0|0:0,0:0:0:0:
431,291,166683,2,0,P|389:310|328:303,1,90,0|8,3:0|0:0,0:0:0:0:
300,231,167386,2,0,P|214:189|117:201,1,180,0|0,3:0|3:0,0:0:0:0:
52,236,168440,1,8,0:0:0:0:
51,326,168792,5,0,3:0:0:0:
51,326,171604,5,0,3:0:0:0:
51,326,173362,6,0,L|158:326,1,90,2|2,1:2|1:2,0:0:0:0:
231,324,174065,1,2,1:2:0:0:
316,295,174416,6,0,P|355:276|382:232,1,90,0|8,3:0|0:0,0:0:0:0:
357,150,175119,2,0,L|357:58,1,90,0|8,3:0|0:0,0:0:0:0:
276,18,175823,2,0,P|231:24|196:53,1,90,0|8,3:0|0:0,0:0:0:0:
130,111,176526,6,0,L|130:205,1,90,0|8,3:0|0:0,0:0:0:0:
188,269,177229,1,0,3:0:0:0:
256,192,177580,12,0,180041,0:0:0:0:
