osu file format v14

[General]
AudioFilename: Asriel Dreemurr Theme.mp3
AudioLeadIn: 0
PreviewTime: 21322
Countdown: 0
SampleSet: Normal
StackLeniency: 0.7
Mode: 0
LetterboxInBreaks: 0
WidescreenStoryboard: 0

[Editor]
Bookmarks: 21585,50675,111842,113073,129419,132935,135044,157543
DistanceSpacing: 1.4
BeatDivisor: 4
GridSize: 4
TimelineZoom: 0.8999996

[Metadata]
Title:Hopes and Dreams
TitleUnicode:Hopes and Dreams
Artist:toby fox
ArtistUnicode:toby fox
Creator:Fatfan Kolek
Version:Maz' Hard
Source:UNDERTALE
Tags:Little CloudSplash16 Mazziv Rumia- MoeMoeKyunNN asriel dreemurr
BeatmapID:1180414
BeatmapSetID:414432

[Difficulty]
HPDrainRate:5
CircleSize:3.5
OverallDifficulty:6
ApproachRate:8
SliderMultiplier:1.55
SliderTickRate:1

[Events]
//Background and Video events
0,0,"wallhaven-280596.jpg",0,0
//Break Periods
2,135067,139216
2,140869,144489
2,168992,173666
//Storyboard Layer 0 (Background)
//Storyboard Layer 1 (Fail)
//Storyboard Layer 2 (Pass)
//Storyboard Layer 3 (Foreground)
//Storyboard Sound Samples

[TimingPoints]
84,351.539155602948,4,2,16,60,1,0
84,-166.666666666667,4,2,16,60,0,0
21176,-100,4,2,16,60,0,0
21322,351.539155602948,4,2,16,75,1,0
22552,351.539155602948,4,2,16,60,1,1
22552,-100,4,2,16,60,0,1
45050,-166.666666666667,4,2,16,50,0,0
45753,-166.666666666667,4,3,16,50,0,0
67549,-100,4,1,2,70,0,0
78798,-100,4,1,69,70,0,0
90047,-133.333333333333,4,1,70,70,0,0
112546,-100,4,1,2,80,0,0
134868,-100,4,2,16,80,0,0
139966,-100,4,2,16,50,0,0
140229,-100,4,2,16,5,0,0
140317,-100,4,2,16,50,0,0
140581,-100,4,2,16,5,0,0
140669,-100,4,2,16,50,0,0
141372,-100,4,2,16,5,0,0
145239,-100,4,2,16,50,0,0
145502,-100,4,2,16,5,0,0
145590,-100,4,2,16,50,0,0
145854,-100,4,2,16,5,0,0
145942,-100,4,2,16,50,0,0
146205,-100,4,2,16,5,0,0
146293,-100,4,1,2,75,0,1
168792,-100,4,1,2,75,0,0
177229,-100,4,1,2,75,0,0
178108,-100,4,1,2,60,0,0
178283,-100,4,1,2,60,0,0
178635,-100,4,1,2,40,0,0
179162,-100,4,1,2,20,0,0
179338,-100,4,1,2,20,0,0
180041,-100,4,1,2,5,0,0

[Colours]
Combo1 : 255,30,221
Combo2 : 255,30,30
Combo3 : 242,115,0
Combo4 : 255,255,15
Combo5 : 108,255,38
Combo6 : 36,146,255
Combo7 : 13,49,255
Combo8 : 131,30,255

[HitObjects]
116,144,84,6,0,P|196:144|196:40,2,185.999994323731,2|2|2,0:0|0:0|0:0,0:0:0:0:
367,94,2896,6,0,P|327:164|417:216,2,185.999994323731,2|2|2,0:0|0:0|0:0,0:0:0:0:
284,337,5708,6,0,P|244:267|154:319,2,185.999994323731,2|2|2,0:0|0:0|0:0,0:0:0:0:
400,88,8169,5,2,0:0:0:0:
304,51,8520,2,0,P|304:132|392:188,2,185.999994323731,2|2|2,0:0|0:0|0:0,0:0:0:0:
302,329,11333,6,0,P|310:244|396:240,2,185.999994323731,2|2|2,0:0|0:0|0:0,0:0:0:0:
128,261,14145,6,0,P|213:254|233:338,2,185.999994323731,2|2|2,0:0|0:0|0:0,0:0:0:0:
209,54,16957,6,0,P|201:139|116:144,2,185.999994323731,2|2|2,0:0|0:0|0:0,0:0:0:0:
304,104,19418,5,2,0:0:0:0:
248,192,19770,2,0,B|337:231|340:168|432:192,2,185.999994323731,2|2|2,0:0|0:0|0:0,0:0:0:0:
132,152,21322,6,0,L|124:104,2,38.75,2|4|4,3:0|3:0|3:0,0:0:0:0:
72,228,21673,1,4,3:0:0:0:
156,272,21849,2,0,L|168:352,1,77.5,4|4,3:0|3:0,0:0:0:0:
279,377,22200,2,0,L|354:357,1,77.5,4|4,3:0|3:0,0:0:0:0:
456,316,22552,6,0,P|472:248|432:144,1,155,2|0,1:2|0:0,0:0:0:0:
396,92,23079,1,0,1:0:0:0:
324,148,23255,2,0,P|248:168|156:140,1,155,2|0,0:0|1:0,0:0:0:0:
96,100,23782,1,0,0:0:0:0:
175,151,23958,6,0,L|152:312,1,155,2|0,0:0|0:0,0:0:0:0:
72,260,24485,1,0,0:0:0:0:
244,272,24661,2,0,L|332:256,1,77.5,4|0,1:0|1:0,0:0:0:0:
412,236,25012,2,0,L|398:312,1,77.5,4|0,1:0|1:0,0:0:0:0:
348,168,25364,6,0,P|328:112|364:16,1,155,2|0,1:2|0:0,0:0:0:0:
436,100,25891,1,0,1:0:0:0:
348,168,26067,2,0,P|319:238|339:311,1,155,2|0,0:0|1:0,0:0:0:0:
428,244,26594,1,0,0:0:0:0:
348,168,26770,6,0,P|269:152|187:175,1,155,2|0,0:0|0:0,0:0:0:0:
132,236,27297,1,0,0:0:0:0:
200,300,27473,2,0,P|255:311|310:298,1,77.5,4|0,1:0|1:0,0:0:0:0:
108,328,27825,2,0,P|52:316|-2:329,1,77.5,4|0,1:0|1:0,0:0:0:0:
132,236,28176,6,0,P|100:160|112:76,1,155,2|0,1:2|0:0,0:0:0:0:
160,12,28703,1,0,0:0:0:0:
220,84,28879,2,0,P|302:104|360:70,1,155,2|0,1:2|0:0,0:0:0:0:
284,8,29407,1,0,1:0:0:0:
220,84,29582,6,0,B|263:151|210:223|210:223|229:261|229:261|186:309|215:400,1,310,2|0,0:0|1:0,0:0:0:0:
144,144,30637,1,2,1:2:0:0:
80,212,30813,1,0,0:0:0:0:
52,124,30988,6,0,L|44:278,1,155,2|0,1:2|1:0,0:0:0:0:
108,348,31516,1,0,1:0:0:0:
189,294,31692,2,0,P|261:257|338:277,1,155,2|0,1:2|1:0,0:0:0:0:
410,330,32219,1,0,1:0:0:0:
452,240,32395,6,0,L|444:162,1,77.5,2|2,1:2|0:0,0:0:0:0:
372,104,32746,2,0,L|294:111,1,77.5,2|2,0:0|0:0,0:0:0:0:
232,180,33098,2,0,L|239:257,1,77.5,2|2,0:0|0:0,0:0:0:0:
312,316,33449,2,0,L|389:308,1,77.5,2|2,0:0|0:0,0:0:0:0:
452,240,33801,6,0,P|468:160|424:72,1,155,2|0,1:2|0:0,0:0:0:0:
364,48,34328,1,0,1:0:0:0:
284,96,34504,2,0,P|201:107|146:52,1,155,2|0,0:0|1:0,0:0:0:0:
232,20,35031,1,0,0:0:0:0:
284,96,35207,6,0,P|289:172|224:228,1,155,2|0,0:0|0:0,0:0:0:0:
146,242,35734,1,0,0:0:0:0:
180,160,35910,2,0,L|158:85,1,77.5,4|0,1:0|1:0,0:0:0:0:
208,304,36262,2,0,L|186:378,1,77.5,4|0,1:0|1:0,0:0:0:0:
280,356,36613,6,0,P|356:352|415:304,1,155,2|0,1:2|0:0,0:0:0:0:
464,224,37140,1,0,1:0:0:0:
400,156,37316,2,0,P|378:56|412:10,1,155,2|0,0:0|1:0,0:0:0:0:
468,88,37843,1,0,0:0:0:0:
400,156,38019,6,0,L|216:132,1,155,2|0,0:0|0:0,0:0:0:0:
151,174,38547,1,0,0:0:0:0:
180,266,38722,2,0,P|209:287|262:295,1,77.5,4|0,1:0|1:0,0:0:0:0:
151,174,39074,2,0,P|122:153|69:145,1,77.5,4|0,1:0|1:0,0:0:0:0:
13,76,39425,6,0,B|70:48|70:48|171:49,1,155,2|0,1:2|0:0,0:0:0:0:
260,51,39952,1,0,0:0:0:0:
347,107,40128,2,0,P|358:206|321:253,1,155,2|0,1:2|0:0,0:0:0:0:
249,303,40656,1,0,1:0:0:0:
166,254,40832,6,0,B|137:222|131:186|144:148|171:120|171:120|64:128|65:14,1,310,2|0,0:0|1:0,0:0:0:0:
232,192,41886,1,2,1:2:0:0:
327,231,42062,1,0,0:0:0:0:
244,288,42237,6,0,L|251:133,1,155,2|0,1:2|1:0,0:0:0:0:
224,44,42765,1,0,1:0:0:0:
136,76,42941,2,0,P|116:140|128:230,1,155,2|0,1:2|1:0,0:0:0:0:
184,300,43468,1,0,1:0:0:0:
276,300,43644,6,0,L|352:284,1,77.5,2|2,1:2|0:0,0:0:0:0:
416,216,43995,2,0,L|340:200,1,77.5,2|2,0:0|0:0,0:0:0:0:
272,136,44347,2,0,L|348:120,1,77.5,2|2,0:0|0:0,0:0:0:0:
412,52,44698,2,0,L|336:36,1,77.5,2|2,0:0|0:0,0:0:0:0:
200,24,45050,5,4,1:0:0:0:
132,112,45402,2,0,L|124:208,2,92.9999971618653,0|2|0,1:0|3:0|1:0,0:0:0:0:
224,176,46456,5,0,1:0:0:0:
204,284,46808,2,0,P|156:316|108:320,2,92.9999971618653,0|2|0,1:0|3:0|1:0,0:0:0:0:
224,176,47862,5,4,1:0:0:0:
340,252,48214,2,0,P|347:224|347:192,1,46.4999985809327,0|0,1:0|0:0,0:0:0:0:
344,180,48478,1,0,0:0:0:0:
332,156,48565,2,0,P|320:108|336:64,1,92.9999971618653,2|0,3:0|1:0,0:0:0:0:
432,120,49268,6,0,P|445:163|433:208,1,92.9999971618653,0|0,1:0|1:0,0:0:0:0:
376,304,49972,2,0,L|392:356,2,46.4999985809327,2|0|0,3:0|0:0|1:0,0:0:0:0:
264,296,50675,5,4,1:0:0:0:
164,244,51026,2,0,L|136:144,2,92.9999971618653,0|2|0,1:0|3:0|1:0,0:0:0:0:
244,164,52081,5,0,1:0:0:0:
344,112,52432,2,0,L|372:12,2,92.9999971618653,0|2|0,1:0|3:0|1:0,0:0:0:0:
352,224,53487,5,4,1:0:0:0:
396,328,53839,2,0,P|368:335|336:335,1,46.4999985809327,0|0,1:0|0:0,0:0:0:0:
324,332,54103,1,0,0:0:0:0:
300,320,54190,2,0,P|252:308|208:324,1,92.9999971618653,2|0,3:0|1:0,0:0:0:0:
112,376,54893,6,0,P|124:331|110:287,1,92.9999971618653,0|0,1:0|1:0,0:0:0:0:
56,188,55597,2,0,L|20:144,2,46.4999985809327,2|0|0,3:0|0:0|1:0,0:0:0:0:
164,168,56299,5,4,1:0:0:0:
260,108,56651,2,0,L|364:88,2,92.9999971618653,0|2|0,1:0|0:0|1:0,0:0:0:0:
164,168,57705,5,4,1:0:0:0:
80,260,58057,2,0,L|48:360,2,92.9999971618653,0|2|0,1:0|0:0|1:0,0:0:0:0:
56,152,59111,5,4,1:0:0:0:
148,92,59463,2,0,P|175:84|207:84,1,46.4999985809327,0|0,1:0|0:0,0:0:0:0:
220,88,59727,1,0,0:0:0:0:
244,100,59814,2,0,P|292:112|336:96,1,92.9999971618653,2|0,3:0|1:0,0:0:0:0:
428,40,60517,6,0,L|420:144,1,92.9999971618653,0|0,1:0|1:0,0:0:0:0:
392,240,61221,2,0,L|408:292,2,46.4999985809327,2|0|0,3:0|0:0|1:0,0:0:0:0:
280,252,61924,5,4,1:0:0:0:
172,276,62275,2,0,P|172:228|200:176,2,92.9999971618653,0|2|0,1:0|0:0|1:0,0:0:0:0:
80,212,63330,5,4,1:0:0:0:
124,108,63682,2,0,P|124:60|96:8,2,92.9999971618653,0|2|0,1:0|0:0|1:0,0:0:0:0:
80,212,64736,5,0,1:0:0:0:
156,292,65088,2,0,P|183:299|215:299,1,46.4999985809327,0|0,1:0|0:0,0:0:0:0:
228,296,65352,1,0,0:0:0:0:
252,284,65439,2,0,P|300:272|344:288,1,92.9999971618653,2|2,3:0|1:2,0:0:0:0:
428,352,66142,6,0,L|424:248,1,92.9999971618653,2|2,2:0|2:0,0:0:0:0:
416,148,66845,1,2,2:0:0:0:
416,148,67021,1,2,2:0:0:0:
416,148,67197,1,2,2:0:0:0:
268,36,67549,6,0,P|288:100|264:216,1,155,6|2,0:0|0:2,0:0:0:0:
242,272,68076,1,0,0:0:0:0:
188,348,68252,2,0,P|172:284|256:292,1,155,2|2,0:0|0:2,0:0:0:0:
320,328,68779,1,0,0:0:0:0:
400,280,68955,6,0,P|437:264|460:232,2,77.5,2|2|0,0:0|0:0|0:0,0:0:0:0:
371,191,69482,1,2,0:0:0:0:
447,138,69658,2,0,L|436:61,1,77.5,0|2,0:0|0:0,0:0:0:0:
354,16,70009,1,2,0:0:0:0:
277,68,70185,1,0,0:0:0:0:
198,17,70361,6,0,P|243:84|238:164,1,155,6|2,0:0|0:2,0:0:0:0:
159,200,70888,1,0,0:0:0:0:
97,130,71064,1,2,0:0:0:0:
18,179,71240,2,0,L|31:264,1,77.5,2|0,0:0|0:0,0:0:0:0:
49,346,71591,1,2,0:0:0:0:
135,310,71767,6,0,P|171:294|216:297,1,77.5,0|2,0:0|0:0,0:0:0:0:
297,324,72119,1,2,0:0:0:0:
330,237,72294,1,0,0:0:0:0:
411,285,72470,2,0,P|423:337|407:381,1,77.5,2|0,0:0|0:0,0:0:0:0:
460,209,72822,2,0,P|448:157|464:113,1,77.5,2|0,0:2|0:0,0:0:0:0:
492,60,73173,6,0,L|312:32,1,155,6|2,0:0|0:2,0:0:0:0:
256,80,73700,1,0,0:0:0:0:
172,25,73876,2,0,L|196:205,1,155,2|2,0:0|0:2,0:0:0:0:
289,195,74403,1,0,0:0:0:0:
368,140,74579,6,0,P|392:110|398:73,2,77.5,2|2|0,0:0|0:0|0:0,0:0:0:0:
305,71,75106,1,2,0:0:0:0:
221,30,75282,2,0,L|123:25,1,77.5,0|2,0:0|0:0,0:0:0:0:
50,18,75633,1,2,0:0:0:0:
94,99,75809,1,0,0:0:0:0:
12,143,75985,6,0,P|28:217|8:291,1,155,6|2,0:0|0:2,0:0:0:0:
64,366,76512,1,0,0:0:0:0:
156,353,76688,2,0,P|192:342|220:316,1,77.5,2|2,0:0|0:0,0:0:0:0:
226,151,77040,2,0,P|216:188|225:225,1,77.5,0|2,0:0|0:0,0:0:0:0:
369,317,77392,6,0,P|341:290|304:279,1,77.5,0|2,0:0|0:0,0:0:0:0:
225,225,77743,1,2,0:0:0:0:
309,188,77918,1,0,0:0:0:0:
357,108,78094,2,0,P|361:69|357:32,1,77.5,2|0,0:0|0:0,0:0:0:0:
461,71,78446,2,0,P|456:109|461:147,1,77.5,2|0,0:2|0:0,0:0:0:0:
392,216,78798,6,0,P|368:312|288:328,1,155,14|8,0:0|0:0,0:0:0:0:
232,308,79325,1,10,0:0:0:0:
144,332,79501,2,0,P|81:291|75:216,1,155,10|10,0:0|0:0,0:0:0:0:
189,69,80204,6,0,L|173:233,1,155,10|0,0:0|0:0,0:0:0:0:
260,180,80731,1,10,0:0:0:0:
345,224,80907,2,0,L|333:69,1,155,8|10,0:0|0:0,0:0:0:0:
174,224,81610,6,0,P|109:187|94:113,1,155,14|8,0:0|0:0,0:0:0:0:
184,132,82137,1,8,0:0:0:0:
193,39,82313,2,0,P|258:76|273:150,1,155,10|10,0:0|0:0,0:0:0:0:
401,304,83016,6,0,L|432:152,1,155,10|0,0:0|0:0,0:0:0:0:
352,101,83544,1,0,0:0:0:0:
273,148,83719,2,0,P|229:209|154:210,1,155,10|0,0:0|0:0,0:0:0:0:
132,348,84422,6,0,P|173:276|151:205,1,155,14|8,0:0|0:0,0:0:0:0:
80,268,84950,1,10,0:0:0:0:
155,210,85125,2,0,L|315:190,1,155,10|10,0:0|0:0,0:0:0:0:
488,148,85829,6,0,P|429:188|421:268,1,155,10|0,0:0|0:0,0:0:0:0:
507,239,86356,1,10,0:0:0:0:
488,148,86532,2,0,P|450:83|376:72,1,155,8|10,0:0|0:0,0:0:0:0:
196,116,87235,6,0,P|128:122|70:57,1,155,14|8,0:0|0:0,0:0:0:0:
156,36,87762,1,8,0:0:0:0:
254,45,87938,2,0,P|287:103|259:183,1,155,10|10,0:0|0:0,0:0:0:0:
134,320,88641,6,0,L|286:344,1,155,10|0,0:0|0:0,0:0:0:0:
371,313,89169,1,0,0:0:0:0:
385,227,89344,2,0,L|231:251,1,155,10|0,0:0|0:0,0:0:0:0:
28,216,90047,5,14,0:0:0:0:
140,84,90399,2,0,P|166:72|198:68,1,58.1250022172929,8|10,0:0|0:0,0:0:0:0:
284,64,90750,2,0,P|264:118|265:176,1,116.250004434586,10|10,0:0|0:0,0:0:0:0:
436,140,91453,5,10,0:0:0:0:
265,176,91805,2,0,P|236:182|208:181,1,58.1250022172929,8|10,0:0|0:0,0:0:0:0:
126,173,92156,2,0,P|140:239|134:292,1,116.250004434586,10|10,0:0|0:0,0:0:0:0:
36,140,92859,5,14,0:0:0:0:
135,287,93211,2,0,P|162:278|191:281,1,58.1250022172929,10|10,0:0|0:0,0:0:0:0:
275,313,93562,2,0,P|276:255|244:207,1,116.250004434586,10|10,0:0|0:0,0:0:0:0:
128,72,94265,6,0,L|268:56,1,116.250004434586,10|8,0:0|0:0,0:0:0:0:
312,112,94793,1,0,0:0:0:0:
364,180,94969,2,0,L|350:295,1,116.250004434586,10|8,0:0|0:0,0:0:0:0:
176,316,95672,6,0,L|112:308,2,58.1250022172929,14|10|10,0:0|0:0|0:0,0:0:0:0:
232,248,96199,1,10,0:0:0:0:
176,184,96375,2,0,P|184:124|176:56,1,116.250004434586,10|10,0:0|0:0,0:0:0:0:
352,64,97078,6,0,L|416:72,2,58.1250022172929,10|10|10,0:0|0:0|0:0,0:0:0:0:
296,132,97605,1,10,0:0:0:0:
352,196,97781,2,0,B|340:256|340:256|356:320,1,116.250004434586,10|10,0:0|0:0,0:0:0:0:
488,196,98484,5,14,0:0:0:0:
356,80,98835,2,0,P|304:80|280:72,1,58.1250022172929,10|10,0:0|0:0,0:0:0:0:
216,52,99187,2,0,L|204:184,1,116.250004434586,10|10,0:0|0:0,0:0:0:0:
196,344,99890,6,0,L|328:328,1,116.250004434586,10|8,0:0|0:0,0:0:0:0:
384,284,100417,1,8,0:0:0:0:
456,331,100593,2,0,P|468:271|444:222,1,116.250004434586,10|10,0:0|0:0,0:0:0:0:
280,164,101296,5,14,0:0:0:0:
112,212,101648,2,0,L|122:271,1,58.1250022172929,8|10,0:0|0:0,0:0:0:0:
124,348,101999,2,0,P|147:297|208:276,1,116.250004434586,10|10,0:0|0:0,0:0:0:0:
368,292,102702,5,10,0:0:0:0:
312,128,103054,2,0,P|308:98|315:62,1,58.1250022172929,8|10,0:0|0:0,0:0:0:0:
350,0,103406,2,0,P|301:26|234:32,1,116.250004434586,10|10,0:0|0:0,0:0:0:0:
84,36,104109,5,14,0:0:0:0:
160,192,104460,2,0,L|152:264,1,58.1250022172929,10|10,0:0|0:0,0:0:0:0:
136,336,104812,2,0,P|192:324|252:331,1,116.250004434586,10|10,0:0|0:0,0:0:0:0:
428,348,105515,6,0,P|440:300|412:212,1,116.250004434586,10|8,0:0|0:0,0:0:0:0:
368,168,106042,1,0,0:0:0:0:
288,204,106218,2,0,P|240:216|152:188,1,116.250004434586,10|8,0:0|0:0,0:0:0:0:
284,64,106921,6,0,P|340:64|364:52,2,58.1250022172929,14|10|10,0:0|0:0|0:0,0:0:0:0:
200,44,107448,1,10,0:0:0:0:
156,120,107624,2,0,B|164:180|164:180|148:252,1,116.250004434586,10|10,0:0|0:0,0:0:0:0:
300,316,108327,6,0,P|244:316|220:328,2,58.1250022172929,10|10|10,0:0|0:0|0:0,0:0:0:0:
384,336,108854,1,10,0:0:0:0:
424,260,109030,2,0,P|408:196|436:136,1,116.250004434586,10|10,0:0|0:0,0:0:0:0:
276,56,109733,5,14,0:0:0:0:
116,124,110085,2,0,P|116:160|104:188,1,58.1250022172929,10|10,0:0|0:0,0:0:0:0:
68,256,110436,2,0,L|188:280,1,116.250004434586,10|10,0:0|0:0,0:0:0:0:
356,300,111139,6,0,P|340:232|360:188,1,116.250004434586,10|8,0:0|0:0,0:0:0:0:
416,128,111667,1,8,0:0:0:0:
364,60,111842,2,0,P|309:41|255:58,1,116.250004434586,10|10,0:0|0:0,0:0:0:0:
120,248,112546,6,0,L|100:156,1,77.5,6|0,0:0|0:0,0:0:0:0:
80,84,112897,1,2,0:2:0:0:
16,152,113073,1,0,0:0:0:0:
103,172,113249,2,0,P|176:193|250:172,1,155,2|2,0:0|0:2,0:0:0:0:
332,128,113776,1,0,0:0:0:0:
392,200,113952,6,0,L|368:304,1,77.5,2|2,0:0|0:0,0:0:0:0:
340,364,114303,1,0,0:0:0:0:
432,344,114479,1,2,0:0:0:0:
340,364,114655,2,0,L|265:341,1,77.5,0|2,0:0|0:0,0:0:0:0:
178,309,115006,1,2,0:0:0:0:
90,341,115182,1,0,0:0:0:0:
35,265,115358,6,0,L|22:107,1,155,6|2,0:0|0:2,0:0:0:0:
16,17,115885,1,0,0:0:0:0:
103,49,116061,1,2,0:0:0:0:
113,141,116237,2,0,P|150:133|182:105,1,77.5,2|0,0:0|0:0,0:0:0:0:
232,31,116588,1,2,0:0:0:0:
325,27,116764,6,0,L|413:30,1,77.5,0|2,0:0|0:0,0:0:0:0:
449,38,117028,1,2,0:0:0:0:
449,38,117116,2,0,B|459:76|459:76|454:121,1,77.5,2|0,0:0|0:0,0:0:0:0:
361,113,117467,2,0,L|337:297,1,155,2|2,0:0|0:2,0:0:0:0:
360,357,117994,1,0,0:0:0:0:
275,321,118170,6,0,P|239:293|191:281,1,77.5,6|0,0:0|0:0,0:0:0:0:
116,295,118521,1,2,0:2:0:0:
87,206,118697,1,0,0:0:0:0:
173,171,118873,2,0,P|194:97|173:23,1,155,2|2,0:0|0:2,0:0:0:0:
95,74,119400,1,0,0:0:0:0:
173,23,119576,6,0,P|213:23|273:55,1,77.5,2|2,0:0|0:0,0:0:0:0:
336,64,119927,1,0,0:0:0:0:
412,11,120103,1,2,0:0:0:0:
490,61,120279,2,0,P|497:105|490:161,1,77.5,0|2,0:0|0:0,0:0:0:0:
427,203,120631,1,2,0:0:0:0:
480,278,120806,1,0,0:0:0:0:
401,327,120982,6,0,P|333:303|249:315,1,155,6|2,0:0|0:2,0:0:0:0:
164,344,121509,1,0,0:0:0:0:
160,250,121686,1,2,0:0:0:0:
89,189,121861,2,0,P|92:151|118:103,1,77.5,2|0,0:0|0:0,0:0:0:0:
171,46,122213,1,2,0:0:0:0:
255,85,122389,5,0,0:0:0:0:
331,32,122564,2,0,P|369:23|412:27,2,77.5,2|2|2,0:0|0:0|0:0,0:0:0:0:
255,85,123092,2,0,L|245:173,1,77.5,0|2,0:0|0:0,0:0:0:0:
235,254,123443,1,2,0:0:0:0:
147,282,123618,1,2,0:2:0:0:
85,211,123795,6,0,L|75:123,1,77.5,6|0,0:0|0:0,0:0:0:0:
116,50,124146,1,2,0:2:0:0:
205,74,124322,1,0,0:0:0:0:
285,26,124498,2,0,P|305:99|284:173,1,155,2|2,0:0|0:2,0:0:0:0:
236,253,125025,1,0,0:0:0:0:
186,175,125201,6,0,P|151:155|114:154,1,77.5,2|2,0:0|0:0,0:0:0:0:
27,191,125552,1,0,0:0:0:0:
8,285,125728,1,2,0:0:0:0:
106,314,125904,2,0,L|130:241,2,77.5,0|2|2,0:0|0:0|0:0,0:0:0:0:
185,384,126431,1,0,0:0:0:0:
288,352,126607,6,0,P|304:284|232:256,1,155,6|2,0:0|0:2,0:0:0:0:
384,336,127134,1,0,0:0:0:0:
404,244,127310,2,0,L|408:140,1,77.5,2|2,0:0|0:0,0:0:0:0:
402,52,127662,2,0,L|333:88,1,77.5,0|2,0:0|0:0,0:0:0:0:
228,142,128013,6,0,L|293:183,1,77.5,0|2,0:0|0:0,0:0:0:0:
331,210,128277,1,2,0:0:0:0:
331,210,128365,2,0,P|319:251|291:294,1,77.5,2|0,0:0|0:0,0:0:0:0:
208,300,128716,2,0,P|140:244|160:164,1,155,2|0,0:0|0:0,0:0:0:0:
200,96,129243,1,0,0:0:0:0:
149,14,129419,6,0,P|119:40|105:83,1,77.5,2|0,0:0|0:0,0:0:0:0:
145,184,129770,1,2,0:2:0:0:
45,149,129946,1,0,0:0:0:0:
200,96,130122,2,0,B|275:79|275:79|336:132,1,155,2|2,0:0|0:2,0:0:0:0:
281,204,130649,1,0,0:0:0:0:
187,184,130825,6,0,L|211:288,1,77.5,2|2,0:0|0:0,0:0:0:0:
334,352,131176,1,0,0:0:0:0:
230,353,131353,1,2,0:0:0:0:
354,260,131529,2,0,L|371:184,1,77.5,0|2,0:0|0:0,0:0:0:0:
391,94,131880,1,2,0:0:0:0:
329,25,132055,1,0,0:0:0:0:
247,63,132231,6,0,P|235:131|159:143,1,155,2|2,0:0|0:2,0:0:0:0:
85,87,132758,1,0,0:0:0:0:
44,171,132935,1,2,0:0:0:0:
106,239,133110,2,0,P|146:242|184:258,1,77.5,2|0,0:0|0:0,0:0:0:0:
245,323,133462,1,2,0:0:0:0:
331,288,133638,5,0,0:0:0:0:
303,199,133813,2,0,P|296:160|302:120,2,77.5,2|2|2,0:0|0:0|0:0,0:0:0:0:
331,288,134341,2,0,L|413:288,1,77.5,0|2,0:0|0:0,0:0:0:0:
479,228,134692,1,2,0:0:0:0:
476,135,134867,1,2,0:2:0:0:
253,111,139966,6,0,B|232:188|276:188|256:264,2,155,2|2|2,0:0|0:0|0:0,0:0:0:0:
253,111,145239,6,0,B|249:176|249:176|261:204|261:204|254:265,2,155,2|2|2,0:0|0:0|0:0,0:0:0:0:
70,75,146293,6,0,L|50:171,1,77.5
123,213,146645,2,0,L|107:288,1,77.5,2|0,0:0|0:0,0:0:0:0:
172,355,146996,1,2,0:0:0:0:
242,293,147172,2,0,P|276:275|323:264,1,77.5,2|0,0:0|0:0,0:0:0:0:
404,284,147524,6,0,P|432:212|400:120,1,155,2|2,0:0|0:0,0:0:0:0:
316,80,148051,2,0,P|268:88|224:68,1,77.5,2|0,0:0|0:0,0:0:0:0:
128,56,148403,2,0,P|154:84|165:120,1,77.5,2|0,0:0|0:0,0:0:0:0:
200,232,148754,2,0,P|211:195|237:167,1,77.5,2|0,0:0|0:0,0:0:0:0:
344,120,149106,6,0,P|332:148|360:280,1,155,6|2,1:2|2:2,0:0:0:0:
440,192,149633,1,2,2:2:0:0:
344,120,149809,2,0,P|269:102|196:126,1,155,6|2,1:2|2:2,0:0:0:0:
136,224,150336,6,0,P|140:140|68:68,1,155,6|2,1:2|2:2,0:0:0:0:
32,180,150863,2,0,L|38:257,1,77.5,2|2,2:2|2:2,0:0:0:0:
48,372,151215,2,0,L|125:365,1,77.5,2|2,1:2|2:2,0:0:0:0:
240,364,151566,2,0,L|233:286,1,77.5,2|2,1:2|2:2,0:0:0:0:
220,172,151918,6,0,L|53:185,1,155,2|2,1:0|0:0,0:0:0:0:
152,264,152445,1,0,0:0:0:0:
220,172,152621,2,0,P|226:138|272:80,2,77.5,2|2|0,0:0|0:0|0:0,0:0:0:0:
276,276,153148,6,0,P|338:295|424:240,1,155,2|2,0:0|0:0,0:0:0:0:
327,173,153675,2,0,P|316:127|327:81,1,77.5,2|0,0:0|0:0,0:0:0:0:
408,17,154027,2,0,L|244:13,1,155,2|2,0:0|0:0,0:0:0:0:
135,36,154554,1,0,0:0:0:0:
148,148,154730,6,0,P|155:182|144:232,1,77.5,6|0,0:0|0:0,0:0:0:0:
172,336,155082,2,0,P|138:325|101:290,1,77.5,6|0,0:0|0:0,0:0:0:0:
4,260,155433,2,0,P|29:236|84:220,1,77.5,6|0,0:0|0:0,0:0:0:0:
232,220,155785,6,0,B|296:220|296:220|288:304|372:336|464:312|432:200|432:200,1,310,6|2,0:0|0:2,0:0:0:0:
432,68,156839,1,2,0:2:0:0:
432,68,157191,1,2,0:2:0:0:
221,22,157543,2,0,L|214:100,1,77.5,2|0,0:0|0:0,0:0:0:0:
208,192,157894,2,0,P|246:195|288:217,1,77.5,2|0,0:0|0:0,0:0:0:0:
352,273,158246,1,2,0:0:0:0:
367,181,158421,2,0,L|375:101,1,77.5,2|0,0:0|0:0,0:0:0:0:
464,170,158773,6,0,L|448:338,1,155,2|2,0:0|0:0,0:0:0:0:
324,344,159300,2,0,P|280:340|243:323,1,77.5,2|0,0:0|0:0,0:0:0:0:
132,312,159652,2,0,P|153:279|183:255,1,77.5,2|0,0:0|0:0,0:0:0:0:
264,172,160003,2,0,P|280:206|286:244,1,77.5,2|0,0:0|0:0,0:0:0:0:
156,160,160355,6,0,P|139:125|168:8,1,155,6|2,1:2|2:2,0:0:0:0:
252,88,160882,1,2,2:2:0:0:
156,160,161058,2,0,P|129:232|151:305,1,155,6|2,1:2|2:2,0:0:0:0:
260,340,161585,6,0,P|333:318|404:345,1,155,6|2,1:2|2:2,0:0:0:0:
484,364,162113,2,0,L|496:280,1,77.5,2|2,2:2|2:2,0:0:0:0:
504,172,162464,2,0,L|425:203,1,77.5,2|2,1:2|2:2,0:0:0:0:
320,236,162816,2,0,L|380:283,1,77.5,2|2,1:2|2:2,0:0:0:0:
432,200,163167,6,0,P|457:136|420:52,1,155,2|2,1:0|0:0,0:0:0:0:
320,20,163694,1,0,0:0:0:0:
272,128,163870,2,0,L|264:216,2,77.5,2|2|0,0:0|0:0|0:0,0:0:0:0:
196,40,164397,6,0,P|129:22|52:68,1,155,2|2,0:0|0:0,0:0:0:0:
75,168,164925,2,0,P|95:216|83:256,1,77.5,2|0,0:0|0:0,0:0:0:0:
192,316,165276,2,0,P|173:282|175:244,1,77.5,2|0,0:0|0:0,0:0:0:0:
235,141,165628,2,0,P|255:189|243:229,1,77.5,2|0,0:0|0:0,0:0:0:0:
192,316,165979,6,0,L|277:306,1,77.5,6|0,0:0|0:0,0:0:0:0:
374,334,166331,2,0,L|459:324,1,77.5,6|0,0:0|0:0,0:0:0:0:
485,221,166683,2,0,P|493:182|489:139,1,77.5,6|0,0:0|0:0,0:0:0:0:
445,45,167034,1,6,0:0:0:0:
256,192,167122,12,6,168792,0:0:0:0:
63,112,174416,6,0,P|128:93|220:125,1,155,0|4,0:0|0:0,0:0:0:0:
266,198,174944,1,0,0:0:0:0:
213,287,175119,2,0,P|173:294|137:285,1,77.5
95,191,175471,2,0,P|135:184|171:193,1,77.5,4|0,0:0|0:0,0:0:0:0:
213,287,175823,6,0,B|268:319|268:319|366:302,1,155,0|4,0:0|0:0,0:0:0:0:
435,243,176350,1,0,0:0:0:0:
421,148,176526,2,0,L|409:52,1,77.5,2|0,0:2|0:0,0:0:0:0:
312,33,176877,2,0,L|324:129,1,77.5,2|0,0:2|0:0,0:0:0:0:
334,212,177229,5,2,2:2:0:0:
256,192,177404,12,2,180041,2:2:0:0:
