osu file format v14

[General]
AudioFilename: Asriel Dreemurr Theme.mp3
AudioLeadIn: 0
PreviewTime: 21322
Countdown: 0
SampleSet: Soft
StackLeniency: 0.7
Mode: 0
LetterboxInBreaks: 0
WidescreenStoryboard: 0

[Editor]
DistanceSpacing: 2.1
BeatDivisor: 4
GridSize: 4
TimelineZoom: 1.3

[Metadata]
Title:Hopes and Dreams
TitleUnicode:Hopes and Dreams
Artist:toby fox
ArtistUnicode:toby fox
Creator:Fatfan Kolek
Version:Determination
Source:UNDERTALE
Tags:Little CloudSplash16 Mazziv Rumia- MoeMoeKyunNN asriel dreemurr
BeatmapID:898367
BeatmapSetID:414432

[Difficulty]
HPDrainRate:6.5
CircleSize:4.3
OverallDifficulty:8.5
ApproachRate:9.2
SliderMultiplier:1.4
SliderTickRate:1

[Events]
//Background and Video events
0,0,"wallhaven-280596.jpg",0,0
//Break Periods
2,135068,139396
2,141572,144669
2,168992,171034
//Storyboard Layer 0 (Background)
//Storyboard Layer 1 (Fail)
//Storyboard Layer 2 (Pass)
//Storyboard Layer 3 (Foreground)
//Storyboard Sound Samples

[TimingPoints]
84,351.539155602948,4,2,0,60,1,0
259,-133.333333333333,4,2,16,60,0,0
8433,-133.333333333333,4,2,0,5,0,0
8520,-133.333333333333,4,2,16,60,0,0
19682,-133.333333333333,4,2,0,5,0,0
19770,-133.333333333333,4,2,0,60,0,0
21322,351.539155602948,4,2,0,60,1,0
21322,-80,4,2,0,60,0,0
22552,351.539155602948,4,2,0,75,1,1
22552,-80,4,2,0,75,0,1
45050,-100,4,2,0,50,0,0
45753,-100,4,3,16,50,0,0
67549,-80,4,1,2,70,0,0
78798,-80,4,1,69,70,0,0
90047,-80,4,1,70,70,0,0
112546,-66.6666666666667,4,1,2,80,0,1
134868,-66.6666666666667,4,2,0,80,0,0
139966,-100,4,2,16,50,0,0
140229,-100,4,2,0,5,0,0
140317,-100,4,2,16,50,0,0
140581,-100,4,2,0,5,0,0
140669,-100,4,2,16,50,0,0
141020,-100,4,2,16,5,0,0
141372,-100,4,2,0,5,0,0
145239,-100,4,2,16,50,0,0
145502,-100,4,2,0,5,0,0
145590,-100,4,2,16,50,0,0
145854,-100,4,2,0,5,0,0
145942,-100,4,2,16,50,0,0
146205,-100,4,2,0,5,0,0
146293,-80,4,1,2,75,0,0
147787,-80,4,1,2,5,0,0
147875,-80,4,1,2,75,0,0
153412,-80,4,1,2,5,0,0
153500,-80,4,1,2,75,0,0
159037,-80,4,1,2,5,0,0
159124,-80,4,1,2,75,0,0
164661,-80,4,1,2,5,0,0
164749,-80,4,1,2,75,0,0
173362,-133.333333333333,4,1,2,75,0,0
174416,-80,4,1,2,75,0,0
177229,-80,4,2,82,75,0,0
177317,-80,4,2,81,72,0,0
177404,-80,4,2,82,70,0,0
177492,-80,4,2,81,67,0,0
177580,-80,4,2,82,65,0,0
177668,-80,4,2,81,62,0,0
177756,-80,4,2,82,60,0,0
177844,-80,4,2,81,57,0,0
177932,-80,4,2,82,55,0,0
178020,-80,4,2,81,52,0,0
178108,-80,4,2,82,50,0,0
178195,-80,4,2,81,47,0,0
178283,-80,4,2,82,45,0,0
178371,-80,4,2,81,42,0,0
178459,-80,4,2,82,40,0,0
178547,-80,4,2,81,37,0,0
178635,-80,4,2,82,35,0,0
178723,-80,4,2,81,32,0,0
178811,-80,4,2,82,30,0,0
178899,-80,4,2,81,27,0,0
178986,-80,4,2,82,25,0,0
179074,-80,4,2,81,22,0,0
179162,-80,4,2,82,20,0,0
179250,-80,4,2,81,18,0,0
179338,-80,4,2,82,15,0,0
179426,-80,4,2,81,12,0,0
179514,-80,4,2,82,11,0,0
179602,-80,4,2,81,10,0,0
179690,-80,4,2,82,9,0,0
179777,-80,4,2,81,8,0,0
179865,-80,4,2,82,7,0,0
179953,-80,4,2,81,6,0,0
180041,-80,4,2,82,5,0,0

[Colours]
Combo1 : 255,30,221
Combo2 : 255,30,30
Combo3 : 242,115,0
Combo4 : 255,255,15
Combo5 : 108,255,38
Combo6 : 36,146,255
Combo7 : 13,49,255
Combo8 : 131,30,255

[HitObjects]
46,207,84,5,2,0:0:0:0:
114,288,259,2,0,L|222:288,1,105.000004005432
365,245,787,5,2,0:0:0:0:
414,151,962,2,0,P|363:139|312:151,1,105.000004005432
144,172,1490,5,2,0:0:0:0:
196,32,1665,2,0,B|220:60|220:60|220:132,1,105.000004005432
184,252,2193,5,0,0:0:0:0:
181,279,2369,1,0,0:0:0:0:
270,321,2544,1,0,0:0:0:0:
273,294,2720,1,0,0:0:0:0:
370,336,2896,5,2,0:0:0:0:
473,269,3072,2,0,B|501:245|501:245|501:173,1,105.000004005432
422,57,3599,5,2,0:0:0:0:
328,132,3775,2,0,L|212:132,1,105.000004005432
94,233,4302,5,2,0:0:0:0:
194,298,4478,2,0,P|246:310|298:298,1,105.000004005432
328,172,5005,5,0,0:0:0:0:
256,112,5181,1,0,0:0:0:0:
328,132,5357,1,0,0:0:0:0:
256,72,5532,1,0,0:0:0:0:
388,40,5708,5,2,0:0:0:0:
476,137,5884,2,0,L|476:249,1,105.000004005432
356,344,6411,5,2,0:0:0:0:
280,184,6587,2,0,P|268:248|288:296,1,105.000004005432
352,112,7114,5,2,0:0:0:0:
264,34,7290,2,0,B|224:34|224:34|200:42|200:42|152:42,1,105.000004005432
28,192,7817,5,0,0:0:0:0:
28,324,7993,1,0,0:0:0:0:
158,257,8169,2,0,L|74:257,1,78.7500030040742,2|0,0:0|0:0,0:0:0:0:
28,192,8520,5,2,0:0:0:0:
124,128,8696,2,0,B|192:128,1,52.5000020027161
256,280,9048,5,0,0:0:0:0:
340,336,9224,1,2,0:0:0:0:
440,336,9399,2,0,L|440:272,1,52.5000020027161
436,114,9751,1,0,0:0:0:0:
296,112,9927,5,2,0:0:0:0:
216,192,10102,1,0,0:0:0:0:
320,272,10278,1,0,0:0:0:0:
192,352,10454,1,0,0:0:0:0:
192,352,10630,5,0,0:0:0:0:
320,272,10805,1,0,0:0:0:0:
216,192,10981,1,0,0:0:0:0:
296,112,11157,1,0,0:0:0:0:
256,12,11333,5,2,0:0:0:0:
112,46,11509,2,0,B|112:108|112:108|82:157,1,105.000004005432
57,287,12036,5,2,0:0:0:0:
187,224,12212,2,0,P|239:212|291:224,1,105.000004005432
374,114,12739,5,2,0:0:0:0:
460,208,12915,2,0,L|460:316,1,105.000004005432
312,348,13442,5,0,0:0:0:0:
316,326,13618,1,0,0:0:0:0:
196,326,13794,1,0,0:0:0:0:
200,348,13969,1,0,0:0:0:0:
256,228,14145,5,2,0:0:0:0:
92,156,14321,2,0,P|144:144|194:156,1,105.000004005432
256,45,14848,5,2,0:0:0:0:
394,103,15024,2,0,B|357:128|357:128|285:128,1,105.000004005432
208,236,15551,5,2,0:0:0:0:
328,333,15727,2,0,B|328:294|328:294|336:270|336:270|336:217,1,105.000004005432
337,121,16254,5,0,0:0:0:0:
251,14,16430,1,0,0:0:0:0:
331,96,16606,1,0,0:0:0:0:
257,39,16782,1,0,0:0:0:0:
226,150,16957,5,2,0:0:0:0:
83,195,17133,2,0,B|115:220|115:220|179:220,1,105.000004005432
296,280,17660,5,2,0:0:0:0:
364,116,17836,2,0,P|377:166|364:216,1,105.000004005432
456,44,18364,5,2,0:0:0:0:
364,116,18539,2,0,L|248:116,1,105.000004005432
116,177,19067,5,0,0:0:0:0:
166,280,19242,1,0,0:0:0:0:
282,284,19418,2,0,L|362:284,1,78.7500030040742,2|0,0:0|0:0,0:0:0:0:
440,284,19770,5,2,0:0:0:0:
440,284,20473,5,2,0:0:0:0:
440,284,21176,5,2,0:0:0:0:
362,105,21322,5,2,3:0:0:0:
362,105,21409,1,4,3:0:0:0:
362,105,21497,1,4,3:0:0:0:
172,216,21673,1,4,3:0:0:0:
362,353,21849,1,4,3:0:0:0:
150,353,22025,5,4,3:0:0:0:
340,216,22200,1,4,3:0:0:0:
150,105,22376,1,4,3:0:0:0:
72,284,22552,6,0,L|72:184,1,87.5,2|0,1:2|0:0,0:0:0:0:
260,64,22903,1,0,0:0:0:0:
342,307,23079,6,0,P|299:314|256:307,1,87.5,0|2,1:0|0:0,0:0:0:0:
72,196,23430,1,0,0:0:0:0:
328,22,23606,2,0,P|341:65|329:106,1,87.5,0|0,1:0|0:0,0:0:0:0:
180,140,23958,5,2,0:0:0:0:
152,352,24133,2,0,B|136:316|136:316|136:256,1,87.5,0|0,1:0|0:0,0:0:0:0:
276,192,24485,1,0,0:0:0:0:
44,147,24661,5,4,1:0:0:0:
220,294,24837,1,0,1:0:0:0:
220,90,25012,1,4,1:0:0:0:
44,237,25188,1,0,1:0:0:0:
363,151,25364,6,0,P|374:192|363:233,1,87.5,2|0,1:2|0:0,0:0:0:0:
181,192,25715,1,0,0:0:0:0:
112,28,25891,6,0,P|103:70|113:112,1,87.5,0|2,1:0|0:0,0:0:0:0:
324,64,26243,1,0,0:0:0:0:
446,218,26418,2,0,B|409:234|409:234|345:234,1,87.5,0|0,1:0|0:0,0:0:0:0:
172,240,26770,5,2,0:0:0:0:
320,344,26946,2,0,P|364:354|408:344,1,87.5,0|0,1:0|0:0,0:0:0:0:
446,218,27297,1,0,0:0:0:0:
290,236,27473,5,4,1:0:0:0:
328,49,27649,1,0,1:0:0:0:
187,176,27825,1,4,1:0:0:0:
376,156,28000,1,0,1:0:0:0:
203,56,28176,6,0,B|159:56|159:56|117:75,1,87.5,2|0,1:2|0:0,0:0:0:0:
3,186,28528,1,0,0:0:0:0:
136,304,28703,1,0,0:0:0:0:
203,56,28879,6,0,P|244:46|288:58,1,87.5,2|0,1:2|0:0,0:0:0:0:
320,224,29231,1,0,0:0:0:0:
446,109,29407,1,0,1:0:0:0:
244,133,29582,5,2,0:0:0:0:
364,300,29758,2,0,L|268:300,1,87.5,0|0,1:0|0:0,0:0:0:0:
155,347,30110,1,0,0:0:0:0:
36,192,30285,6,0,P|24:148|40:96,1,87.5,0|0,1:0|0:0,0:0:0:0:
361,215,30637,2,0,P|373:259|357:311,1,87.5,2|0,1:2|0:0,0:0:0:0:
155,199,30988,5,2,1:2:0:0:
366,118,31164,1,0,1:0:0:0:
339,370,31340,5,0,1:2:0:0:
260,160,31516,1,0,1:0:0:0:
511,186,31692,5,2,1:2:0:0:
301,267,31868,1,0,1:0:0:0:
318,11,32043,5,0,1:2:0:0:
399,222,32219,1,0,1:0:0:0:
155,199,32395,1,2,1:2:0:0:
391,314,32570,5,2,0:0:0:0:
197,105,32746,1,2,0:0:0:0:
477,160,32922,1,2,0:0:0:0:
218,279,33098,1,2,0:0:0:0:
357,30,33273,1,2,0:0:0:0:
370,287,33449,5,2,0:0:0:0:
219,125,33625,1,2,0:0:0:0:
435,161,33801,6,0,L|339:161,1,87.5,2|0,1:2|0:0,0:0:0:0:
93,229,34152,1,0,0:0:0:0:
256,332,34328,6,0,P|298:339|341:331,1,87.5,0|2,1:0|0:0,0:0:0:0:
144,352,34680,1,0,0:0:0:0:
204,176,34855,2,0,L|204:268,1,87.5,0|0,1:0|0:0,0:0:0:0:
136,104,35207,5,2,0:0:0:0:
311,26,35383,2,0,B|361:26|361:26|411:46,1,87.5,0|0,1:0|0:0,0:0:0:0:
384,215,35734,1,0,0:0:0:0:
324,112,35910,5,4,1:0:0:0:
502,216,36086,1,0,1:0:0:0:
321,321,36262,1,4,1:0:0:0:
455,96,36437,1,0,1:0:0:0:
182,44,36613,6,0,P|172:86|181:128,1,87.5,2|0,1:2|0:0,0:0:0:0:
69,226,36965,1,0,0:0:0:0:
300,206,37140,6,0,L|203:206,1,87.5,0|2,1:0|0:0,0:0:0:0:
70,125,37492,1,0,0:0:0:0:
171,320,37668,2,0,P|214:328|257:321,1,87.5,0|0,1:0|0:0,0:0:0:0:
389,255,38019,5,2,0:0:0:0:
342,90,38195,2,0,B|386:84|386:84|431:90,1,87.5,0|0,1:0|0:0,0:0:0:0:
300,206,38547,1,0,0:0:0:0:
164,136,38722,5,4,1:0:0:0:
125,328,38898,1,0,1:0:0:0:
16,202,39074,1,4,1:0:0:0:
200,242,39250,1,0,1:0:0:0:
92,94,39425,6,0,P|80:135|91:177,1,87.5,2|0,1:2|0:0,0:0:0:0:
312,252,39777,1,0,0:0:0:0:
210,352,39953,1,0,0:0:0:0:
268,163,40128,6,0,P|311:152|351:163,1,87.5,2|0,1:2|0:0,0:0:0:0:
180,252,40480,1,0,0:0:0:0:
233,56,40656,1,0,1:0:0:0:
120,184,40832,5,2,0:0:0:0:
312,252,41007,2,0,L|408:252,1,87.5,0|0,1:0|0:0,0:0:0:0:
480,122,41359,1,0,0:0:0:0:
231,210,41535,6,0,P|223:253|232:296,1,87.5,0|0,1:0|0:0,0:0:0:0:
480,208,41886,2,0,P|488:165|480:122,1,87.5,2|0,1:2|0:0,0:0:0:0:
356,199,42238,5,2,1:2:0:0:
145,118,42414,1,0,1:0:0:0:
172,370,42590,5,0,1:2:0:0:
251,160,42766,1,0,1:0:0:0:
0,186,42942,5,2,1:2:0:0:
210,267,43118,1,0,1:0:0:0:
193,11,43293,5,0,1:2:0:0:
112,222,43469,1,0,1:0:0:0:
356,199,43645,1,2,1:2:0:0:
120,314,43820,5,2,0:0:0:0:
314,105,43996,1,2,0:0:0:0:
34,160,44172,1,2,0:0:0:0:
293,279,44348,1,2,0:0:0:0:
154,30,44523,1,2,0:0:0:0:
141,287,44699,5,2,0:0:0:0:
292,125,44875,1,2,0:0:0:0:
83,151,45050,6,0,B|43:195|43:195|43:289,1,140,4|0,1:0|1:0,0:0:0:0:
210,351,45753,1,2,3:0:0:0:
348,312,45929,1,0,0:0:0:0:
348,312,46017,1,0,0:0:0:0:
348,312,46105,2,0,L|432:312,1,70,0|0,1:0|0:0,0:0:0:0:
492,272,46456,6,0,P|516:228|492:144,1,140,0|0,1:0|1:0,0:0:0:0:
346,208,47159,1,2,3:0:0:0:
501,153,47335,1,0,0:0:0:0:
501,153,47423,1,0,0:0:0:0:
501,153,47511,2,0,L|501:80,1,70,0|0,1:0|0:0,0:0:0:0:
292,36,47862,6,0,P|256:28|220:36,1,70,4|0,1:0|0:0,0:0:0:0:
148,136,48214,2,0,P|184:144|216:136,1,70,0|0,1:0|0:0,0:0:0:0:
332,136,48565,1,2,3:0:0:0:
423,220,48741,1,0,0:0:0:0:
423,220,48829,1,0,0:0:0:0:
423,220,48917,1,0,1:0:0:0:
136,192,49268,6,0,P|101:186|64:192,1,70,0|0,1:0|0:0,0:0:0:0:
203,313,49620,2,0,P|238:319|275:313,1,70,0|0,1:0|0:0,0:0:0:0:
83,313,49972,1,2,3:0:0:0:
233,224,50147,1,0,0:0:0:0:
233,224,50235,1,0,0:0:0:0:
233,224,50323,1,0,1:0:0:0:
480,324,50675,6,0,B|428:324|428:324|396:336|396:336|336:336,1,140,4|0,1:0|1:0,0:0:0:0:
108,248,51378,1,2,3:0:0:0:
220,192,51553,1,0,0:0:0:0:
220,192,51641,1,0,0:0:0:0:
220,192,51729,2,0,L|292:192,1,70,0|0,1:0|0:0,0:0:0:0:
352,48,52081,6,0,P|308:24|224:48,1,140,0|0,1:0|1:0,0:0:0:0:
236,300,52784,1,2,3:0:0:0:
290,192,52960,1,0,0:0:0:0:
290,192,53048,1,0,0:0:0:0:
290,192,53135,2,0,L|290:120,1,70,0|0,1:0|0:0,0:0:0:0:
384,284,53487,6,0,B|420:284|420:284|460:264,1,70,4|0,1:0|0:0,0:0:0:0:
450,114,53838,2,0,B|420:100|420:100|384:100,1,70,0|0,1:0|0:0,0:0:0:0:
228,100,54190,1,2,3:0:0:0:
132,220,54366,1,0,0:0:0:0:
132,220,54454,1,0,0:0:0:0:
132,220,54542,2,0,L|48:220,1,70,0|0,1:0|0:0,0:0:0:0:
369,300,54893,6,0,P|376:334|368:368,1,70,0|0,1:0|0:0,0:0:0:0:
144,368,55245,2,0,P|135:334|143:300,1,70,0|0,1:0|0:0,0:0:0:0:
256,224,55596,1,2,3:0:0:0:
256,36,55772,1,0,0:0:0:0:
256,36,55860,1,0,0:0:0:0:
256,36,55948,1,0,1:0:0:0:
56,52,56299,6,0,L|56:128,1,70,4|0,1:0|0:0,0:0:0:0:
148,244,56651,1,0,1:0:0:0:
256,16,57002,1,2,0:0:0:0:
158,91,57178,1,0,0:0:0:0:
158,91,57266,1,0,0:0:0:0:
158,91,57354,1,0,1:0:0:0:
456,332,57705,6,0,L|456:256,1,70,4|0,1:0|0:0,0:0:0:0:
364,140,58057,1,0,1:0:0:0:
256,368,58408,1,2,0:0:0:0:
354,293,58584,1,0,0:0:0:0:
354,293,58672,1,0,0:0:0:0:
354,293,58760,1,0,1:0:0:0:
76,192,59112,6,0,B|38:192|38:192|0:170,1,70,4|0,1:0|0:0,0:0:0:0:
200,96,59463,2,0,B|238:96|238:96|265:112,1,70,0|0,1:0|0:0,0:0:0:0:
368,186,59815,1,2,3:0:0:0:
502,192,59990,1,0,0:0:0:0:
502,192,60078,1,0,0:0:0:0:
502,192,60166,1,0,1:0:0:0:
236,352,60518,6,0,B|160:352,1,70,0|0,1:0|0:0,0:0:0:0:
50,236,60869,2,0,P|84:228|120:236,1,70,0|0,1:0|0:0,0:0:0:0:
252,232,61221,1,2,3:0:0:0:
364,176,61397,1,0,0:0:0:0:
364,176,61484,1,0,0:0:0:0:
364,176,61572,1,0,1:0:0:0:
364,52,61748,1,0,0:0:0:0:
328,204,61924,6,0,B|328:280|328:280|364:340,1,140,4|0,1:0|1:0,0:0:0:0:
280,96,62627,1,2,0:0:0:0:
172,156,62803,1,0,0:0:0:0:
172,156,62891,1,0,0:0:0:0:
172,156,62979,2,0,L|96:156,1,70,0|0,1:0|0:0,0:0:0:0:
28,320,63330,6,0,B|68:352|68:352|156:352,1,140,4|0,1:0|1:0,0:0:0:0:
418,352,64033,1,2,0:0:0:0:
310,288,64209,1,0,0:0:0:0:
310,288,64297,1,0,0:0:0:0:
310,288,64385,2,0,L|310:212,1,70,0|0,1:0|0:0,0:0:0:0:
366,104,64736,6,0,P|400:111|434:105,1,70,0|0,1:0|0:0,0:0:0:0:
253,33,65088,2,0,P|219:26|183:32,1,70,0|0,1:0|0:0,0:0:0:0:
50,57,65439,1,2,3:0:0:0:
0,172,65615,1,0,0:0:0:0:
0,172,65703,1,0,0:0:0:0:
0,172,65791,5,2,1:2:0:0:
256,192,66142,1,2,2:0:0:0:
512,212,66494,1,2,2:0:0:0:
168,236,66845,5,2,2:0:0:0:
256,108,67021,1,2,2:0:0:0:
344,236,67197,1,2,2:0:0:0:
344,236,67549,5,6,0:0:0:0:
372,52,67724,1,0,0:0:0:0:
256,272,67900,2,0,P|213:283|172:272,1,87.5,2|0,0:2|0:0,0:0:0:0:
28,80,68252,6,0,L|128:80,1,87.5,2|0,0:0|0:0,0:0:0:0:
326,228,68603,2,0,P|339:273|326:316,1,87.5,2|0,0:2|0:0,0:0:0:0:
128,348,68955,5,2,0:0:0:0:
264,152,69130,2,0,L|356:152,1,87.5,2|0,0:0|0:0,0:0:0:0:
44,120,69482,6,2,P|11:198|43:277,1,175
82,318,69921,1,2,0:0:0:0:
128,348,70009,2,0,L|216:348,1,87.5,2|0,0:0|0:0,0:0:0:0:
368,192,70361,5,6,0:0:0:0:
176,268,70537,1,0,0:0:0:0:
352,107,70712,2,0,B|368:143|368:143|368:191,1,87.5,2|0,0:2|0:0,0:0:0:0:
215,348,71064,5,2,0:0:0:0:
136,112,71240,2,0,L|48:112,1,87.5,2|0,0:0|0:0,0:0:0:0:
328,48,71591,6,2,B|464:48|464:48|440:92,1,175
411,122,72031,1,2,0:0:0:0:
376,164,72119,2,0,P|368:208|380:248,1,87.5,2|0,0:0|0:0,0:0:0:0:
496,144,72470,5,2,0:0:0:0:
256,88,72646,1,0,0:0:0:0:
288,280,72822,5,2,0:2:0:0:
344,40,72997,1,0,0:0:0:0:
412,308,73173,6,0,B|324:308,1,87.5,6|0,0:0|0:0,0:0:0:0:
105,192,73525,2,0,P|146:180|189:192,1,87.5,2|0,0:2|0:0,0:0:0:0:
256,364,73876,5,2,0:0:0:0:
148,260,74052,1,0,0:0:0:0:
256,76,74228,2,0,B|280:108|280:108|280:156,1,87.5,2|0,0:2|0:0,0:0:0:0:
160,360,74579,5,2,0:0:0:0:
196,128,74755,2,0,L|100:128,1,87.5,2|0,0:0|0:0,0:0:0:0:
284,308,75107,6,2,B|336:348|336:348|448:348,1,175
476,303,75546,1,2,0:0:0:0:
504,256,75634,2,0,L|408:256,1,87.5,2|0,0:0|0:0,0:0:0:0:
256,192,75985,5,6,0:0:0:0:
364,28,76161,1,0,0:0:0:0:
216,56,76337,5,2,0:2:0:0:
424,188,76513,1,0,0:0:0:0:
240,212,76689,5,2,0:0:0:0:
384,16,76864,2,0,B|384:108,1,87.5,2|0,0:0|0:0,0:0:0:0:
264,328,77216,6,2,B|264:268|264:268|240:218|240:218|240:158,1,175
218,103,77655,1,2,0:0:0:0:
168,72,77743,2,0,L|76:72,1,87.5,2|0,0:0|0:0,0:0:0:0:
328,128,78095,5,2,0:0:0:0:
452,192,78270,1,0,0:0:0:0:
344,296,78446,5,2,0:2:0:0:
468,360,78622,1,0,0:0:0:0:
328,128,78798,6,0,L|237:128,1,87.5,14|0,0:0|0:0,0:0:0:0:
109,253,79149,1,8,0:0:0:0:
307,215,79325,1,8,0:0:0:0:
187,376,79501,6,0,L|187:288,1,87.5,10|0,0:0|0:0,0:0:0:0:
203,107,79852,1,10,0:0:0:0:
25,147,80028,1,0,0:0:0:0:
136,40,80204,5,10,0:0:0:0:
64,239,80380,2,0,B|64:283|64:283|93:322,1,87.5,10|0,0:0|0:0,0:0:0:0:
281,319,80731,1,10,0:0:0:0:
203,107,80907,5,8,0:0:0:0:
163,247,81083,1,2,0:0:0:0:
163,247,81171,1,2,0:0:0:0:
163,247,81259,2,0,P|203:259|247:247,1,87.5,10|0,0:0|0:0,0:0:0:0:
459,54,81610,6,0,L|360:54,1,87.5,14|0,0:0|0:0,0:0:0:0:
253,153,81962,1,8,0:0:0:0:
381,314,82137,1,8,0:0:0:0:
482,166,82313,5,10,0:0:0:0:
260,240,82489,2,0,L|352:240,1,87.5,2|8,0:0|0:0,0:0:0:0:
512,240,82840,5,2,0:0:0:0:
260,156,83016,2,0,P|248:200|260:240,1,87.5,8|2,0:0|0:0,0:0:0:0:
288,292,83280,1,2,0:0:0:0:
320,344,83368,2,0,L|228:344,1,87.5,2|0,0:0|0:0,0:0:0:0:
68,272,83719,5,10,0:0:0:0:
200,160,83895,1,0,0:0:0:0:
108,340,84071,5,2,0:0:0:0:
149,100,84247,1,0,0:0:0:0:
382,166,84422,6,0,P|339:156|297:165,1,87.5,14|0,0:0|0:0,0:0:0:0:
232,344,84774,1,8,0:0:0:0:
125,173,84950,1,8,0:0:0:0:
340,290,85125,6,0,P|382:299|424:289,1,87.5,10|0,0:0|0:0,0:0:0:0:
471,77,85477,1,10,0:0:0:0:
338,208,85653,1,0,0:0:0:0:
512,258,85829,5,10,0:0:0:0:
376,48,86004,2,0,P|332:36|292:48,1,87.5,10|0,0:0|0:0,0:0:0:0:
231,239,86356,1,10,0:0:0:0:
336,120,86532,5,8,0:0:0:0:
148,239,86707,1,2,0:0:0:0:
148,239,86795,1,2,0:0:0:0:
148,239,86883,2,8,P|188:251|232:239,1,87.5,10|0,0:0|0:0,0:0:0:0:
52,27,87235,6,0,L|52:124,1,87.5,14|0,0:0|0:0,0:0:0:0:
54,280,87586,1,8,0:0:0:0:
188,168,87762,1,8,0:0:0:0:
139,331,87938,5,10,0:0:0:0:
125,89,88114,2,0,L|212:89,1,87.5,2|8,0:0|0:0,0:0:0:0:
324,204,88465,5,2,0:0:0:0:
487,79,88641,2,0,P|500:121|488:163,1,87.5,8|2,0:0|0:0,0:0:0:0:
457,207,88905,1,2,0:0:0:0:
428,252,88992,2,0,L|428:344,1,87.5,2|0,0:0|0:0,0:0:0:0:
384,120,89344,5,10,0:0:0:0:
292,264,89520,1,0,0:0:0:0:
288,76,89695,5,2,0:0:0:0:
329,251,89871,1,0,0:0:0:0:
432,38,90047,6,2,B|392:26|392:26|332:26,1,87.5,14|2,0:0|0:0,0:0:0:0:
208,159,90399,1,8,0:0:0:0:
297,342,90574,1,10,0:0:0:0:
44,216,90750,5,10,0:0:0:0:
208,72,90926,1,0,0:0:0:0:
208,72,91014,1,0,0:0:0:0:
208,72,91102,2,0,L|208:160,1,87.5,10|0,0:0|0:0,0:0:0:0:
297,342,91453,5,10,0:0:0:0:
81,289,91629,1,10,0:0:0:0:
208,159,91805,5,8,0:0:0:0:
214,343,91980,1,10,0:0:0:0:
214,343,92068,1,0,0:0:0:0:
214,343,92156,2,0,P|255:354|297:343,1,87.5,10|0,0:0|0:0,0:0:0:0:
431,147,92508,5,10,0:0:0:0:
461,319,92684,1,0,0:0:0:0:
426,122,92859,6,0,B|389:98|389:98|334:98,1,87.5,14|0,0:0|0:0,0:0:0:0:
160,100,93211,1,10,0:0:0:0:
256,260,93387,1,10,0:0:0:0:
144,76,93562,6,0,P|184:64|228:76,1,87.5,10|0,0:0|0:0,0:0:0:0:
271,115,93826,1,0,0:0:0:0:
296,168,93914,2,0,L|296:256,1,87.5,10|0,0:0|0:0,0:0:0:0:
392,344,94265,5,10,0:0:0:0:
180,236,94441,1,0,0:0:0:0:
180,236,94529,1,0,0:0:0:0:
180,236,94617,2,0,L|92:236,1,87.5,8|0,0:0|0:0,0:0:0:0:
300,344,94969,5,10,0:0:0:0:
396,169,95144,1,0,0:0:0:0:
396,169,95232,1,0,0:0:0:0:
396,169,95320,2,0,P|407:127|395:85,1,87.5,8|0,0:0|0:0,0:0:0:0:
223,126,95672,5,14,0:0:0:0:
403,253,95847,1,10,0:0:0:0:
334,22,96023,5,10,0:0:0:0:
250,217,96199,1,10,0:0:0:0:
472,113,96375,6,0,B|440:85|440:85|389:85,1,87.5,10|0,0:0|0:0,0:0:0:0:
174,175,96726,2,0,P|162:216|172:258,1,87.5,10|0,0:0|0:0,0:0:0:0:
343,339,97078,5,10,0:0:0:0:
382,117,97254,1,10,0:0:0:0:
272,264,97429,5,10,0:0:0:0:
453,192,97605,1,10,0:0:0:0:
300,62,97781,6,2,B|253:62|253:62|222:89,1,87.5,10|0,0:0|0:0,0:0:0:0:
232,341,98132,2,2,P|273:352|315:340,1,87.5,10|0,0:0|0:0,0:0:0:0:
48,220,98484,5,14,0:0:0:0:
272,264,98660,1,0,0:0:0:0:
132,120,98835,5,10,0:0:0:0:
160,336,99011,1,10,0:0:0:0:
132,120,99187,6,0,B|132:32,1,87.5,10|0,0:0|0:0,0:0:0:0:
470,32,99539,2,0,P|482:73|470:114,1,87.5,10|0,0:0|0:0,0:0:0:0:
243,128,99890,5,10,0:0:0:0:
484,240,100066,1,8,0:0:0:0:
344,92,100242,5,8,0:0:0:0:
272,228,100417,1,8,0:0:0:0:
344,56,100593,5,10,0:0:0:0:
408,288,100769,1,8,0:0:0:0:
184,216,100945,5,10,0:0:0:0:
440,156,101121,1,10,0:0:0:0:
223,90,101296,6,0,B|123:90,1,87.5,14|2,0:0|0:0,0:0:0:0:
25,197,101648,1,8,0:0:0:0:
201,264,101824,1,10,0:0:0:0:
63,376,101999,5,10,0:0:0:0:
134,184,102175,1,0,0:0:0:0:
134,184,102263,1,0,0:0:0:0:
134,184,102351,2,0,P|174:173|219:185,1,87.5,10|0,0:0|0:0,0:0:0:0:
370,352,102702,5,10,0:0:0:0:
176,257,102878,1,10,0:0:0:0:
275,121,103054,5,8,0:0:0:0:
210,341,103230,1,10,0:0:0:0:
210,341,103318,1,0,0:0:0:0:
210,341,103406,2,0,P|251:352|293:341,1,87.5,10|0,0:0|0:0,0:0:0:0:
342,171,103757,5,10,0:0:0:0:
142,101,103933,1,0,0:0:0:0:
368,48,104109,6,0,B|368:136,1,87.5,14|0,0:0|0:0,0:0:0:0:
372,328,104460,1,10,0:0:0:0:
512,248,104636,1,10,0:0:0:0:
296,168,104812,6,0,P|254:156|212:168,1,87.5,10|0,0:0|0:0,0:0:0:0:
169,197,105075,1,0,0:0:0:0:
128,228,105163,2,0,L|128:140,1,87.5,10|0,0:0|0:0,0:0:0:0:
256,24,105515,5,10,0:0:0:0:
88,16,105691,1,0,0:0:0:0:
88,16,105778,1,0,0:0:0:0:
88,16,105866,2,0,L|0:16,1,87.5,8|0,0:0|0:0,0:0:0:0:
256,24,106218,5,10,0:0:0:0:
176,212,106394,1,0,0:0:0:0:
176,212,106481,1,0,0:0:0:0:
176,212,106569,2,0,P|217:223|259:212,1,87.5,8|0,0:0|0:0,0:0:0:0:
418,111,106921,5,14,0:0:0:0:
216,140,107097,1,10,0:0:0:0:
363,264,107272,5,10,0:0:0:0:
353,57,107448,1,10,0:0:0:0:
186,141,107624,6,0,P|173:182|185:224,1,87.5,10|0,0:0|0:0,0:0:0:0:
380,345,107976,2,0,L|467:345,1,87.5,10|0,0:0|0:0,0:0:0:0:
161,293,108327,5,10,0:0:0:0:
363,264,108503,1,10,0:0:0:0:
216,140,108679,5,10,0:0:0:0:
226,347,108854,1,10,0:0:0:0:
391,261,109030,6,0,L|391:174,1,87.5,10|0,0:0|0:0,0:0:0:0:
240,41,109382,2,0,P|199:30|157:42,1,87.5,10|0,0:0|0:0,0:0:0:0:
16,192,109733,5,14,0:0:0:0:
188,236,109909,1,0,0:0:0:0:
0,168,110085,5,10,0:0:0:0:
200,120,110261,1,10,0:0:0:0:
92,332,110436,6,0,B|184:332,1,87.5,10|0,0:0|0:0,0:0:0:0:
400,364,110788,2,0,P|412:322|400:281,1,87.5,10|0,0:0|0:0,0:0:0:0:
268,148,111139,5,10,0:0:0:0:
24,96,111315,1,8,0:0:0:0:
216,72,111491,5,8,0:0:0:0:
84,160,111666,1,8,0:0:0:0:
152,8,111842,5,10,0:0:0:0:
192,272,112018,1,8,0:0:0:0:
316,124,112194,5,10,0:0:0:0:
84,160,112370,1,10,0:0:0:0:
316,124,112546,5,6,0:0:0:0:
252,324,112721,1,0,0:0:0:0:
316,124,112897,2,0,L|431:124,1,105.000004005432,2|0,0:2|0:0,0:0:0:0:
488,332,113249,6,0,B|452:356|452:356|376:356,1,105.000004005432,2|0,0:0|0:0,0:0:0:0:
128,240,113600,2,0,P|113:190|127:140,1,105.000004005432,2|0,0:2|0:0,0:0:0:0:
252,356,113952,5,2,0:0:0:0:
344,120,114127,2,0,B|304:100|304:100|236:100,1,105.000004005432,2|0,0:0|0:0,0:0:0:0:
40,152,114479,6,0,P|0:245|38:340,1,210.000008010865,2|2,0:0|0:0,0:0:0:0:
94,364,114918,1,2,0:0:0:0:
154,365,115006,2,0,L|261:365,1,105.000004005432,2|0,0:0|0:0,0:0:0:0:
408,228,115358,5,6,0:0:0:0:
192,272,115534,1,0,0:0:0:0:
264,68,115709,2,0,L|264:188,1,105.000004005432,2|0,0:2|0:0,0:0:0:0:
327,352,116061,5,2,0:0:0:0:
175,134,116237,2,0,B|104:134|104:134|122:98,1,105.000004005432,2|0,0:0|0:0,0:0:0:0:
356,24,116588,6,0,B|356:92|356:92|388:156|388:156|388:228,1,210.000008010865,2|2,0:0|0:0,0:0:0:0:
339,256,117028,1,2,0:0:0:0:
293,286,117116,2,0,P|278:236|287:186,1,105.000004005432,2|0,0:0|0:0,0:0:0:0:
448,56,117467,5,2,0:0:0:0:
248,104,117643,1,0,0:0:0:0:
462,192,117819,5,2,0:2:0:0:
356,24,117994,1,0,0:0:0:0:
256,232,118170,6,0,B|256:345,1,105.000004005432,6|0,0:0|0:0,0:0:0:0:
145,91,118522,2,0,P|94:77|45:92,1,105.000004005432,2|0,0:2|0:0,0:0:0:0:
296,144,118873,5,2,0:0:0:0:
97,219,119049,1,0,0:0:0:0:
204,24,119225,2,0,B|228:56|228:56|228:132,1,105.000004005432,2|0,0:2|0:0,0:0:0:0:
152,344,119576,5,2,0:0:0:0:
228,121,119752,2,0,L|342:121,1,105.000004005432,2|0,0:0|0:0,0:0:0:0:
482,356,120104,6,0,B|372:356|372:356|294:290,1,210.000008010865,2|2,0:0|0:0,0:0:0:0:
255,250,120543,1,2,0:0:0:0:
225,208,120631,2,0,P|212:157|226:108,1,105.000004005432,2|0,0:0|0:0,0:0:0:0:
425,47,120982,5,6,0:0:0:0:
303,161,121158,1,0,0:0:0:0:
285,30,121334,5,2,0:2:0:0:
441,185,121510,1,0,0:0:0:0:
455,17,121686,5,2,0:0:0:0:
274,190,121861,2,0,B|274:256|274:256|253:294,1,105.000004005432,2|0,0:0|0:0,0:0:0:0:
38,193,122213,6,0,B|38:34|38:34|83:66,1,210.000008010865,2|2,0:0|0:0,0:0:0:0:
124,91,122652,1,2,0:0:0:0:
169,126,122740,2,0,P|183:177|171:226,1,105.000004005432,2|0,0:0|0:0,0:0:0:0:
24,353,123092,5,2,0:0:0:0:
82,176,123267,1,0,0:0:0:0:
215,313,123443,5,2,0:2:0:0:
0,245,123619,1,0,0:0:0:0:
169,126,123795,5,6,0:0:0:0:
99,315,123971,1,0,0:0:0:0:
169,126,124146,2,0,P|218:111|268:125,1,105.000004005432,2|0,0:2|0:0,0:0:0:0:
420,354,124498,6,0,L|314:354,1,105.000004005432,2|0,0:0|0:0,0:0:0:0:
92,175,124849,2,0,P|77:125|91:75,1,105.000004005432,2|0,0:2|0:0,0:0:0:0:
378,42,125201,5,2,0:0:0:0:
169,126,125377,2,0,B|209:146|209:146|277:146,1,105.000004005432,2|0,0:0|0:0,0:0:0:0:
468,49,125728,6,0,P|507:142|469:237,1,210.000008010865,2|2,0:0|0:0,0:0:0:0:
419,262,126168,1,2,0:0:0:0:
372,286,126256,2,0,P|357:232|373:188,1,105.000004005432,2|0,0:0|0:0,0:0:0:0:
508,349,126607,5,6,0:0:0:0:
290,378,126783,1,0,0:0:0:0:
301,165,126959,2,0,B|382:165|382:165|369:195,1,105.000004005432,2|0,0:2|0:0,0:0:0:0:
290,378,127310,5,2,0:0:0:0:
225,102,127486,2,0,L|110:102,1,105.000004005432,2|0,0:0|0:0,0:0:0:0:
25,321,127837,6,0,B|95:321|95:321|159:289|159:289|227:289,1,210.000008010865,2|2,0:0|0:0,0:0:0:0:
277,317,128277,1,2,0:0:0:0:
328,344,128365,2,0,P|342:294|332:243,1,105.000004005432,2|0,0:0|0:0,0:0:0:0:
229,62,128716,5,2,0:0:0:0:
98,228,128892,1,0,0:0:0:0:
277,131,129068,5,2,0:2:0:0:
66,155,129244,1,0,0:0:0:0:
336,242,129419,6,0,B|399:242|399:242|440:217,1,105.000004005432,2|0,0:0|0:0,0:0:0:0:
330,35,129771,2,0,P|279:21|230:36,1,105.000004005432,2|0,0:2|0:0,0:0:0:0:
437,111,130122,5,2,0:0:0:0:
232,165,130298,1,0,0:0:0:0:
330,35,130474,2,0,B|354:67|354:67|354:143,1,105.000004005432,2|0,0:2|0:0,0:0:0:0:
256,320,130826,5,2,0:0:0:0:
124,92,131001,2,0,L|12:92,1,105.000004005432,2|0,0:0|0:0,0:0:0:0:
148,320,131353,6,0,B|257:320|257:320|336:254,1,210.000008010865,2|2,0:0|0:0,0:0:0:0:
374,222,131792,1,2,0:0:0:0:
426,208,131880,2,0,P|439:259|425:308,1,105.000004005432,2|0,0:0|0:0,0:0:0:0:
302,65,132232,5,2,0:0:0:0:
228,240,132407,1,0,0:0:0:0:
161,109,132583,5,2,0:2:0:0:
366,195,132759,1,0,0:0:0:0:
319,28,132935,5,2,0:0:0:0:
212,275,133111,2,0,L|103:275,1,105.000004005432,2|0,0:0|0:0,0:0:0:0:
161,28,133462,6,0,B|320:28|320:28|288:73,1,210.000008010865,2|2,0:0|0:0,0:0:0:0:
261,115,133902,1,2,0:0:0:0:
228,159,133989,2,0,P|177:173|128:161,1,105.000004005432,2|0,0:0|0:0,0:0:0:0:
46,111,134341,5,2,0:0:0:0:
175,69,134517,1,0,0:0:0:0:
171,279,134692,5,2,0:2:0:0:
171,279,134868,1,0,0:0:0:0:
104,236,139966,6,0,L|212:236,1,105,2|0,0:0|0:0,0:0:0:0:
263,185,140317,6,0,L|158:185,1,105,2|0,0:0|0:0,0:0:0:0:
210,133,140669,6,0,B|410:133|410:133|372:208,1,280,2|0,0:0|0:0,0:0:0:0:
408,236,145239,6,0,P|356:220|308:236,1,105,2|0,0:0|0:0,0:0:0:0:
260,175,145590,6,0,P|309:159|359:176,1,105,2|0,0:0|0:0,0:0:0:0:
307,115,145942,6,0,P|255:99|207:115,1,105,2|0,0:0|0:0,0:0:0:0:
145,171,146293,5,0,0:0:0:0:
79,333,146469,1,0,0:0:0:0:
145,171,146645,2,0,B|181:191|181:191|237:191,1,87.5,2|0,0:0|0:0,0:0:0:0:
372,78,146996,5,2,0:0:0:0:
291,257,147172,2,0,P|280:300|289:341,1,87.5,2|0,0:0|0:0,0:0:0:0:
468,341,147524,2,0,P|477:298|467:257,1,87.5,2|0,0:0|0:0,0:0:0:0:
372,78,147875,5,2,0:0:0:0:
231,28,148051,2,0,P|188:17|146:26,1,87.5,2|0,0:0|0:0,0:0:0:0:
331,159,148403,2,0,P|373:169|418:159,1,87.5,2|0,0:0|0:0,0:0:0:0:
85,155,148754,2,0,B|85:259,1,87.5,2|0,0:0|0:0,0:0:0:0:
149,325,149106,5,6,1:2:0:0:
265,258,149281,1,2,2:2:0:0:
174,232,149457,1,2,2:2:0:0:
240,349,149633,1,2,2:2:0:0:
382,192,149809,5,6,1:2:0:0:
265,258,149984,1,2,2:2:0:0:
356,284,150160,1,2,2:2:0:0:
291,166,150336,1,6,1:2:0:0:
171,312,150512,5,2,2:2:0:0:
265,258,150687,1,2,2:2:0:0:
191,236,150863,1,2,2:2:0:0:
244,331,151039,1,2,2:2:0:0:
359,204,151215,5,2,2:2:0:0:
265,258,151390,1,2,2:2:0:0:
338,279,151566,1,2,2:2:0:0:
286,183,151742,1,2,2:2:0:0:
171,312,151918,5,2,1:0:0:0:
117,194,152094,1,0,0:0:0:0:
277,46,152269,2,0,B|327:46|327:46|362:63,1,87.5,2|0,0:0|0:0,0:0:0:0:
475,141,152621,5,2,0:0:0:0:
325,341,152797,2,0,P|315:298|326:256,1,87.5,2|0,0:0|0:0,0:0:0:0:
277,46,153148,2,0,P|287:87|278:130,1,87.5,2|0,0:0|0:0,0:0:0:0:
192,208,153500,5,2,0:0:0:0:
115,296,153676,2,0,B|147:316|147:316|196:316,1,87.5,2|0,0:0|0:0,0:0:0:0:
277,130,154027,2,0,B|245:110|245:110|196:110,1,87.5,2|0,0:0|0:0,0:0:0:0:
7,66,154379,2,0,P|-3:108|7:156,1,87.5,2|0,0:0|0:0,0:0:0:0:
115,296,154730,5,4,0:0:0:0:
206,16,154906,1,0,0:0:0:0:
274,305,155081,5,4,0:0:0:0:
274,77,155257,1,0,0:0:0:0:
415,235,155433,5,4,0:0:0:0:
356,112,155609,1,0,0:0:0:0:
470,138,155785,5,0,0:0:0:0:
486,148,155961,1,0,0:0:0:0:
415,235,156136,5,0,0:0:0:0:
481,286,156312,1,0,0:0:0:0:
390,155,156488,5,2,0:2:0:0:
266,344,156664,1,0,0:0:0:0:
167,145,156839,5,2,0:2:0:0:
324,248,157015,1,0,0:0:0:0:
326,71,157191,5,2,0:2:0:0:
244,195,157367,1,0,0:0:0:0:
330,75,157543,5,4,0:0:0:0:
408,299,157719,1,0,0:0:0:0:
468,160,157895,2,0,B|437:139|437:139|369:139,1,87.5,2|0,0:0|0:0,0:0:0:0:
140,306,158246,5,2,0:0:0:0:
221,127,158422,2,0,P|232:84|223:43,1,87.5,2|0,0:0|0:0,0:0:0:0:
44,43,158774,2,0,P|35:86|45:127,1,87.5,2|0,0:0|0:0,0:0:0:0:
140,306,159125,5,2,0:0:0:0:
281,356,159301,2,0,P|323:366|365:357,1,87.5,2|0,0:0|0:0,0:0:0:0:
181,225,159653,2,0,P|139:215|94:225,1,87.5,2|0,0:0|0:0,0:0:0:0:
427,229,160004,2,0,B|427:125,1,87.5,2|0,0:0|0:0,0:0:0:0:
363,59,160356,5,6,1:2:0:0:
247,126,160531,1,2,2:2:0:0:
338,152,160707,1,2,2:2:0:0:
272,35,160883,1,2,2:2:0:0:
130,192,161059,5,6,1:2:0:0:
247,126,161234,1,2,2:2:0:0:
156,100,161410,1,2,2:2:0:0:
221,218,161586,1,6,1:2:0:0:
340,71,161762,5,2,2:2:0:0:
246,126,161937,1,2,2:2:0:0:
320,147,162113,1,2,2:2:0:0:
267,52,162289,1,2,2:2:0:0:
152,179,162465,5,2,2:2:0:0:
246,126,162640,1,2,2:2:0:0:
173,104,162816,1,2,2:2:0:0:
225,200,162992,1,2,2:2:0:0:
341,72,163168,5,2,1:0:0:0:
395,190,163344,1,0,0:0:0:0:
235,338,163519,2,0,B|185:338|185:338|150:321,1,87.5,2|0,0:0|0:0,0:0:0:0:
37,243,163871,5,2,0:0:0:0:
187,43,164047,2,0,P|196:85|185:127,1,87.5,2|0,0:0|0:0,0:0:0:0:
235,338,164398,2,0,P|224:296|233:253,1,87.5,2|0,0:0|0:0,0:0:0:0:
320,176,164750,5,2,0:0:0:0:
415,95,164926,2,0,B|382:74|382:74|333:74,1,87.5,2|0,0:0|0:0,0:0:0:0:
232,253,165276,2,0,B|265:274|265:274|314:274,1,87.5,2|0,0:0|0:0,0:0:0:0:
505,318,165629,2,0,P|515:276|505:228,1,87.5,2|0,0:0|0:0,0:0:0:0:
415,95,165979,5,4,0:0:0:0:
324,375,166155,1,0,0:0:0:0:
256,86,166330,5,4,0:0:0:0:
256,314,166506,1,0,0:0:0:0:
115,156,166682,5,4,0:0:0:0:
174,279,166858,1,0,0:0:0:0:
60,253,167034,5,0,0:0:0:0:
44,243,167210,1,0,0:0:0:0:
115,156,167385,5,0,0:0:0:0:
49,105,167561,1,0,0:0:0:0:
140,236,167737,5,2,0:2:0:0:
264,47,167913,1,0,0:0:0:0:
363,246,168088,5,2,0:2:0:0:
206,143,168264,1,0,0:0:0:0:
202,323,168440,5,2,0:2:0:0:
284,199,168616,1,0,0:0:0:0:
284,199,168792,1,0,0:0:0:0:
356,112,171604,5,6,0:0:0:0:
164,116,173362,6,0,L|224:116,1,52.5000020027161,2|0,0:2|0:0,0:0:0:0:
323,193,173713,2,0,L|270:193,1,52.5000020027161,2|0,0:2|0:0,0:0:0:0:
183,277,174065,2,0,L|243:277,1,52.5000020027161,2|0,0:2|0:0,0:0:0:0:
296,353,174416,5,0,0:0:0:0:
93,292,174592,1,0,0:0:0:0:
296,353,174768,2,0,B|345:353|345:353|387:329,1,87.5,4|0,0:0|0:0,0:0:0:0:
360,97,175119,5,0,0:0:0:0:
316,273,175295,1,0,0:0:0:0:
360,97,175471,2,0,L|360:192,1,87.5,4|0,0:0|0:0,0:0:0:0:
173,224,175823,5,0,0:0:0:0:
20,131,175998,1,0,0:0:0:0:
173,224,176174,2,0,P|131:235|91:222,1,87.5,4|0,0:0|0:0,0:0:0:0:
283,92,176526,5,2,0:0:0:0:
270,276,176701,1,0,0:0:0:0:
172,120,176877,1,2,0:0:0:0:
343,189,177053,1,0,0:0:0:0:
69,285,177229,6,2,B|-7:124|111:-3|154:13|222:13|298:90|408:30|451:276|306:268|264:225|256:203|256:203|247:225|205:268|60:276|103:30|213:90|289:13|357:13|400:-3|519:124|442:285,1,1400,2|2,2:2|2:2,2:2:0:0:
