osu file format v14

[General]
AudioFilename: Toby Fox - Hopes and Dreams SAVE the World.mp3
AudioLeadIn: 0
PreviewTime: 106843
Countdown: 0
SampleSet: Soft
StackLeniency: 0.4
Mode: 0
LetterboxInBreaks: 0
CountdownOffset: 3
WidescreenStoryboard: 1

[Editor]
DistanceSpacing: 1.8
BeatDivisor: 4
GridSize: 4
TimelineZoom: 1.600001

[Metadata]
Title:Hopes and Dreams / SAVE the World
TitleUnicode:Hopes and Dreams / SAVE the World
Artist:toby fox
ArtistUnicode:toby fox
Creator:Azzy Dreemurr
Version:Star Wimp
Source:UNDERTALE
Tags:undertale sountrack asriel dreemurr boss battle remix
BeatmapID:880646
BeatmapSetID:397714

[Difficulty]
HPDrainRate:3
CircleSize:2.5
OverallDifficulty:2
ApproachRate:3
SliderMultiplier:1
SliderTickRate:1

[Events]
//Background and Video events
0,0,"Hopes and Dreams SAVE the World.jpg",0,0
//Break Periods
2,53710,60070
2,117710,124070
2,192376,198736
2,235043,238070
2,240376,241403
//Storyboard Layer 0 (Background)
//Storyboard Layer 1 (Fail)
//Storyboard Layer 2 (Pass)
//Storyboard Layer 3 (Foreground)
//Storyboard Sound Samples

[TimingPoints]
177,333.333333333333,4,2,0,100,1,0
21510,-100,4,1,0,100,0,1
32176,-100,4,1,0,100,0,1
42843,-100,4,1,0,100,0,1
43176,-100,4,1,0,100,0,0
106843,-117.647058823529,4,2,0,100,0,0
128176,-100,4,1,0,100,0,0
160176,-100,4,1,0,100,0,1
170843,-100,4,1,0,100,0,0
181510,-100,4,1,0,100,0,1
192176,-100,4,1,0,100,0,0
234843,-117.647058823529,4,2,0,100,0,0
239510,-117.647058823529,4,1,0,65,0,0
240510,-117.647058823529,4,2,0,100,0,0
244510,-117.647058823529,4,1,0,65,0,0
245510,-100,4,1,0,100,0,1
250176,-100,4,1,0,100,0,1
261510,-100,4,1,0,100,0,1
266843,-117.647058823529,4,2,0,100,0,0
269510,-117.647058823529,4,1,0,65,0,1
269676,-117.647058823529,4,2,0,100,0,0
271176,-117.647058823529,4,1,0,100,0,0
272176,-100,4,1,0,100,0,0
277010,-100,4,1,0,100,0,1
277510,-100,4,1,0,100,0,0

[Colours]
Combo1 : 68,205,251
Combo2 : 243,194,92

[HitObjects]
64,84,10843,6,0,B|64:116|64:116|88:176|144:200|208:200,2,200,0|2|0,0:0|0:0|0:0,0:0:0:0:
256,140,12842,1,0,0:0:0:0:
348,100,13176,1,2,0:0:0:0:
448,84,13509,6,0,B|448:116|448:116|424:176|368:200|304:200,2,200,0|2|0,0:0|0:0|0:0,0:0:0:0:
444,284,15509,1,0,0:0:0:0:
364,344,15842,1,2,0:0:0:0:
264,336,16176,6,0,B|240:336|240:336|224:276|184:236|112:236,2,200,0|0|2,0:0|0:0|0:0,0:0:0:0:
332,44,18509,5,2,0:0:0:0:
268,120,18842,2,0,B|279:140|279:140|339:124|394:139|430:201,2,200
216,204,20509,1,2,0:0:0:0:
148,276,20843,2,0,P|120:232|132:176,1,100,2|0,0:0|0:0,0:0:0:0:
164,95,21510,6,0,P|212:86|255:108,1,100,4|8,0:0|0:0,0:0:0:0:
356,112,22176,1,0,0:0:0:0:
316,204,22510,2,0,P|264:216|232:268,1,100,8|0,0:0|0:0,0:0:0:0:
84,124,23510,1,0,0:0:0:0:
148,48,23843,1,8,0:0:0:0:
244,68,24176,6,0,P|208:128|152:136,1,100,4|8,0:0|0:0,0:0:0:0:
272,184,24843,1,0,0:0:0:0:
372,176,25176,2,0,L|464:216,1,100,8|0,0:0|0:0,0:0:0:0:
272,272,26176,2,0,B|244:232|272:220|240:176,2,100
172,252,27176,5,0,0:0:0:0:
104,180,27510,2,0,P|76:228|92:300,2,100
384,76,29176,5,0,0:0:0:0:
348,168,29510,2,0,P|304:196|240:188,1,100
180,132,30176,1,0,0:0:0:0:
136,44,30510,2,0,P|92:76|92:140,1,100
88,220,31176,1,0,0:0:0:0:
168,280,31509,1,0,0:0:0:0:
264,312,31843,1,0,0:0:0:0:
364,320,32176,6,0,P|408:292|416:232,1,100
392,152,32843,2,0,P|350:177|336:224,2,100
212,64,34177,1,0,0:0:0:0:
116,92,34510,1,0,0:0:0:0:
84,188,34843,6,0,P|84:236|112:280,2,100
180,212,35843,2,0,L|284:212,1,100
448,320,36843,1,0,0:0:0:0:
480,224,37177,1,0,0:0:0:0:
384,256,37510,5,0,0:0:0:0:
284,264,37843,1,0,0:0:0:0:
188,244,38176,1,0,0:0:0:0:
108,180,38510,2,0,P|72:144|64:96,1,100
364,76,39843,1,0,0:0:0:0:
396,172,40176,6,0,L|456:256,1,100
356,256,40843,2,0,L|296:172,1,100
252,264,41510,1,0,0:0:0:0:
156,240,41843,1,0,0:0:0:0:
72,296,42176,1,0,0:0:0:0:
160,340,42510,2,0,L|304:340,1,100
312,252,43176,1,0,0:0:0:0:
232,68,43843,5,0,0:0:0:0:
152,128,44176,1,0,0:0:0:0:
72,68,44509,1,0,0:0:0:0:
176,240,45176,6,0,P|188:284|236:304,2,100
372,192,46510,5,0,0:0:0:0:
312,271,46843,1,0,0:0:0:0:
372,351,47176,1,0,0:0:0:0:
456,168,47843,6,0,P|441:119|397:103,2,100
296,48,49176,5,0,0:0:0:0:
204,84,49510,1,0,0:0:0:0:
192,184,49843,1,0,0:0:0:0:
336,324,50510,6,0,B|296:300|268:364|240:328,2,100
144,264,51843,5,0,0:0:0:0:
80,184,52176,1,0,0:0:0:0:
84,84,52510,1,0,0:0:0:0:
184,100,52843,1,0,0:0:0:0:
373,151,53510,1,0,0:0:0:0:
256,192,61510,12,0,64176,0:0:0:0:
332,184,64843,6,0,L|400:96,1,100
304,56,65510,1,4,0:0:0:0:
204,68,65843,1,0,0:0:0:0:
232,164,66176,2,0,P|204:203|158:227,1,100
64,256,66843,1,0,0:0:0:0:
264,272,67510,5,0,0:0:0:0:
324,352,67843,2,0,P|360:312|360:252,1,100
292,200,68510,1,0,0:0:0:0:
192,188,68843,1,0,0:0:0:0:
92,172,69176,2,0,P|94:225|137:268,1,100
220,284,69843,5,0,0:0:0:0:
320,292,70176,1,0,0:0:0:0:
412,256,70510,2,0,B|388:228|432:160|408:132,2,100
324,208,71509,1,0,0:0:0:0:
248,144,71843,1,0,0:0:0:0:
340,84,72176,6,0,P|304:56|252:52,1,100
152,40,72843,2,0,P|123:76|120:128,1,100
104,228,73510,2,0,P|140:256|192:260,1,100
292,268,74176,2,0,P|320:232|324:180,1,100
256,104,74843,5,0,0:0:0:0:
212,192,75176,1,0,0:0:0:0:
256,284,75510,2,0,P|208:296|160:272,1,100
95,200,76176,2,0,B|96:108|188:107|188:107|187:24,1,200
276,104,77177,1,0,0:0:0:0:
344,176,77510,5,0,0:0:0:0:
436,212,77843,2,0,P|408:256|356:272,2,100
436,112,78843,1,0,0:0:0:0:
356,52,79177,1,0,0:0:0:0:
256,44,79510,2,0,B|208:96|104:0|52:44,1,200
104,128,80510,6,0,P|132:164|188:168,2,100
52,212,81510,1,0,0:0:0:0:
64,312,81843,2,0,P|109:305|140:259,2,100
52,212,82843,5,0,0:0:0:0:
140,160,83176,1,0,0:0:0:0:
236,136,83510,1,0,0:0:0:0:
332,160,83843,1,0,0:0:0:0:
420,212,84176,1,0,0:0:0:0:
256,328,84843,1,0,0:0:0:0:
384,172,85510,5,0,0:0:0:0:
324,92,85843,2,0,B|284:60|232:44|176:60|136:88,3,200
88,172,88176,1,0,0:0:0:0:
112,268,88510,1,0,0:0:0:0:
208,300,88843,2,0,B|240:340|316:272|352:316,2,150
252,212,90176,1,0,0:0:0:0:
300,122,90510,1,0,0:0:0:0:
200,124,90843,5,0,0:0:0:0:
120,188,91176,2,0,L|120:72,2,100
176,272,92176,1,0,0:0:0:0:
272,248,92510,2,0,P|320:232|372:248,2,100
228,160,93510,5,0,0:0:0:0:
172,244,93843,1,0,0:0:0:0:
156,344,94176,2,0,P|208:344|244:312,1,100
344,308,94843,2,0,P|408:236|408:124,2,200
242,313,96510,5,0,0:0:0:0:
84,192,97176,5,0,0:0:0:0:
256,88,97843,5,0,0:0:0:0:
428,192,98510,5,0,0:0:0:0:
332,220,98843,2,0,B|304:256|260:184|240:232,2,100
420,96,100010,1,0,0:0:0:0:
276,48,100510,1,0,0:0:0:0:
184,88,100843,1,0,0:0:0:0:
140,176,101176,1,0,0:0:0:0:
144,276,101510,5,0,0:0:0:0:
52,312,101843,2,0,P|48:256|76:204,2,100
144,276,102843,1,0,0:0:0:0:
224,216,103176,2,0,P|242:261|237:311,2,100
148,148,104176,6,0,P|184:120|236:116,1,100
336,104,104843,2,0,P|365:140|368:192,1,100
384,292,105510,2,0,P|348:320|296:324,1,100
196,332,106176,2,0,P|168:296|164:244,1,100
204,168,106843,5,0,0:0:0:0:
284,140,107176,1,0,0:0:0:0:
368,160,107510,1,0,0:0:0:0:
232,60,108176,6,0,B|192:40|152:140|112:104,2,127.50000243187
308,96,109510,1,0,0:0:0:0:
348,172,109843,1,0,0:0:0:0:
356,256,110176,2,0,B|396:276|436:176|476:212,2,127.50000243187
276,284,111510,1,0,0:0:0:0:
192,288,111843,2,0,P|144:284|112:256,1,85.0000016212464
116,176,112509,5,0,0:0:0:0:
200,200,112843,1,0,0:0:0:0:
356,268,113510,2,0,B|394:255|351:156|393:156,2,127.50000243187
288,220,114843,5,0,0:0:0:0:
292,136,115176,1,0,0:0:0:0:
268,52,115510,1,0,0:0:0:0:
152,100,116010,1,0,0:0:0:0:
232,200,116510,2,0,P|188:224|124:216,2,85.0000016212464
292,136,117510,5,6,0:0:0:0:
256,192,125510,12,0,128176,0:0:0:0:
148,176,128843,5,0,0:0:0:0:
164,76,129176,2,0,P|212:88|244:124,1,100
372,208,130010,2,0,P|328:272|224:272,1,150
276,188,130843,5,0,0:0:0:0:
180,164,131176,1,0,0:0:0:0:
96,216,131510,2,0,B|132:200|148:332|184:332,2,150
120,120,132843,1,0,0:0:0:0:
208,76,133176,1,0,0:0:0:0:
308,56,133510,6,0,L|396:112,1,100
304,160,134176,2,0,L|216:216,1,100
140,152,134843,2,0,B|104:168|88:36|52:36,2,150
168,248,136176,5,0,0:0:0:0:
256,292,136510,1,0,0:0:0:0:
344,248,136843,1,0,0:0:0:0:
347,151,137176,2,0,P|395:140|426:102,2,100
256,196,138176,1,0,0:0:0:0:
164,151,138510,2,0,P|116:140|85:102,1,100
176,56,139176,5,0,0:0:0:0:
276,48,139510,2,0,B|360:104,1,100
304,188,140176,2,0,B|340:172|356:304|392:304,2,150
224,128,141510,5,0,0:0:0:0:
136,176,141842,1,0,0:0:0:0:
108,272,142176,1,0,0:0:0:0:
256,284,142676,2,0,B|280:256|280:256|244:212|264:160|324:140,1,150
292,56,143510,2,0,P|240:68|204:120,2,100
376,108,144509,5,0,0:0:0:0:
412,200,144842,1,0,0:0:0:0:
352,280,145176,1,0,0:0:0:0:
252,296,145510,2,0,P|220:252|236:200,2,100
156,320,146509,1,0,0:0:0:0:
68,272,146843,6,0,L|4:176,1,100
112,180,147510,2,0,L|79:85,1,100
180,104,148176,2,0,L|173:4,1,100
264,44,148843,2,0,L|296:138,1,100
376,80,149509,5,0,0:0:0:0:
364,180,149843,1,0,0:0:0:0:
440,244,150176,2,0,P|404:276|328:264,1,100
260,248,150843,2,0,B|224:248|224:248|224:176|160:156,2,150
296,156,152176,5,0,0:0:0:0:
228,84,152509,1,0,0:0:0:0:
316,36,152843,2,0,B|315:72|315:72|388:72|408:136,2,150
216,44,154176,1,0,0:0:0:0:
124,84,154510,1,0,0:0:0:0:
80,172,154843,5,0,0:0:0:0:
88,272,155176,2,0,P|120:316|176:328,2,100
180,232,156176,2,0,P|224:168|308:160,1,150
440,160,157176,1,0,0:0:0:0:
384,76,157510,6,0,P|340:48|288:52,1,100
216,112,158176,2,0,P|260:140|312:136,1,100
332,236,158843,1,0,0:0:0:0:
232,232,159176,2,0,P|181:245|149:287,1,100
146,381,159842,2,0,P|196:367|228:325,1,100
280,244,160510,5,0,0:0:0:0:
280,148,160843,1,0,0:0:0:0:
232,68,161176,1,0,0:0:0:0:
132,72,161510,2,0,P|52:120|92:224,1,200
160,164,162510,1,0,0:0:0:0:
256,188,162843,1,0,0:0:0:0:
440,108,163510,6,0,L|468:212,2,100
252,180,164843,2,0,B|252:132|252:132|184:88|112:136|108:204,1,200
72,252,165844,1,0,0:0:0:0:
152,312,166176,2,0,P|200:340|252:336,2,100
296,176,167510,5,0,0:0:0:0:
396,176,167843,2,0,P|380:120|344:92,1,100
168,176,168843,5,0,0:0:0:0:
68,176,169176,2,0,P|84:120|120:92,1,100
256,236,170177,1,0,0:0:0:0:
348,60,170843,6,0,P|396:76|420:120,1,100
324,152,171510,2,0,P|276:144|228:160,1,100
176,244,172176,2,0,P|224:260|280:240,1,100
368,240,172843,2,0,P|364:290|328:325,1,100
232,332,173510,5,0,0:0:0:0:
132,316,173843,1,0,0:0:0:0:
68,240,174176,2,0,P|52:192|68:128,1,100
140,84,174843,1,0,0:0:0:0:
224,136,175176,2,0,P|231:184|215:231,1,100
316,236,175843,1,0,0:0:0:0:
400,184,176176,6,0,P|444:156|460:104,2,100
312,132,177176,2,0,P|336:85|323:32,2,100
212,136,178176,2,0,P|223:85|197:37,2,100
164,224,179176,5,0,0:0:0:0:
92,292,179510,1,0,0:0:0:0:
188,316,179843,1,0,0:0:0:0:
276,272,180177,2,0,P|252:220|204:192,1,100
120,188,180843,2,0,P|140:136|192:104,1,100
272,96,181510,5,0,0:0:0:0:
368,72,181843,1,0,0:0:0:0:
408,164,182176,2,0,P|420:212|400:256,2,100
312,196,183176,1,0,0:0:0:0:
216,224,183510,2,0,P|173:198|156:153,2,100
252,132,184510,5,0,0:0:0:0:
324,64,184843,1,0,0:0:0:0:
424,72,185176,1,0,0:0:0:0:
384,164,185510,2,0,B|344:141|344:141|311:233|203:233,1,200
192,36,186843,6,0,L|112:104,2,100
280,88,187843,1,0,0:0:0:0:
236,176,188176,1,0,0:0:0:0:
168,248,188510,2,0,P|216:272|296:252,2,100
128,156,189510,5,0,0:0:0:0:
172,64,189843,1,0,0:0:0:0:
244,132,190176,1,0,0:0:0:0:
344,148,190510,1,0,0:0:0:0:
356,248,190843,2,0,B|380:292|436:300|436:300|404:352|324:352,2,200
256,192,200176,12,0,202843,0:0:0:0:
176,192,203510,6,0,L|264:128,2,100
428,233,204843,6,0,L|348:292,2,100
256,332,206176,5,0,0:0:0:0:
184,260,206509,1,0,0:0:0:0:
88,232,206843,1,0,0:0:0:0:
256,124,207509,5,0,0:0:0:0:
444,192,208177,6,0,P|444:144|408:104,1,100
348,184,208843,1,0,0:0:0:0:
248,176,209177,2,0,P|251:224|286:259,1,100
88,292,210176,5,0,0:0:0:0:
60,196,210509,1,0,0:0:0:0:
108,108,210843,2,0,B|160:184|244:132|244:132|244:192,1,200
344,192,211843,5,0,0:0:0:0:
348,292,212177,2,0,P|256:328|152:292,2,200
440,248,213843,5,0,0:0:0:0:
476,156,214176,1,0,0:0:0:0:
464,56,214510,1,0,0:0:0:0:
384,116,214843,2,0,B|357:166|300:164|300:164|286:218,2,150
296,72,216176,5,0,0:0:0:0:
200,44,216510,2,0,P|198:93|219:138,1,100
172,280,217343,2,0,B|140:280|140:280|164:200|76:164,1,150
44,256,218176,1,0,0:0:0:0:
12,160,218510,1,0,0:0:0:0:
80,88,218843,6,0,L|176:48,1,100
244,120,219510,2,0,L|151:158,1,100
232,252,220176,2,0,B|300:248|300:248|288:208|320:168,2,150
212,152,221510,5,0,0:0:0:0:
312,136,221843,1,0,0:0:0:0:
388,76,222176,1,0,0:0:0:0:
408,176,222510,1,0,0:0:0:0:
409,276,222843,2,0,P|377:320|329:336,1,100
245,296,223510,2,0,P|272:255|318:236,2,100
168,232,224510,5,0,0:0:0:0:
132,140,224843,2,0,P|192:120|232:80,1,100
320,84,225510,1,0,0:0:0:0:
424,192,226010,1,0,0:0:0:0:
320,300,226510,1,0,0:0:0:0:
228,336,226843,6,0,L|124:332,1,100
88,240,227510,1,0,0:0:0:0:
188,128,228010,2,0,B|200:160|200:160|264:144|312:188,1,150
392,236,228843,1,0,0:0:0:0:
448,152,229176,1,0,0:0:0:0:
396,68,229510,6,0,P|344:48|288:48,2,100
388,168,230510,1,0,0:0:0:0:
372,268,230843,2,0,B|320:280|320:280|308:336|256:352,1,150
188,220,231843,1,0,0:0:0:0:
204,120,232176,5,0,0:0:0:0:
284,60,232509,1,0,0:0:0:0:
380,84,232843,2,0,B|428:112|352:212|404:236,2,150
308,156,234176,2,0,L|228:220,1,100
164,276,234843,5,0,0:0:0:0:
284,184,239510,6,0,B|264:180|264:180|244:172|244:172|216:192|196:192,2,85.0000016212464,0|0|0,0:0|0:0|0:0,0:3:0:0:
256,192,242843,12,0,245510,0:0:0:0:
164,160,246176,6,0,B|204:208|164:252|164:252|148:328,2,150
240,92,247510,1,0,0:0:0:0:
340,92,247843,1,0,0:0:0:0:
416,156,248176,1,0,0:0:0:0:
256,192,248843,12,0,250843,0:0:0:0:
309,253,251510,6,0,B|356:244|356:244|400:204|448:244,2,150
208,252,252843,1,0,0:0:0:0:
144,176,253176,1,0,0:0:0:0:
80,100,253510,2,0,P|52:140|52:200,2,100
256,192,254510,12,0,256176,0:0:0:0:
348,176,256843,6,0,B|416:192|425:254|425:254|448:230,2,150
328,276,258177,1,0,0:0:0:0:
260,204,258510,1,0,0:0:0:0:
192,276,258843,1,0,0:0:0:0:
256,192,259510,12,0,261510,0:0:0:0:
280,88,262176,6,0,B|316:52|384:52|416:88,2,150
348,164,263510,2,0,B|312:184|396:240|352:260,2,100
256,200,264510,1,0,0:0:0:0:
156,188,264843,1,0,0:0:0:0:
256,192,265177,12,0,266843,0:0:0:0:
352,104,267510,5,0,0:0:0:0:
184,96,268176,2,0,B|144:120|124:160,1,85.0000016212464
204,192,268843,1,0,0:0:0:0:
244,268,269176,1,0,0:0:0:0:
328,284,269510,6,0,B|376:268|376:268|344:200|404:160,2,170.000003242493
252,244,271176,2,0,P|236:288|259:335,2,85.0000016212464
200,156,272176,5,0,0:0:0:0:
196,56,272510,1,0,0:0:0:0:
280,112,272843,1,0,0:0:0:0:
276,12,273176,1,0,0:0:0:0:
364,60,273510,1,0,0:0:0:0:
368,160,273843,1,0,0:0:0:0:
276,204,274176,2,0,P|225:226|162:204,2,100
256,192,275176,12,0,277010,0:0:0:0:
