osu file format v14

[General]
AudioFilename: Toby Fox - Hopes and Dreams SAVE the World.mp3
AudioLeadIn: 0
PreviewTime: 106843
Countdown: 0
SampleSet: Normal
StackLeniency: 0.4
Mode: 0
LetterboxInBreaks: 0
CountdownOffset: 3
WidescreenStoryboard: 1

[Editor]
DistanceSpacing: 1.8
BeatDivisor: 4
GridSize: 4
TimelineZoom: 3.1

[Metadata]
Title:Hopes and Dreams / SAVE the World
TitleUnicode:Hopes and Dreams / SAVE the World
Artist:toby fox
ArtistUnicode:toby fox
Creator:Azzy Dreemurr
Version:Star Falling
Source:UNDERTALE
Tags:undertale sountrack asriel dreemurr boss battle remix
BeatmapID:864989
BeatmapSetID:397714

[Difficulty]
HPDrainRate:8
CircleSize:4
OverallDifficulty:9
ApproachRate:9
SliderMultiplier:1.5
SliderTickRate:1

[Events]
//Background and Video events
0,0,"Hopes and Dreams SAVE the World.jpg",0,0
//Break Periods
2,117710,124910
2,203043,207576
2,235042,238910
//Storyboard Layer 0 (Background)
//Storyboard Layer 1 (Fail)
//Storyboard Layer 2 (Pass)
//Storyboard Layer 3 (Foreground)
//Storyboard Sound Samples

[TimingPoints]
177,333.333333333333,4,2,0,100,1,0
21510,-80,4,1,0,100,0,1
32176,-80,4,1,0,100,0,1
42843,-80,4,1,0,100,0,1
43176,-80,4,1,0,100,0,0
106843,-153.846153846154,4,2,0,100,0,0
128176,-80,4,1,0,100,0,0
160176,-80,4,1,0,100,0,1
170843,-80,4,1,0,100,0,0
181510,-80,4,1,0,100,0,1
192176,-80,4,1,0,100,0,0
234843,-153.846153846154,4,2,0,100,0,0
239510,-153.846153846154,4,1,0,65,0,0
240510,-153.846153846154,4,2,0,100,0,0
244510,-153.846153846154,4,1,0,65,0,0
245510,-80,4,1,0,100,0,1
250176,-80,4,1,0,100,0,1
261510,-80,4,1,0,100,0,1
266843,-153.846153846154,4,2,0,100,0,0
269510,-153.846153846154,4,1,0,65,0,1
269676,-153.846153846154,4,2,0,100,0,0
271176,-153.846153846154,4,1,0,100,0,0
272176,-80,4,1,0,100,0,0
277010,-80,4,1,0,100,0,1
277510,-80,4,1,0,100,0,0

[Colours]
Combo1 : 68,205,251
Combo2 : 243,194,92

[HitObjects]
120,80,177,5,0,0:0:0:0:
196,80,343,1,0,0:0:0:0:
232,224,676,1,0,0:0:0:0:
280,168,843,1,2,0:0:0:0:
324,228,1010,1,0,0:0:0:0:
424,340,1343,1,0,0:0:0:0:
372,284,1510,1,4,0:0:0:0:
324,340,1676,1,0,0:0:0:0:
172,336,2010,6,0,P|132:296|128:264,1,75,2|0,0:0|0:0,0:0:0:0:
200,264,2343,1,0,0:0:0:0:
240,200,2510,2,0,P|280:168|288:128,2,75,0|2|0,0:0|0:0|0:0,0:0:0:0:
200,264,3010,1,0,0:0:0:0:
116,140,3343,5,0,0:0:0:0:
172,188,3510,1,2,0:0:0:0:
228,140,3676,1,0,0:0:0:0:
344,44,4010,1,0,0:0:0:0:
284,92,4176,1,0,0:0:0:0:
228,44,4343,1,0,0:0:0:0:
296,176,4676,6,0,P|332:188|368:176,2,75,2|0|0,0:0|0:0|0:0,0:0:0:0:
416,88,5176,2,0,L|352:40,1,75,0|2,0:0|0:0,0:0:0:0:
364,112,5510,2,0,L|292:80,1,75,4|0,0:0|0:0,0:0:0:0:
144,92,6010,5,0,0:0:0:0:
92,148,6176,1,2,0:0:0:0:
92,224,6343,1,0,0:0:0:0:
220,300,6676,1,0,0:0:0:0:
272,248,6843,1,0,0:0:0:0:
280,172,7010,1,0,0:0:0:0:
212,36,7343,6,0,P|172:72|164:96,1,75,2|0,0:0|0:0,0:0:0:0:
240,104,7676,1,0,0:0:0:0:
316,116,7843,1,2,0:0:0:0:
104,304,8176,1,4,0:0:0:0:
196,340,8343,1,0,0:0:0:0:
380,276,8676,5,0,0:0:0:0:
436,196,8843,1,2,0:0:0:0:
424,100,9010,1,0,0:0:0:0:
244,20,9343,1,0,0:0:0:0:
152,56,9510,1,0,0:0:0:0:
96,136,9676,1,2,0:0:0:0:
192,120,9843,2,0,P|248:136|272:168,1,75
276,244,10176,1,2,0:0:0:0:
332,100,10343,2,0,P|292:64|252:60,2,75,0|0|2,0:0|0:0|0:0,0:0:0:0:
328,176,10843,5,4,0:0:0:0:
328,176,11009,1,0,0:0:0:0:
416,224,11343,2,0,L|464:296,2,75,0|2|0,0:0|0:0|0:0,0:0:0:0:
264,224,12010,2,0,L|204:276,2,75
220,80,12676,6,0,P|184:108|176:144,1,75,2|0,0:0|0:0,0:0:0:0:
188,208,13010,2,0,P|224:192|244:152,1,75
292,104,13342,1,2,0:0:0:0:
352,60,13510,5,4,0:0:0:0:
424,84,13676,1,0,0:0:0:0:
292,104,14009,1,0,0:0:0:0:
232,60,14176,1,2,0:0:0:0:
160,84,14342,1,0,0:0:0:0:
44,180,14676,1,0,0:0:0:0:
36,256,14842,1,0,0:0:0:0:
68,324,15009,1,0,0:0:0:0:
184,232,15342,5,2,0:0:0:0:
232,288,15510,2,0,P|240:332|268:360,1,75
332,364,15842,2,0,P|324:324|288:296,2,75,0|2|6,0:0|0:0|0:0,0:0:0:0:
332,364,16343,1,0,0:0:0:0:
452,272,16676,5,0,0:0:0:0:
452,272,16843,2,0,P|480:248|488:208,1,75,2|0,0:0|0:0,0:0:0:0:
408,84,17342,1,0,0:0:0:0:
408,84,17510,2,0,P|376:64|336:60,1,75
192,48,18009,1,2,0:0:0:0:
192,48,18176,2,0,P|152:56|120:80,2,75,0|0|2,0:0|0:0|0:0,0:0:0:0:
52,184,18843,5,4,0:0:0:0:
20,276,19009,1,0,0:0:0:0:
24,80,19342,1,0,0:0:0:0:
112,40,19510,1,2,0:0:0:0:
196,88,19676,1,0,0:0:0:0:
256,272,20009,1,0,0:0:0:0:
368,284,20176,1,4,0:0:0:0:
316,184,20343,5,2,0:0:0:0:
416,128,20509,1,0,0:0:0:0:
460,24,20676,1,0,0:0:0:0:
352,60,20843,2,0,P|332:100|280:116,1,75,2|0,0:0|0:0,0:0:0:0:
200,152,21177,2,0,P|216:108|252:88,1,75,0|2,0:0|0:0,0:0:0:0:
272,64,21510,1,4,0:0:0:0:
112,64,21676,6,0,P|72:92|48:132,1,93.75,0|8,0:0|0:0,0:0:0:0:
88,216,22010,2,0,P|108:172|148:136,1,93.75
288,56,22343,1,0,0:0:0:0:
192,196,22510,1,8,0:0:0:0:
324,300,22676,1,0,0:0:0:0:
428,168,22843,6,0,P|404:128|360:96,1,93.75
272,128,23176,2,0,P|320:160|360:208,1,93.75,8|0,0:0|0:0,0:0:0:0:
236,320,23510,1,0,0:0:0:0:
92,236,23676,1,0,0:0:0:0:
168,84,23843,1,8,0:0:0:0:
336,108,24010,1,0,0:0:0:0:
376,132,24093,1,0,0:0:0:0:
400,172,24176,1,4,0:0:0:0:
480,24,24343,5,0,0:0:0:0:
400,172,24510,1,8,0:0:0:0:
452,332,24676,1,0,0:0:0:0:
284,328,24843,2,0,P|232:320|192:280,1,93.75
116,292,25176,2,0,P|136:248|200:208,1,93.75,8|0,0:0|0:0,0:0:0:0:
304,116,25510,5,0,0:0:0:0:
268,280,25676,1,0,0:0:0:0:
368,144,25843,2,0,P|372:96|340:56,1,93.75,8|0,0:0|0:0,0:0:0:0:
176,60,26176,1,0,0:0:0:0:
112,216,26343,1,0,0:0:0:0:
224,340,26510,1,8,0:0:0:0:
232,172,26676,2,0,L|196:204,2,46.875,0|0|6,0:0|0:0|0:0,0:0:0:0:
324,308,27010,6,0,P|372:288|400:248,1,93.75,0|8,0:0|0:0,0:0:0:0:
312,108,27343,2,0,P|264:124|232:168,1,93.75
112,44,27676,2,0,P|72:68|44:108,1,93.75,0|8,0:0|0:0,0:0:0:0:
120,260,28010,2,0,P|168:240|192:208,1,93.75
332,112,28343,5,0,0:0:0:0:
420,256,28510,1,8,0:0:0:0:
280,164,28676,1,0,0:0:0:0:
152,56,28843,1,0,0:0:0:0:
52,192,29010,2,0,L|96:292,1,93.75,0|8,0:0|0:0,0:0:0:0:
256,320,29343,1,0,0:0:0:0:
300,312,29426,1,0,0:0:0:0:
340,284,29510,1,4,0:0:0:0:
256,140,29676,5,0,0:0:0:0:
256,308,29843,1,8,0:0:0:0:
416,248,30010,1,0,0:0:0:0:
96,248,30176,1,0,0:0:0:0:
71,79,30343,2,0,P|106:110|147:131,1,93.75,0|8,0:0|0:0,0:0:0:0:
363,132,30676,2,0,P|405:110|440:79,1,93.75
316,108,31010,5,0,0:0:0:0:
200,232,31176,1,8,0:0:0:0:
348,316,31343,2,0,P|400:276|416:236,1,93.75
444,84,31676,1,0,0:0:0:0:
411,251,31843,1,8,0:0:0:0:
296,128,32010,1,0,0:0:0:0:
296,128,32093,1,0,0:0:0:0:
296,128,32176,6,0,P|252:144|224:184,1,93.75,6|0,0:0|0:0,0:0:0:0:
225,180,32510,1,8,0:0:0:0:
92,284,32676,1,0,0:0:0:0:
148,124,32843,1,0,0:0:0:0:
288,32,33010,1,0,0:0:0:0:
452,72,33176,2,0,P|468:116|464:184,1,93.75,8|0,0:0|0:0,0:0:0:0:
436,328,33510,1,0,0:0:0:0:
268,316,33676,5,0,0:0:0:0:
104,356,33843,1,8,0:0:0:0:
88,204,34010,2,0,P|136:220|192:212,1,93.75
178,216,34343,1,0,0:0:0:0:
256,64,34510,1,8,0:0:0:0:
328,216,34676,1,0,0:0:0:0:
356,252,34760,1,0,0:0:0:0:
368,296,34843,1,4,0:0:0:0:
256,192,35010,5,0,0:0:0:0:
136,312,35176,2,0,P|96:288|72:244,1,93.75,8|0,0:0|0:0,0:0:0:0:
188,124,35510,2,0,P|216:88|264:64,1,93.75
396,164,35843,2,0,P|435:187|458:227,1,93.75,8|0,0:0|0:0,0:0:0:0:
304,160,36176,5,0,0:0:0:0:
414,33,36343,1,0,0:0:0:0:
398,201,36510,1,8,0:0:0:0:
312,57,36676,1,0,0:0:0:0:
467,122,36843,1,0,0:0:0:0:
304,160,37010,1,0,0:0:0:0:
414,33,37176,1,8,0:0:0:0:
244,28,37343,2,0,L|192:20,2,46.875,0|0|6,0:0|0:0|0:0,0:0:0:0:
72,164,37676,5,0,0:0:0:0:
124,324,37843,1,8,0:0:0:0:
248,208,38010,1,0,0:0:0:0:
100,128,38176,1,0,0:0:0:0:
84,296,38343,1,0,0:0:0:0:
248,252,38510,1,8,0:0:0:0:
396,332,38676,1,0,0:0:0:0:
472,184,38843,6,0,P|440:136|396:104,2,93.75,0|0|8,0:0|0:0|0:0,0:0:0:0:
348,68,39343,1,0,0:0:0:0:
180,84,39510,2,0,P|224:72|272:24,2,93.75,0|0|8,0:0|0:0|0:0,0:0:0:0:
56,156,40010,1,0,0:0:0:0:
40,200,40093,1,0,0:0:0:0:
36,248,40176,1,4,0:0:0:0:
184,328,40343,5,0,0:0:0:0:
324,232,40510,1,8,0:0:0:0:
156,236,40676,1,0,0:0:0:0:
296,332,40843,1,0,0:0:0:0:
240,172,41010,1,0,0:0:0:0:
340,36,41176,5,8,0:0:0:0:
172,28,41343,1,0,0:0:0:0:
328,96,41510,1,0,0:0:0:0:
160,96,41676,1,0,0:0:0:0:
200,120,41760,1,0,0:0:0:0:
240,140,41843,1,8,0:0:0:0:
324,180,42010,1,0,0:0:0:0:
240,220,42176,5,2,0:0:0:0:
200,196,42260,1,0,0:0:0:0:
160,176,42343,1,0,0:0:0:0:
84,232,42510,6,0,P|76:256|84:284,2,46.875,10|0|0,0:0|0:0|0:0,0:0:0:0:
84,232,42843,5,6,0:0:0:0:
84,232,43176,1,8,0:0:0:0:
84,232,43510,1,0,0:0:0:0:
296,280,43676,1,0,0:0:0:0:
256,72,43843,1,8,0:0:0:0:
256,72,44176,5,0,0:0:0:0:
256,72,44510,1,8,0:0:0:0:
256,72,44843,1,0,0:0:0:0:
108,152,45010,1,0,0:0:0:0:
80,192,45093,1,0,0:0:0:0:
72,236,45176,1,8,0:0:0:0:
256,332,45510,5,4,0:0:0:0:
272,240,45676,1,0,0:0:0:0:
348,188,45843,1,8,0:0:0:0:
408,328,46176,1,0,0:0:0:0:
104,328,46343,6,0,P|76:296|56:248,1,93.75,0|8,0:0|0:0,0:0:0:0:
56,156,46676,2,0,P|60:108|84:68,1,93.75
164,24,47010,1,0,0:0:0:0:
208,40,47093,1,0,0:0:0:0:
256,44,47176,1,8,0:0:0:0:
256,44,47510,1,0,0:0:0:0:
320,156,47676,1,0,0:0:0:0:
388,268,47843,1,8,0:0:0:0:
44,340,48176,5,6,0:0:0:0:
44,340,48510,1,8,0:0:0:0:
140,16,48843,5,0,0:0:0:0:
176,92,49010,1,0,0:0:0:0:
232,168,49176,2,0,L|252:76,1,93.75,8|0,0:0|0:0,0:0:0:0:
176,24,49510,1,0,0:0:0:0:
100,76,49676,2,0,L|128:180,1,93.75,0|8,0:0|0:0,0:0:0:0:
368,304,50176,1,0,0:0:0:0:
408,180,50343,1,0,0:0:0:0:
444,52,50510,1,8,0:0:0:0:
444,52,50843,5,4,0:0:0:0:
432,80,51176,1,8,0:0:0:0:
268,288,51510,1,0,0:0:0:0:
140,304,51676,1,0,0:0:0:0:
52,208,51843,1,8,0:0:0:0:
256,44,52176,1,0,0:0:0:0:
256,44,52510,1,8,0:0:0:0:
136,96,52676,1,0,0:0:0:0:
28,172,52843,1,0,0:0:0:0:
40,304,53010,5,0,0:0:0:0:
155,251,53176,2,0,B|191:283|247:283|283:251|283:187|247:143,1,187.5,8|6,0:0|0:0,0:0:0:0:
266,178,53843,1,8,0:0:0:0:
100,344,54176,5,0,0:0:0:0:
112,212,54343,1,0,0:0:0:0:
188,104,54510,1,8,0:0:0:0:
256,44,54843,2,0,P|280:76|344:100,1,93.75
327,98,55176,1,8,0:0:0:0:
440,328,55510,5,0,0:0:0:0:
404,204,55676,1,0,0:0:0:0:
404,204,55760,1,0,0:0:0:0:
404,204,55843,1,8,0:0:0:0:
180,68,56176,1,4,0:0:0:0:
180,68,56510,1,8,0:0:0:0:
444,60,56843,5,0,0:0:0:0:
312,56,57010,1,0,0:0:0:0:
120,208,57176,2,0,L|184:128,1,93.75,8|0,0:0|0:0,0:0:0:0:
184,304,57510,2,0,L|288:248,1,93.75
328,224,57843,1,8,0:0:0:0:
76,300,58176,5,0,0:0:0:0:
76,300,58343,1,0,0:0:0:0:
200,340,58510,1,8,0:0:0:0:
420,200,58843,2,0,B|465:170|482:121|470:72|420:42,1,187.5,6|8,0:0|0:0,0:0:0:0:
160,32,59510,5,0,0:0:0:0:
116,156,59676,1,0,0:0:0:0:
120,288,59843,1,8,0:0:0:0:
332,136,60176,2,0,B|312:112|312:112|332:84|324:44,2,93.75,0|0|8,0:0|0:0|0:0,0:0:0:0:
136,312,60843,5,0,0:0:0:0:
80,192,61010,1,0,0:0:0:0:
80,192,61093,1,0,0:0:0:0:
80,192,61176,1,8,0:0:0:0:
92,68,61510,2,0,B|116:128|160:168|232:196,1,187.5,0|8,0:0|0:0,0:0:0:0:
256,192,62176,5,0,0:0:0:0:
256,192,62343,1,0,0:0:0:0:
452,324,62510,1,8,0:0:0:0:
424,296,62843,1,0,0:0:0:0:
436,260,63176,1,8,0:0:0:0:
408,232,63510,6,0,P|396:184|356:152,2,93.75,0|0|8,0:0|0:0|0:0,0:0:0:0:
128,44,64176,6,0,P|84:84|72:120,2,93.75,6|0|8,0:0|0:0|0:0,0:0:0:0:
296,36,64676,1,0,0:0:0:0:
152,120,64843,1,0,0:0:0:0:
256,256,65010,1,0,0:0:0:0:
404,176,65176,2,0,P|432:216|432:264,2,93.75,8|0|0,0:0|0:0|0:0,0:0:0:0:
292,300,65676,5,0,0:0:0:0:
160,192,65843,1,8,0:0:0:0:
272,64,66010,2,0,P|208:48|156:48,1,93.75
104,44,66343,1,0,0:0:0:0:
40,200,66510,1,8,0:0:0:0:
92,360,66676,1,0,0:0:0:0:
140,348,66760,1,0,0:0:0:0:
176,320,66843,1,4,0:0:0:0:
328,244,67010,5,0,0:0:0:0:
388,88,67176,1,8,0:0:0:0:
276,212,67343,1,0,0:0:0:0:
280,12,67510,1,0,0:0:0:0:
224,180,67676,1,0,0:0:0:0:
128,40,67843,6,0,P|84:60|56:100,1,93.75,8|0,0:0|0:0,0:0:0:0:
52,264,68176,1,0,0:0:0:0:
148,124,68343,2,0,P|104:152|88:200,1,93.75,0|8,0:0|0:0,0:0:0:0:
224,88,68676,1,0,0:0:0:0:
292,244,68843,1,0,0:0:0:0:
364,64,69010,2,0,L|408:40,2,46.875,0|0|8,0:0|0:0|0:0,0:0:0:0:
460,336,69343,1,0,0:0:0:0:
460,336,69510,5,6,0:0:0:0:
244,76,69843,1,8,0:0:0:0:
152,216,70010,1,0,0:0:0:0:
96,56,70176,1,0,0:0:0:0:
96,56,70510,1,8,0:0:0:0:
96,56,70843,1,0,0:0:0:0:
96,56,71176,5,8,0:0:0:0:
260,20,71343,1,0,0:0:0:0:
424,60,71510,1,0,0:0:0:0:
412,228,71676,1,0,0:0:0:0:
412,228,71760,1,0,0:0:0:0:
412,228,71843,1,8,0:0:0:0:
412,228,72010,1,0,0:0:0:0:
268,312,72176,6,0,P|204:284|176:236,1,93.75,6|0,0:0|0:0,0:0:0:0:
336,184,72510,2,0,L|248:236,1,93.75,8|0,0:0|0:0,0:0:0:0:
404,148,72843,2,0,P|368:120|312:108,1,93.75
156,72,73176,2,0,P|192:96|256:96,1,93.75,8|0,0:0|0:0,0:0:0:0:
322,108,73510,1,0,0:0:0:0:
400,256,73676,2,0,L|436:296,2,46.875,0|0|8,0:0|0:0|0:0,0:0:0:0:
400,256,74010,5,0,0:0:0:0:
396,164,74176,1,0,0:0:0:0:
376,112,74260,1,0,0:0:0:0:
340,68,74343,1,0,0:0:0:0:
296,48,74426,1,0,0:0:0:0:
248,44,74510,1,8,0:0:0:0:
204,60,74593,1,0,0:0:0:0:
168,92,74676,1,0,0:0:0:0:
120,96,74760,1,0,0:0:0:0:
80,76,74843,5,6,0:0:0:0:
64,168,75010,2,0,P|44:244|48:276,1,93.75,0|8,0:0|0:0,0:0:0:0:
200,324,75343,2,0,P|220:284|228:232,1,93.75
256,68,75676,1,0,0:0:0:0:
428,228,75843,2,0,P|426:177|400:132,1,93.75,8|0,0:0|0:0,0:0:0:0:
238,139,76176,2,0,P|235:182|259:232,1,93.75
88,204,76510,5,8,0:0:0:0:
224,304,76676,1,0,0:0:0:0:
392,284,76843,2,0,P|416:240|412:192,1,93.75
344,44,77176,1,8,0:0:0:0:
184,32,77343,1,0,0:0:0:0:
192,76,77426,1,0,0:0:0:0:
184,124,77510,1,4,0:0:0:0:
68,248,77676,5,0,0:0:0:0:
184,124,77843,1,8,0:0:0:0:
204,292,78010,1,0,0:0:0:0:
348,208,78176,1,0,0:0:0:0:
312,44,78343,1,0,0:0:0:0:
144,40,78510,6,0,P|104:72|72:120,1,93.75,8|0,0:0|0:0,0:0:0:0:
240,32,78843,1,0,0:0:0:0:
328,176,79010,2,0,P|376:156|404:116,1,93.75,0|8,0:0|0:0,0:0:0:0:
256,208,79343,1,0,0:0:0:0:
256,208,79510,1,0,0:0:0:0:
120,308,79676,2,0,L|84:340,2,46.875,0|0|8,0:0|0:0|0:0,0:0:0:0:
288,300,80010,1,0,0:0:0:0:
288,300,80176,5,6,0:0:0:0:
452,92,80510,1,8,0:0:0:0:
320,196,80676,1,0,0:0:0:0:
264,36,80843,1,0,0:0:0:0:
264,36,81176,1,8,0:0:0:0:
136,348,81510,1,0,0:0:0:0:
136,348,81843,5,8,0:0:0:0:
304,344,82010,1,0,0:0:0:0:
192,220,82176,1,0,0:0:0:0:
92,84,82343,2,0,P|104:108|128:124,2,46.875,0|0|8,0:0|0:0|0:0,0:0:0:0:
92,84,82676,1,0,0:0:0:0:
256,36,82843,6,0,P|296:52|332:92,1,93.75,4|0,0:0|0:0,0:0:0:0:
411,192,83176,2,0,P|396:232|355:268,1,93.75,8|0,0:0|0:0,0:0:0:0:
256,347,83510,2,0,P|216:332|180:292,1,93.75
100,192,83843,2,0,P|116:152|156:115,1,93.75,8|0,0:0|0:0,0:0:0:0:
256,252,84176,1,0,0:0:0:0:
340,212,84343,1,0,0:0:0:0:
348,168,84426,1,0,0:0:0:0:
328,124,84510,1,8,0:0:0:0:
404,72,84676,5,0,0:0:0:0:
476,136,84843,1,0,0:0:0:0:
464,180,84926,1,0,0:0:0:0:
436,220,85010,1,0,0:0:0:0:
400,248,85093,1,0,0:0:0:0:
352,252,85176,1,8,0:0:0:0:
308,236,85260,1,0,0:0:0:0:
268,216,85343,1,0,0:0:0:0:
220,224,85426,1,0,0:0:0:0:
180,248,85510,5,6,0:0:0:0:
80,112,85676,1,0,0:0:0:0:
220,20,85843,1,8,0:0:0:0:
244,188,86010,1,0,0:0:0:0:
432,272,86343,5,0,0:0:0:0:
292,364,86510,1,8,0:0:0:0:
268,196,86676,1,0,0:0:0:0:
144,288,87010,6,0,P|116:252|104:200,2,93.75,0|8|0,0:0|0:0|0:0,0:0:0:0:
396,64,87676,6,0,P|432:100|440:144,2,93.75,0|8|0,0:0|0:0|0:0,0:0:0:0:
396,64,88176,1,4,0:0:0:0:
220,352,88510,1,8,0:0:0:0:
112,32,88843,5,0,0:0:0:0:
276,72,89010,1,0,0:0:0:0:
476,344,89343,1,0,0:0:0:0:
292,320,89676,5,0,0:0:0:0:
316,280,89760,1,0,0:0:0:0:
304,236,89843,1,8,0:0:0:0:
348,72,90010,1,0,0:0:0:0:
268,220,90176,1,0,0:0:0:0:
472,28,90510,1,8,0:0:0:0:
424,360,90843,1,6,0:0:0:0:
228,84,91176,6,0,L|132:104,2,93.75,8|0|0,0:0|0:0|0:0,0:0:0:0:
228,84,91843,1,8,0:0:0:0:
28,356,92176,1,0,0:0:0:0:
160,44,92510,5,8,0:0:0:0:
36,160,92676,1,0,0:0:0:0:
204,160,92843,1,0,0:0:0:0:
296,136,93010,1,0,0:0:0:0:
328,168,93093,1,0,0:0:0:0:
332,216,93176,1,8,0:0:0:0:
288,296,93343,1,0,0:0:0:0:
144,212,93510,6,0,P|116:176|116:128,1,93.75,4|0,0:0|0:0,0:0:0:0:
260,40,93843,2,0,P|288:76|288:124,1,93.75,8|0,0:0|0:0,0:0:0:0:
224,280,94176,2,0,P|218:223|252:189,1,93.75
410,206,94510,2,0,P|404:251|370:285,1,93.75,8|0,0:0|0:0,0:0:0:0:
204,308,94843,1,0,0:0:0:0:
368,344,95010,2,0,P|376:320|400:304,2,46.875,0|0|8,0:0|0:0|0:0,0:0:0:0:
204,308,95343,5,0,0:0:0:0:
92,180,95510,1,0,0:0:0:0:
128,212,95593,1,0,0:0:0:0:
176,208,95676,1,0,0:0:0:0:
212,180,95760,1,0,0:0:0:0:
232,136,95843,1,8,0:0:0:0:
252,92,95926,1,0,0:0:0:0:
288,60,96010,1,0,0:0:0:0:
332,52,96093,1,0,0:0:0:0:
376,68,96176,5,6,0:0:0:0:
420,232,96343,1,0,0:0:0:0:
256,280,96510,1,8,0:0:0:0:
92,232,96676,1,0,0:0:0:0:
388,72,97010,6,0,B|436:72|476:40,2,93.75,0|8|0,0:0|0:1|0:0,0:0:0:0:
124,72,97676,6,0,B|76:72|36:40,2,93.75,0|8|0,0:0|0:1|0:0,0:0:0:0:
256,124,98343,5,0,0:0:0:0:
256,124,98510,1,8,0:0:0:0:
256,124,98676,1,0,0:0:0:0:
256,124,98843,2,0,B|216:184|300:232|252:312,2,187.5,4|8|0,0:0|0:0|0:0,0:0:0:0:
256,304,99676,1,0,0:0:0:0:
448,192,100010,5,0,0:0:0:0:
140,52,100343,2,0,L|92:28,2,46.875,0|0|8,0:0|0:0|0:0,0:0:0:0:
44,192,100676,2,0,L|96:192,2,46.875
156,320,101010,1,0,0:0:0:0:
264,192,101176,1,8,0:0:0:0:
372,320,101343,1,0,0:0:0:0:
372,320,101510,5,6,0:0:0:0:
136,76,101843,1,8,0:0:0:0:
296,124,102010,1,0,0:0:0:0:
164,232,102176,1,0,0:0:0:0:
164,232,102510,5,8,0:0:0:0:
448,48,102843,1,0,0:0:0:0:
448,48,103176,5,8,0:0:0:0:
316,156,103343,1,0,0:0:0:0:
476,212,103510,1,0,0:0:0:0:
368,340,103676,1,0,0:0:0:0:
368,340,103760,1,0,0:0:0:0:
368,340,103843,1,8,0:0:0:0:
368,340,104010,1,0,0:0:0:0:
200,332,104176,6,0,P|184:276|200:232,1,93.75,4|0,0:0|0:0,0:0:0:0:
344,164,104510,2,0,P|351:209|335:253,1,93.75,8|0,0:0|0:0,0:0:0:0:
368,88,104843,2,0,P|320:96|284:124,1,93.75
128,56,105176,2,0,P|173:46|214:24,1,93.75,8|0,0:0|0:0,0:0:0:0:
52,68,105510,5,0,0:0:0:0:
48,236,105676,1,0,0:0:0:0:
48,236,105760,1,0,0:0:0:0:
48,236,105843,1,8,0:0:0:0:
188,140,106010,5,0,0:0:0:0:
332,52,106176,1,0,0:0:0:0:
360,92,106260,1,0,0:0:0:0:
380,132,106343,1,0,0:0:0:0:
380,180,106426,1,0,0:0:0:0:
360,224,106510,1,8,0:0:0:0:
328,260,106593,1,0,0:0:0:0:
288,284,106676,1,0,0:0:0:0:
240,292,106760,1,0,0:0:0:0:
196,280,106843,5,2,0:0:0:0:
72,140,107176,2,0,P|136:80|164:68,1,97.4999955368044,0|2,0:0|0:0,0:0:0:0:
320,52,107843,1,0,0:0:0:0:
172,144,108176,2,0,L|224:104,1,48.7499977684022,0|2,0:0|0:0,0:0:0:0:
240,96,108676,5,2,0:0:0:0:
388,188,109010,2,0,L|412:168,2,24.3749988842011,2|0|0,0:0|0:0|0:0,0:0:0:0:
388,104,109343,1,0,0:0:0:0:
320,160,109510,1,4,0:0:0:0:
48,344,109843,5,2,0:0:0:0:
224,336,110176,2,0,L|172:336,1,48.7499977684022,0|2,0:0|0:0,0:0:0:0:
260,336,110676,1,0,0:0:0:0:
376,172,111010,2,0,L|352:136,2,24.3749988842011,2|0|0,0:0|0:0|0:0,0:0:0:0:
300,212,111343,1,0,0:0:0:0:
252,140,111510,1,2,0:0:0:0:
408,64,111843,1,0,0:0:0:0:
80,32,112176,5,6,0:0:0:0:
244,100,112510,2,0,B|250:140|301:95|314:151,2,97.4999955368044,0|2|0,0:0|0:0|0:0,0:0:0:0:
84,172,113510,1,0,0:0:0:0:
84,172,113676,1,2,0:0:0:0:
252,224,114010,1,2,0:0:0:0:
352,80,114343,6,0,L|372:56,2,24.3749988842011,2|0|0,0:0|0:0|0:0,0:0:0:0:
440,96,114676,2,0,L|408:144,1,48.7499977684022,0|4,0:0|0:0,0:0:0:0:
256,52,115176,1,2,0:0:0:0:
84,84,115510,2,0,L|124:112,1,48.7499977684022,0|2,0:0|0:0,0:0:0:0:
424,324,116010,1,0,0:0:0:0:
368,156,116343,6,0,L|344:120,2,24.3749988842011,2|0|0,0:0|0:0|0:0,0:0:0:0:
400,236,116676,1,0,0:0:0:0:
424,324,116843,1,2,0:0:0:0:
368,156,117176,1,0,0:0:0:0:
88,56,117510,5,6,0:0:0:0:
84,180,125510,5,4,0:0:0:0:
400,20,125843,1,2,0:0:0:0:
412,196,126176,2,0,L|356:200,1,48.7499977684022,0|2,0:0|0:0,0:0:0:0:
324,204,126676,1,0,0:0:0:0:
76,164,127010,5,2,0:0:0:0:
56,192,127093,1,0,0:0:0:0:
76,220,127176,1,0,0:0:0:0:
156,188,127343,1,0,0:0:0:0:
176,188,127510,1,2,0:0:0:0:
236,188,127843,1,0,0:0:0:0:
352,28,128176,6,0,P|388:56|408:104,1,93.75,4|0,0:0|0:0,0:0:0:0:
352,260,128510,1,8,0:0:0:0:
224,152,128676,1,0,0:0:0:0:
100,36,128843,2,0,P|60:84|48:128,1,93.75
60,280,129176,1,8,0:0:0:0:
220,340,129343,1,0,0:0:0:0:
388,344,129510,2,0,P|444:328|460:288,1,93.75
292,272,129843,5,8,0:0:0:0:
134,208,130010,1,0,0:0:0:0:
187,47,130176,1,0,0:0:0:0:
344,110,130343,1,0,0:0:0:0:
344,110,130426,1,0,0:0:0:0:
344,110,130510,1,8,0:0:0:0:
344,110,130676,1,0,0:0:0:0:
187,47,130843,5,6,0:0:0:0:
308,164,131010,1,0,0:0:0:0:
148,112,131176,1,8,0:0:0:0:
300,184,131343,1,0,0:0:0:0:
132,184,131510,1,0,0:0:0:0:
300,208,131676,1,0,0:0:0:0:
136,256,131843,2,8,P|160:296|216:308,1,93.75,8|0,0:0|0:0,0:0:0:0:
372,312,132176,1,0,0:0:0:0:
208,348,132343,5,0,0:0:0:0:
164,340,132426,1,0,0:0:0:0:
124,312,132510,1,8,0:0:0:0:
292,332,132676,1,0,0:0:0:0:
168,216,132843,1,0,0:0:0:0:
124,196,132926,1,0,0:0:0:0:
100,156,133010,1,0,0:0:0:0:
88,112,133093,1,0,0:0:0:0:
116,72,133176,1,8,0:0:0:0:
160,60,133260,1,0,0:0:0:0:
204,76,133343,1,0,0:0:0:0:
236,112,133426,1,0,0:0:0:0:
248,156,133510,1,4,0:0:0:0:
264,248,133676,5,0,0:0:0:0:
404,152,133843,1,8,0:0:0:0:
268,48,134010,2,0,P|204:32|148:40,1,93.75
36,124,134343,1,0,0:0:0:0:
168,228,134510,1,8,0:0:0:0:
180,60,134676,1,0,0:0:0:0:
332,136,134843,2,0,P|380:168|392:204,1,93.75
256,304,135176,5,8,0:0:0:0:
132,192,135343,1,0,0:0:0:0:
132,24,135510,1,0,0:0:0:0:
260,132,135676,1,0,0:0:0:0:
296,100,135760,1,0,0:0:0:0:
344,96,135843,1,8,0:0:0:0:
344,96,136010,1,0,0:0:0:0:
264,244,136176,6,0,L|204:328,1,93.75,6|0,0:0|0:0,0:0:0:0:
184,152,136510,2,0,L|96:200,1,93.75,8|0,0:0|0:0,0:0:0:0:
136,32,136843,2,0,L|16:60,1,93.75
184,152,137176,2,0,L|280:100,1,93.75,8|0,0:0|0:0,0:0:0:0:
424,44,137510,1,0,0:0:0:0:
320,176,137676,1,0,0:0:0:0:
460,84,137843,1,8,0:0:0:0:
356,220,138010,1,0,0:0:0:0:
208,300,138176,6,0,L|156:320,2,46.875
200,132,138510,2,0,L|144:124,2,46.875,8|0|0,0:0|0:0|0:0,0:0:0:0:
344,44,138843,6,0,P|388:68|416:112,1,93.75,4|0,0:0|0:0,0:0:0:0:
352,260,139176,1,8,0:0:0:0:
252,124,139343,2,0,P|200:144|168:180,1,93.75
308,276,139676,1,0,0:0:0:0:
160,356,139843,2,0,P|104:336|72:288,1,93.75,8|0,0:0|0:0,0:0:0:0:
224,220,140176,1,0,0:0:0:0:
82,311,140343,1,0,0:0:0:0:
84,140,140510,2,0,P|96:96|148:56,1,93.75,8|0,0:0|0:0,0:0:0:0:
296,32,140843,1,0,0:0:0:0:
408,160,141010,6,0,L|452:184,2,46.875,0|0|8,0:0|0:0|0:0,0:0:0:0:
408,160,141343,1,0,0:0:0:0:
472,316,141510,5,6,0:0:0:0:
328,232,141676,1,0,0:0:0:0:
400,324,141843,1,8,0:0:0:0:
244,264,142010,1,0,0:0:0:0:
336,336,142176,1,0,0:0:0:0:
168,308,142343,2,0,P|128:264|120:228,1,93.75,0|8,0:0|0:0,0:0:0:0:
240,112,142676,1,0,0:0:0:0:
380,196,142843,1,0,0:0:0:0:
252,308,143010,5,0,0:0:0:0:
208,328,143093,1,0,0:0:0:0:
164,348,143176,1,8,0:0:0:0:
164,348,143343,1,0,0:0:0:0:
176,132,143510,5,8,0:0:0:0:
132,144,143593,1,0,0:0:0:0:
88,160,143676,1,0,0:0:0:0:
112,32,143843,1,8,0:0:0:0:
84,68,143926,1,0,0:0:0:0:
56,104,144010,1,0,0:0:0:0:
192,292,144176,5,4,0:0:0:0:
288,152,144343,1,0,0:0:0:0:
408,272,144510,1,8,0:0:0:0:
184,160,144676,1,0,0:0:0:0:
300,284,144843,1,0,0:0:0:0:
132,304,145010,6,0,L|60:240,1,93.75,0|8,0:0|0:0,0:0:0:0:
228,272,145343,2,0,L|268:172,1,93.75
388,72,145676,1,0,0:0:0:0:
328,232,145843,1,8,0:0:0:0:
248,84,146010,1,0,0:0:0:0:
84,44,146176,1,0,0:0:0:0:
164,192,146343,1,0,0:0:0:0:
136,228,146426,1,0,0:0:0:0:
140,276,146510,1,8,0:0:0:0:
292,352,146676,1,0,0:0:0:0:
432,256,146843,5,6,0:0:0:0:
468,32,147010,1,0,0:0:0:0:
296,268,147176,1,8,0:0:0:0:
392,56,147343,1,0,0:0:0:0:
160,236,147510,1,0,0:0:0:0:
316,64,147676,1,0,0:0:0:0:
148,40,147843,6,0,L|68:108,1,93.75,8|0,0:0|0:0,0:0:0:0:
232,32,148176,1,0,0:0:0:0:
244,108,148343,2,0,L|196:200,1,93.75,0|8,0:0|0:0,0:0:0:0:
200,191,148676,1,0,0:0:0:0:
344,280,148843,5,8,0:0:0:0:
360,272,148926,2,0,L|408:244,1,46.875
244,236,149176,1,8,0:0:0:0:
224,252,149260,2,0,L|168:288,1,46.875
176,110,149510,6,0,P|131:98|108:60,1,93.75,4|0,0:0|0:0,0:0:0:0:
256,144,149843,1,8,0:0:0:0:
404,59,150010,2,0,P|380:98|335:110,1,93.75
432,248,150343,1,0,0:0:0:0:
256,324,150510,1,8,0:0:0:0:
80,248,150676,1,0,0:0:0:0:
156,96,150843,5,0,0:0:0:0:
308,172,151010,1,0,0:0:0:0:
208,308,151176,2,0,L|208:208,1,93.75,8|0,0:0|0:0,0:0:0:0:
208,44,151510,1,0,0:0:0:0:
376,68,151676,2,0,L|412:108,2,46.875,0|0|8,0:0|0:0|0:0,0:0:0:0:
192,40,152010,1,0,0:0:0:0:
296,279,152176,6,0,P|334:304|343:349,1,93.75,6|0,0:0|0:0,0:0:0:0:
64,248,152510,2,0,P|100:219|146:224,1,93.75,8|0,0:0|0:0,0:0:0:0:
232,219,152843,1,0,0:0:0:0:
102,61,153010,1,0,0:0:0:0:
293,50,153176,1,8,0:0:0:0:
433,182,153343,1,0,0:0:0:0:
344,324,153510,1,0,0:0:0:0:
224,204,153676,5,0,0:0:0:0:
224,204,153760,1,0,0:0:0:0:
224,204,153843,1,8,0:0:0:0:
372,284,154010,1,0,0:0:0:0:
208,312,154176,1,8,0:0:0:0:
164,296,154260,1,0,0:0:0:0:
156,248,154343,1,0,0:0:0:0:
184,212,154426,1,0,0:0:0:0:
224,188,154510,1,8,0:0:0:0:
248,148,154593,1,0,0:0:0:0:
240,100,154676,1,0,0:0:0:0:
220,56,154760,1,0,0:0:0:0:
180,32,154843,1,4,0:0:0:0:
208,200,155010,5,0,0:0:0:0:
320,76,155176,1,8,0:0:0:0:
320,244,155343,1,0,0:0:0:0:
212,116,155510,2,0,P|164:100|92:116,1,93.75
164,268,155843,1,8,0:0:0:0:
121,103,156010,1,0,0:0:0:0:
44,252,156176,5,0,0:0:0:0:
184,344,156343,2,0,L|284:344,1,93.75,0|8,0:0|0:0,0:0:0:0:
380,208,156676,1,0,0:0:0:0:
424,44,156843,1,0,0:0:0:0:
464,208,157010,1,0,0:0:0:0:
444,248,157093,1,0,0:0:0:0:
460,292,157176,1,8,0:0:0:0:
476,124,157343,1,0,0:0:0:0:
328,40,157510,5,6,0:0:0:0:
224,184,157676,1,0,0:0:0:0:
372,72,157843,1,8,0:0:0:0:
192,144,158010,1,0,0:0:0:0:
400,120,158176,1,0,0:0:0:0:
176,96,158343,1,0,0:0:0:0:
400,172,158510,1,8,0:0:0:0:
192,48,158676,1,0,0:0:0:0:
380,220,158843,6,0,P|344:264|296:276,1,93.75
264,288,159093,1,0,0:0:0:0:
220,276,159176,1,8,0:0:0:0:
144,224,159343,1,0,0:0:0:0:
108,140,159510,1,0,0:0:0:0:
452,40,159843,1,8,0:0:0:0:
308,344,160176,6,0,L|216:292,1,93.75,4|0,0:0|0:0,0:0:0:0:
148,148,160510,2,0,L|240:204,1,93.75,8|0,0:0|0:0,0:0:0:0:
308,48,160843,1,0,0:0:0:0:
140,56,161010,1,0,0:0:0:0:
100,84,161093,1,0,0:0:0:0:
72,124,161176,1,8,0:0:0:0:
60,216,161343,1,0,0:0:0:0:
440,156,161510,1,6,0:0:0:0:
60,216,161843,5,8,0:0:0:0:
128,60,162010,1,0,0:0:0:0:
232,192,162176,1,0,0:0:0:0:
332,328,162343,1,0,0:0:0:0:
368,296,162426,1,0,0:0:0:0:
376,248,162510,1,8,0:0:0:0:
404,84,162676,1,0,0:0:0:0:
484,352,162843,1,6,0:0:0:0:
196,48,163176,5,8,0:0:0:0:
364,24,163343,1,0,0:0:0:0:
272,164,163510,1,0,0:0:0:0:
196,48,163843,1,8,0:0:0:0:
332,356,164176,2,0,B|388:332|344:288|344:232|400:196|400:196|304:196|264:168|264:96,1,375,6|2,0:0|0:0,0:0:0:0:
260,80,165176,1,8,0:0:0:0:
64,72,165510,5,4,0:0:0:0:
128,228,165676,2,0,P|152:276|196:304,1,93.75,0|8,0:0|0:0,0:0:0:0:
120,140,166010,1,0,0:0:0:0:
72,300,166176,1,0,0:0:0:0:
288,340,166343,1,0,0:0:0:0:
288,340,166426,1,0,0:0:0:0:
288,340,166510,1,8,0:0:0:0:
452,216,166676,1,0,0:0:0:0:
72,156,166843,1,6,0:0:0:0:
388,40,167176,5,8,0:0:0:0:
228,96,167343,1,0,0:0:0:0:
396,92,167510,1,0,0:0:0:0:
236,144,167676,1,0,0:0:0:0:
220,188,167760,1,0,0:0:0:0:
184,216,167843,1,8,0:0:0:0:
96,360,168010,1,0,0:0:0:0:
208,56,168176,1,6,0:0:0:0:
488,352,168510,5,8,0:0:0:0:
420,200,168676,1,0,0:0:0:0:
252,200,168843,1,8,0:0:0:0:
180,352,169010,2,0,P|104:304|104:208,1,187.5
388,40,169676,1,8,0:0:0:0:
404,208,169843,1,8,0:0:0:0:
268,312,170010,1,0,0:0:0:0:
148,196,170176,6,0,P|191:177|223:136,1,93.75
100,21,170510,2,0,P|57:33|24:69,1,93.75,8|0,0:0|0:0,0:0:0:0:
160,328,170843,6,0,P|112:300|88:252,1,93.75,4|0,0:0|0:0,0:0:0:0:
120,96,171176,2,0,P|148:48|196:24,1,93.75,8|0,0:0|0:0,0:0:0:0:
352,56,171510,2,0,P|400:84|424:132,1,93.75
392,288,171843,2,0,P|364:336|316:360,1,93.75,8|0,0:0|0:0,0:0:0:0:
168,324,172176,5,0,0:0:0:0:
52,200,172343,1,0,0:0:0:0:
208,288,172510,1,8,0:0:0:0:
116,148,172676,1,0,0:0:0:0:
248,268,172843,1,0,0:0:0:0:
192,108,173010,1,0,0:0:0:0:
288,256,173176,1,8,0:0:0:0:
272,88,173343,1,0,0:0:0:0:
352,328,173510,6,0,P|365:283|402:256,1,93.75,4|0,0:0|0:0,0:0:0:0:
392,95,173843,2,0,P|347:82|320:45,1,93.75,8|0,0:0|0:0,0:0:0:0:
159,55,174176,2,0,P|146:100|109:127,1,93.75
119,288,174510,2,0,P|164:301|191:338,1,93.75,8|0,0:0|0:0,0:0:0:0:
232,176,174843,5,0,0:0:0:0:
380,256,175010,1,0,0:0:0:0:
260,128,175176,1,8,0:0:0:0:
420,188,175343,1,0,0:0:0:0:
280,76,175510,1,0,0:0:0:0:
444,108,175676,1,0,0:0:0:0:
296,208,175843,1,8,0:0:0:0:
152,296,176010,1,0,0:0:0:0:
60,156,176176,6,0,L|92:252,1,93.75,6|0,0:0|0:0,0:0:0:0:
172,32,176510,2,0,L|236:140,1,93.75,8|0,0:0|0:0,0:0:0:0:
440,60,176843,2,0,L|412:160,1,93.75
288,336,177176,2,0,L|256:240,1,93.75,8|0,0:0|0:0,0:0:0:0:
140,124,177510,5,0,0:0:0:0:
298,180,177676,1,0,0:0:0:0:
100,180,177843,1,8,0:0:0:0:
284,104,178010,1,0,0:0:0:0:
116,252,178176,1,0,0:0:0:0:
228,56,178343,1,0,0:0:0:0:
240,280,178510,1,8,0:0:0:0:
456,220,178676,1,0,0:0:0:0:
420,64,178843,6,0,P|376:64|324:80,1,93.75,6|0,0:0|0:0,0:0:0:0:
376,239,179176,2,0,P|337:262|300:301,1,93.75,8|0,0:0|0:0,0:0:0:0:
136,316,179510,1,0,0:0:0:0:
216,168,179676,1,0,0:0:0:0:
372,236,179843,1,8,0:0:0:0:
360,68,180010,2,0,P|296:56|236:60,1,93.75
140,176,180343,1,0,0:0:0:0:
248,44,180510,1,8,0:0:0:0:
324,192,180676,1,0,0:0:0:0:
244,340,180843,5,2,0:0:0:0:
196,336,180926,1,0,0:0:0:0:
156,312,181010,1,0,0:0:0:0:
132,272,181093,1,0,0:0:0:0:
128,224,181176,1,10,0:0:0:0:
140,176,181260,1,0,0:0:0:0:
168,136,181343,1,0,0:0:0:0:
212,120,181426,1,0,0:0:0:0:
260,124,181510,6,0,P|304:140|340:180,1,93.75,4|0,0:0|0:0,0:0:0:0:
244,312,181843,2,0,P|196:300|164:264,1,93.75,8|0,0:0|0:0,0:0:0:0:
260,124,182176,1,0,0:0:0:0:
244,312,182343,1,0,0:0:0:0:
112,208,182510,2,0,P|80:172|80:120,1,93.75,8|0,0:0|0:0,0:0:0:0:
432,176,182843,5,0,0:0:0:0:
328,308,183010,1,0,0:0:0:0:
484,244,183176,1,8,0:0:0:0:
356,132,183343,1,0,0:0:0:0:
412,292,183510,1,0,0:0:0:0:
284,184,183676,2,0,L|232:144,2,46.875,0|0|8,0:0|0:0|0:0,0:0:0:0:
284,184,184010,1,0,0:0:0:0:
120,32,184176,1,4,0:0:0:0:
52,188,184343,6,0,P|40:232|48:284,1,93.75,0|8,0:0|0:0,0:0:0:0:
212,236,184676,1,0,0:0:0:0:
348,340,184843,2,0,P|385:311|408:271,1,93.75,0|0,0:0|0:0,0:3:0:0:
452,108,185176,1,8,0:0:0:0:
340,236,185343,5,0,0:0:0:0:
356,68,185510,1,0,0:0:0:0:
304,228,185676,1,0,0:0:0:0:
260,64,185843,1,8,0:0:0:0:
260,232,186010,2,0,P|224:264|168:276,2,93.75
260,64,186510,1,8,0:0:0:0:
96,32,186676,1,0,0:0:0:0:
264,24,186843,6,0,L|360:24,1,93.75,4|0,0:0|0:0,0:0:0:0:
452,164,187176,2,0,L|356:164,1,93.75,8|0,0:0|0:0,0:0:0:0:
264,304,187510,2,0,L|156:304,1,93.75
72,164,187843,2,0,L|176:164,2,93.75,8|0|0,0:0|0:0|0:0,0:0:0:0:
92,332,188343,6,0,P|144:324|192:288,1,93.75,0|8,0:0|0:0,0:0:0:0:
256,152,188676,1,0,0:0:0:0:
332,304,188843,1,0,0:0:0:0:
404,152,189010,1,0,0:0:0:0:
432,116,189093,1,0,0:0:0:0:
460,80,189176,1,8,0:0:0:0:
300,28,189343,1,0,0:0:0:0:
236,184,189510,5,4,0:0:0:0:
36,156,189676,1,0,0:0:0:0:
152,32,189843,2,0,P|192:48|228:88,1,93.75,8|0,0:0|0:0,0:0:0:0:
152,236,190176,1,0,0:0:0:0:
292,332,190343,1,0,0:0:0:0:
420,220,190510,2,0,P|440:180|444:132,1,93.75,8|0,0:0|0:0,0:0:0:0:
296,48,190843,5,4,0:0:0:0:
236,208,191010,1,0,0:0:0:0:
248,60,191176,1,8,0:0:0:0:
188,220,191343,1,0,0:0:0:0:
200,72,191510,1,0,0:0:0:0:
144,232,191676,1,0,0:0:0:0:
156,84,191843,1,8,0:0:0:0:
108,244,192010,1,0,0:0:0:0:
120,96,192176,1,6,0:0:0:0:
468,280,192510,6,0,P|440:244|448:172,2,93.75,8|0|0,0:0|0:0|0:0,0:0:0:0:
96,32,193176,1,8,0:0:0:0:
468,280,193510,1,2,0:0:0:0:
96,352,193843,6,0,P|124:316|116:244,2,93.75,8|0|0,0:0|0:0|0:0,0:0:0:0:
108,224,194343,1,0,0:0:0:0:
116,180,194426,1,0,0:0:0:0:
140,140,194510,1,8,0:0:0:0:
256,20,194676,1,0,0:0:0:0:
256,20,194843,1,6,0:0:0:0:
416,316,195176,5,8,0:0:0:0:
360,156,195343,1,0,0:0:0:0:
272,300,195510,1,2,0:0:0:0:
48,48,195843,1,10,0:0:0:0:
188,356,196176,1,2,0:0:0:0:
436,128,196510,1,10,0:0:0:0:
108,212,196843,2,0,P|80:176|88:104,2,93.75,2|0|10,0:0|0:0|0:0,0:0:0:0:
248,116,197343,1,0,0:0:0:0:
408,52,197510,6,0,P|408:112|380:160,1,93.75,6|0,0:0|0:0,0:0:0:0:
304,284,197843,2,0,P|288:240|296:188,1,93.75,8|0,0:0|0:0,0:0:0:0:
324,28,198176,1,0,0:0:0:0:
292,196,198343,1,0,0:0:0:0:
180,72,198510,1,8,0:0:0:0:
332,312,198843,5,2,0:0:0:0:
220,188,199010,1,0,0:0:0:0:
188,356,199176,1,8,0:0:0:0:
218,189,199343,2,0,P|223:143|208:100,1,93.75
117,242,199676,2,0,P|104:264|104:296,2,46.875,0|0|8,0:0|0:0|0:0,0:0:0:0:
117,242,200176,1,6,0:0:0:0:
396,52,200510,5,8,0:0:0:0:
256,252,200676,1,0,0:0:0:0:
116,52,200843,1,2,0:0:0:0:
392,248,201176,1,8,0:0:0:0:
120,248,201510,1,2,0:0:0:0:
92,248,202176,1,2,0:0:0:0:
432,52,202843,5,4,0:0:0:0:
336,336,208176,6,0,L|296:248,1,93.75,4|0,0:0|0:0,0:0:0:0:
399,112,208510,2,0,L|312:152,1,93.75,8|0,0:0|0:0,0:0:0:0:
252,184,208843,1,2,0:0:0:0:
188,224,209176,1,10,0:0:0:0:
128,164,209510,5,2,0:0:0:0:
197,233,209676,2,0,L|112:272,1,93.75,0|8,0:0|0:0,0:0:0:0:
214,133,210010,2,0,L|176:48,1,93.75,0|2,0:0|0:0,0:0:0:0:
268,48,210343,1,0,0:0:0:0:
304,76,210426,1,0,0:0:0:0:
320,120,210510,1,8,0:0:0:0:
320,212,210676,1,0,0:0:0:0:
108,332,210843,1,6,0:0:0:0:
132,32,211176,5,8,0:0:0:0:
364,192,211343,1,0,0:0:0:0:
184,344,211510,1,2,0:0:0:0:
256,52,211843,1,8,0:0:0:0:
348,336,212176,1,2,0:0:0:0:
204,72,212510,1,8,0:0:0:0:
392,308,212843,1,2,0:0:0:0:
168,108,213176,1,8,0:0:0:0:
424,268,213510,6,0,L|400:172,1,93.75,4|0,0:0|0:0,0:0:0:0:
304,60,213843,2,0,L|324:152,1,93.75,8|0,0:0|0:0,0:0:0:0:
292,300,214176,2,0,L|268:200,1,93.75
168,96,214510,2,0,L|192:196,1,93.75,8|0,0:0|0:0,0:0:0:0:
96,72,214843,5,0,0:0:0:0:
189,187,215010,1,0,0:0:0:0:
308,96,215176,1,8,0:0:0:0:
404,212,215343,1,0,0:0:0:0:
316,336,215510,1,0,0:0:0:0:
168,312,215676,1,0,0:0:0:0:
140,272,215760,1,0,0:0:0:0:
124,228,215843,1,8,0:0:0:0:
32,84,216010,1,0,0:0:0:0:
196,48,216176,5,6,0:0:0:0:
268,200,216343,2,0,P|308:224|372:204,2,93.75,0|8|0,0:0|0:0|0:0,0:0:0:0:
388,80,216843,1,0,0:0:0:0:
428,244,217010,1,0,0:0:0:0:
304,132,217176,1,8,0:0:0:0:
388,280,217343,1,0,0:0:0:0:
228,328,217510,1,0,0:0:0:0:
120,200,217676,5,0,0:0:0:0:
96,160,217760,1,0,0:0:0:0:
84,116,217843,1,8,0:0:0:0:
248,164,218010,1,0,0:0:0:0:
220,124,218093,1,0,0:0:0:0:
208,80,218176,1,0,0:0:0:0:
376,52,218343,1,0,0:0:0:0:
384,96,218426,1,0,0:0:0:0:
408,136,218510,1,8,0:0:0:0:
296,208,218676,1,0,0:0:0:0:
104,304,218843,5,6,0:0:0:0:
52,144,219010,1,0,0:0:0:0:
176,28,219176,2,0,P|208:64|212:108,1,93.75,8|0,0:0|0:0,0:0:0:0:
260,272,219510,2,0,P|224:236|212:168,1,93.75
296,52,219843,1,8,0:0:0:0:
160,152,220010,1,0,0:0:0:0:
264,284,220176,5,0,0:0:0:0:
408,196,220343,1,0,0:0:0:0:
464,36,220510,1,8,0:0:0:0:
488,204,220676,1,0,0:0:0:0:
320,188,220843,1,0,0:0:0:0:
196,72,221010,1,0,0:0:0:0:
152,56,221093,1,0,0:0:0:0:
112,80,221176,1,8,0:0:0:0:
60,160,221343,1,0,0:0:0:0:
76,244,221510,6,0,L|168:220,1,93.75,4|0,0:0|0:0,0:0:0:0:
272,352,221843,2,0,P|308:332|324:280,1,93.75,8|0,0:0|0:0,0:0:0:0:
164,336,222176,1,0,0:0:0:0:
284,220,222343,2,0,P|332:212|384:236,1,93.75,0|8,0:0|0:0,0:0:0:0:
440,72,222676,1,0,0:0:0:0:
104,32,222843,5,0,0:0:0:0:
320,148,223010,1,0,0:0:0:0:
84,96,223176,1,8,0:0:0:0:
300,212,223343,1,0,0:0:0:0:
60,160,223510,1,0,0:0:0:0:
276,276,223676,1,0,0:0:0:0:
400,68,223843,2,0,L|280:40,1,93.75,8|0,0:0|0:0,0:0:0:0:
168,248,224176,6,0,P|212:264|256:252,1,93.75,6|0,0:0|0:0,0:0:0:0:
424,220,224510,2,0,P|384:208|332:224,1,93.75,8|0,0:0|0:0,0:0:0:0:
215,334,224843,2,0,P|257:314|280:275,1,93.75
376,133,225176,2,0,P|339:153|314:201,1,93.75,8|0,0:0|0:0,0:0:0:0:
256,40,225510,5,0,0:0:0:0:
148,168,225676,1,0,0:0:0:0:
216,324,225843,1,8,0:0:0:0:
296,176,226010,1,0,0:0:0:0:
384,316,226176,1,0,0:0:0:0:
236,232,226343,1,0,0:0:0:0:
188,240,226426,1,0,0:0:0:0:
148,268,226510,1,8,0:0:0:0:
148,268,226676,1,0,0:0:0:0:
164,100,226843,5,4,0:0:0:0:
320,36,227010,1,0,0:0:0:0:
296,204,227176,1,8,0:0:0:0:
236,48,227343,1,0,0:0:0:0:
368,152,227510,1,0,0:0:0:0:
204,184,227676,1,0,0:0:0:0:
176,204,228010,1,2,0:0:0:0:
424,28,228343,5,2,0:0:0:0:
432,76,228426,1,0,0:0:0:0:
432,124,228510,1,8,0:0:0:0:
479,190,228676,1,2,0:0:0:0:
451,229,228760,1,0,0:0:0:0:
417,263,228843,1,0,0:0:0:0:
404,344,229010,1,2,0:0:0:0:
356,352,229093,1,0,0:0:0:0:
307,352,229176,2,0,P|260:352|216:328,2,93.75,8|0|6,0:0|0:0|0:0,0:0:0:0:
116,72,229843,6,0,B|132:120|168:152|212:168|280:168,2,187.5,8|0|8,0:0|0:0|0:0,0:0:0:0:
400,256,230843,1,0,0:0:0:0:
400,256,231010,1,2,0:0:0:0:
68,324,231343,1,2,0:0:0:0:
456,40,231676,2,0,L|416:80,2,46.875,2|0|8,0:0|0:0|0:0,0:0:0:0:
368,188,232010,1,0,0:0:0:0:
284,40,232176,1,4,0:0:0:0:
100,324,232510,5,8,0:0:0:0:
436,332,232843,2,0,L|360:264,1,93.75,0|2,0:0|0:0,0:0:0:0:
336,236,233343,1,2,0:0:0:0:
60,44,233676,1,2,0:0:0:0:
88,212,233843,1,8,0:0:0:0:
224,312,234010,1,0,0:0:0:0:
392,292,234176,1,0,0:0:0:0:
216,56,234343,2,0,P|216:100|248:144,1,93.75,0|8,0:0|0:0,0:0:0:0:
380,236,234676,2,0,P|380:188|348:148,1,93.75,0|6,0:0|0:0,0:0:0:0:
256,168,239510,6,0,B|264:136|264:136|272:112|272:112|252:88|256:68,2,97.4999955368044,0|2|0,0:0|0:0|0:0,0:0:0:0:
312,364,240510,5,2,0:0:0:0:
416,224,240843,2,0,L|436:176,1,48.7499977684022,2|2,0:0|0:0,0:0:0:0:
272,112,241343,1,2,0:0:0:0:
96,104,241676,2,0,L|68:144,1,48.7499977684022,2|0,0:0|0:0,0:0:0:0:
96,316,242176,1,0,0:0:0:0:
184,164,242510,1,2,0:0:0:0:
324,56,242843,5,2,0:0:0:0:
272,224,243176,1,0,0:0:0:0:
428,144,243510,1,0,0:0:0:0:
340,296,243843,1,2,0:0:0:0:
84,56,244510,6,0,P|52:96|48:144,2,97.4999955368044,8|0|8,0:0|0:0|0:0,0:0:0:0:
396,192,245510,6,0,L|320:260,1,93.75,4|0,0:0|0:0,0:0:0:0:
172,324,245843,1,8,0:0:0:0:
144,156,246010,1,0,0:0:0:0:
172,120,246093,1,0,0:0:0:0:
168,72,246176,1,0,0:0:0:0:
72,212,246343,1,0,0:0:0:0:
232,268,246510,1,8,0:0:0:0:
392,224,246676,2,0,P|428:200|448:152,1,93.75
308,56,247010,5,0,0:0:0:0:
140,68,247176,2,0,P|108:100|104:152,1,93.75,8|0,0:0|0:0,0:0:0:0:
168,304,247510,1,0,0:0:0:0:
336,316,247676,2,0,P|376:296|400:248,1,93.75,0|8,0:0|0:0,0:0:0:0:
252,168,248010,2,0,P|266:125|249:74,1,93.75,0|4,0:0|0:0,0:0:0:0:
52,352,248510,5,8,0:0:0:0:
108,24,248843,5,2,0:0:0:0:
404,360,249343,1,2,0:0:0:0:
256,192,249510,12,0,250176,0:0:0:0:
384,32,250510,5,8,0:0:0:0:
256,344,250843,1,4,0:0:0:0:
124,240,251010,6,0,P|168:208|192:168,1,93.75,0|8,0:0|0:0,0:0:0:0:
500,40,251510,2,0,P|460:80|456:116,1,93.75,2|0,0:0|0:0,0:0:0:0:
128,28,252010,1,2,0:0:0:0:
312,312,252343,2,0,P|356:304|392:268,1,93.75,0|8,0:0|0:0,0:0:0:0:
136,48,252843,5,0,0:0:0:0:
136,48,253176,1,8,0:0:0:0:
136,48,253510,1,6,0:0:0:0:
352,308,253843,5,8,0:0:0:0:
276,156,254010,1,0,0:0:0:0:
132,240,254176,1,0,0:0:0:0:
228,100,254343,1,0,0:0:0:0:
256,64,254426,1,0,0:0:0:0:
300,44,254510,1,8,0:0:0:0:
388,188,254676,2,0,P|360:232|312:256,1,93.75
160,212,255010,5,0,0:0:0:0:
124,180,255093,1,0,0:0:0:0:
104,136,255176,1,8,0:0:0:0:
104,136,255343,1,0,0:0:0:0:
400,80,255510,1,8,0:0:0:0:
376,120,255593,1,0,0:0:0:0:
352,160,255676,1,0,0:0:0:0:
200,88,255843,1,8,0:0:0:0:
216,132,255926,1,0,0:0:0:0:
236,176,256010,1,0,0:0:0:0:
420,328,256176,5,4,0:0:0:0:
272,248,256343,1,0,0:0:0:0:
248,80,256510,2,0,P|200:76|156:96,1,93.75,8|0,0:0|0:0,0:0:0:0:
92,248,256843,2,0,P|128:276|180:288,1,93.75
340,328,257176,1,8,0:0:0:0:
440,192,257343,2,0,L|464:144,2,46.875
316,76,257676,5,0,0:0:0:0:
156,20,257843,1,8,0:0:0:0:
288,128,258010,1,0,0:0:0:0:
120,132,258176,1,0,0:0:0:0:
280,184,258343,2,0,P|264:232|224:264,1,93.75,0|8,0:0|0:0,0:0:0:0:
64,272,258676,2,0,P|72:224|104:184,1,93.75,0|6,0:0|0:0,0:0:0:0:
408,320,259176,1,8,0:0:0:0:
352,40,259510,6,0,B|360:88|344:132|296:148|232:128|232:128|256:172|256:224,1,281.25,2|2,0:0|0:0,0:0:0:0:
256,328,260343,5,0,0:0:0:0:
100,140,260510,1,8,0:0:0:0:
412,140,260676,1,0,0:0:0:0:
184,56,260843,2,0,L|128:36,2,46.875,8|0|0,0:0|0:0|0:0,0:0:0:0:
388,192,261176,2,0,L|444:192,2,46.875,8|0|0,0:0|0:0|0:0,0:0:0:0:
184,328,261510,2,0,L|128:348,2,46.875,6|0|0,0:0|0:0|0:0,0:0:0:0:
84,192,261843,5,8,0:0:0:0:
200,68,262010,1,0,0:0:0:0:
212,236,262176,2,0,L|296:280,1,93.75
428,172,262510,2,0,P|452:208|448:260,1,93.75,8|0,0:0|0:0,0:0:0:0:
308,352,262843,2,0,P|348:336|372:284,1,93.75
212,242,263176,5,8,0:0:0:0:
60,172,263343,1,0,0:0:0:0:
132,324,263510,1,0,0:0:0:0:
173,159,263676,1,0,0:0:0:0:
45,272,263843,1,8,0:0:0:0:
212,242,264010,1,0,0:0:0:0:
388,268,264176,1,4,0:0:0:0:
116,64,264510,2,0,B|88:104|88:136|128:180|128:216|88:260,1,187.5,8|2,0:0|0:0,0:0:0:0:
384,60,265176,5,8,0:0:0:0:
312,212,265343,1,0,0:0:0:0:
212,76,265510,1,2,0:0:0:0:
132,224,265676,2,0,P|124:248|100:264,2,46.875,0|0|8,0:0|0:0|0:0,0:0:0:0:
280,308,266010,1,0,0:0:0:0:
364,164,266176,1,8,0:0:0:0:
336,128,266260,1,0,0:0:0:0:
296,104,266343,1,0,0:0:0:0:
248,100,266426,1,0,0:0:0:0:
204,116,266510,1,8,0:0:0:0:
160,280,266676,1,0,0:0:0:0:
92,116,266843,5,2,0:0:0:0:
72,92,267176,1,2,0:0:0:0:
248,68,267510,1,2,0:0:0:0:
336,60,267676,2,0,B|384:72|424:104,1,97.4999955368044,0|2,0:0|0:0,0:0:0:0:
372,272,268343,5,2,0:0:0:0:
304,328,268510,1,0,0:0:0:0:
176,352,268843,1,0,0:0:0:0:
56,308,269176,1,0,0:0:0:0:
192,88,269510,5,4,0:0:0:0:
256,236,269676,1,0,0:0:0:0:
320,88,269843,2,0,B|328:124|372:112|372:112|384:152,1,97.4999955368044,2|2,0:0|0:0,0:0:0:0:
452,196,270343,1,0,0:0:0:0:
112,36,270676,2,0,B|80:56|80:56|108:72|120:104,1,97.4999955368044,2|0,0:0|0:0,0:0:0:0:
152,184,271176,5,8,0:0:0:0:
224,276,271510,1,8,0:0:0:0:
400,296,271843,1,8,0:0:0:0:
144,76,272176,6,0,P|108:112|96:152,1,93.75,6|0,0:0|0:0,0:0:0:0:
140,304,272510,2,0,P|176:340|216:352,1,93.75,8|0,0:0|0:0,0:0:0:0:
332,228,272843,1,0,0:0:0:0:
180,148,273010,1,0,0:0:0:0:
368,308,273176,2,0,P|404:272|416:232,1,93.75,8|0,0:0|0:0,0:0:0:0:
280,336,273510,1,0,0:0:0:0:
156,220,273676,1,0,0:0:0:0:
372,80,273843,2,0,P|336:44|296:32,1,93.75,8|0,0:0|0:0,0:0:0:0:
128,20,274176,1,10,0:0:0:0:
196,352,274510,5,0,0:0:0:0:
440,116,274843,1,6,0:0:0:0:
256,192,275010,12,8,275843,0:0:0:0:
256,360,276010,5,8,0:0:0:0:
420,216,276177,1,0,0:0:0:0:
440,79,276343,2,0,P|405:110|364:132,1,93.75
100,216,276676,1,8,0:0:0:0:
146,130,276843,2,0,P|105:109|70:78,1,93.75,0|4,0:0|0:0,0:0:0:0:
