osu file format v14

[General]
AudioFilename: toby fox - UNDERTALE Soundtrack - 90 His Theme.mp3
AudioLeadIn: 0
PreviewTime: 64044
Countdown: 0
SampleSet: Soft
StackLeniency: 0.7
Mode: 0
LetterboxInBreaks: 0
WidescreenStoryboard: 1

[Editor]
DistanceSpacing: 1
BeatDivisor: 4
GridSize: 4
TimelineZoom: 1

[Metadata]
Title:His Theme
TitleUnicode:His Theme
Artist:toby fox
ArtistUnicode:toby fox
Creator:MaddaFakka-sama
Version:Hard
Source:Undertale
Tags:Arphimigon 6th undertale toby fox flowey asriel
BeatmapID:925821
BeatmapSetID:413597

[Difficulty]
HPDrainRate:5.5
CircleSize:3.5
OverallDifficulty:6
ApproachRate:8
SliderMultiplier:1.4
SliderTickRate:2

[Events]
//Background and Video events
0,0,"asriel(3).jpg",0,0
//Break Periods
//Storyboard Layer 0 (Background)
//Storyboard Layer 1 (Fail)
//Storyboard Layer 2 (Pass)
//Storyboard Layer 3 (Foreground)
//Storyboard Sound Samples

[TimingPoints]
44,666.666666666667,4,2,1,40,1,0
6710,-66.6666666666667,4,2,1,40,0,0
64044,-50,4,2,1,50,0,1
72044,-100,4,2,1,50,0,1
74710,-66.6666666666667,4,2,1,50,0,1
85710,-66.6666666666667,4,2,1,50,0,1
88377,-66.6666666666667,4,2,1,50,0,1
96377,-100,4,2,1,50,0,1
99377,-66.6666666666667,4,2,1,50,0,1
100544,-100,4,2,1,50,0,1
104377,-66.6666666666667,4,2,1,50,0,1
106710,-66.6666666666667,4,2,1,50,0,0
108544,-66.6666666666667,4,2,1,40,0,0
109710,-66.6666666666667,4,2,1,30,0,0
112044,-66.6666666666667,4,2,1,20,0,0
117377,-66.6666666666667,4,2,1,5,0,0

[Colours]
Combo1 : 255,0,128
Combo2 : 255,255,255
Combo3 : 164,172,183
Combo4 : 0,255,255

[HitObjects]
192,288,44,5,0,3:0:0:0:
148,248,377,1,0,0:0:0:0:
128,200,710,1,0,0:0:0:0:
128,148,1044,1,0,0:0:0:0:
212,60,1377,2,0,P|300:104|312:124,1,105,0|0,0:0|0:0,0:0:0:0:
352,196,2377,1,0,0:0:0:0:
252,212,2710,5,0,0:0:0:0:
216,308,3044,1,0,0:0:0:0:
176,272,3377,1,0,0:0:0:0:
152,228,3710,1,0,0:0:0:0:
132,124,4044,2,0,P|220:92|256:100,2,105,0|0|0,0:0|0:0|0:0,0:0:0:0:
208,196,5377,5,0,3:0:0:0:
276,88,5710,1,0,0:0:0:0:
168,104,6044,1,0,0:0:0:0:
100,176,6377,1,0,0:0:0:0:
179,247,6710,2,0,P|256:232|334:246,2,157.500006008148
260,328,8044,5,0,0:0:0:0:
396,328,8377,2,0,P|448:256|440:208,1,105.000004005432
312,228,9044,1,0,0:0:0:0:
192,292,9377,1,0,0:0:0:0:
208,88,9877,1,0,0:0:0:0:
324,256,10377,1,0,0:0:0:0:
380,132,10710,5,0,3:0:0:0:
288,232,11044,1,0,0:0:0:0:
172,160,11377,1,0,0:0:0:0:
256,52,11710,2,0,L|276:176,1,105.000004005432
132,304,12544,1,0,0:0:0:0:
336,312,13044,1,0,0:0:0:0:
260,200,13377,5,0,0:0:0:0:
208,84,13710,1,0,0:0:0:0:
344,84,14044,1,0,0:0:0:0:
260,192,14377,1,0,0:0:0:0:
320,316,14710,2,0,P|376:252|388:164,2,157.500006008148
172,300,16044,5,0,3:0:0:0:
124,248,16377,1,0,0:0:0:0:
108,184,16710,1,0,0:0:0:0:
104,120,17044,1,0,0:0:0:0:
232,72,17377,1,0,0:0:0:0:
324,256,17877,1,0,0:0:0:0:
400,84,18377,1,0,0:0:0:0:
292,168,18710,5,0,0:0:0:0:
272,304,19044,2,0,P|208:284|180:228,1,105.000004005432
186,255,19710,1,0,0:0:0:0:
276,152,20044,1,0,0:0:0:0:
408,308,20544,1,0,0:0:0:0:
216,240,21044,1,0,0:0:0:0:
128,332,21377,6,0,L|180:284,2,52.5000020027161,8|0|8,3:0|0:0|0:0,0:0:0:0:
108,196,22044,2,0,L|52:152,2,52.5000020027161,0|0|0,3:0|0:0|0:0,0:0:0:0:
180,80,22710,2,0,L|260:24,1,52.5000020027161,0|0,3:0|0:0,0:0:0:0:
316,152,23210,2,0,L|308:212,1,52.5000020027161
192,272,23710,1,0,3:0:0:0:
320,320,24044,5,0,0:0:0:0:
320,320,24377,2,0,P|388:308|420:268,1,105.000004005432,0|0,0:0|3:0,0:0:0:0:
448,152,25044,1,0,0:0:0:0:
344,64,25377,1,0,3:0:0:0:
216,112,25710,1,0,0:0:0:0:
168,136,25877,1,0,3:0:0:0:
136,184,26044,1,0,0:0:0:0:
244,240,26377,1,0,3:0:0:0:
60,264,26710,5,8,3:0:0:0:
212,316,27044,1,0,0:0:0:0:
188,156,27377,1,0,3:0:0:0:
324,204,27710,1,0,0:0:0:0:
340,96,28044,2,0,L|228:60,1,105.000004005432,0|0,0:0|3:0,0:0:0:0:
148,120,28544,2,0,L|284:168,1,105.000004005432
332,180,29044,1,0,0:0:0:0:
224,216,29377,5,0,0:0:0:0:
224,328,29710,1,0,0:0:0:0:
168,308,29877,1,0,0:0:0:0:
128,264,30044,1,0,3:0:0:0:
248,204,30377,1,0,0:0:0:0:
384,88,30710,1,0,3:0:0:0:
232,48,31210,1,0,3:0:0:0:
240,196,31710,1,0,3:0:0:0:
112,320,32044,6,0,L|164:276,1,52.5000020027161,8|0,3:0|0:0,0:0:0:0:
76,200,32377,2,0,L|144:200,1,52.5000020027161,0|0,0:0|0:0,0:0:0:0:
112,84,32710,2,0,L|168:116,1,52.5000020027161,0|0,3:0|0:0,0:0:0:0:
244,28,33044,2,0,L|244:80,1,52.5000020027161,0|0,0:0|0:0,0:0:0:0:
396,80,33377,6,0,B|380:148|380:148|288:168,1,157.500006008148,0|0,3:0|3:0,0:0:0:0:
212,252,34377,1,0,3:0:0:0:
272,344,34710,1,0,0:0:0:0:
368,320,35044,6,0,L|320:276,1,52.5000020027161,0|0,0:0|0:0,0:0:0:0:
400,200,35377,2,0,L|336:196,1,52.5000020027161,0|0,3:0|0:0,0:0:0:0:
380,88,35710,2,0,L|308:120,1,52.5000020027161,0|0,0:0|0:0,0:0:0:0:
248,60,36044,6,0,B|168:80|168:80|168:172,1,157.500006008148,0|0,3:0|3:0,0:0:0:0:
216,304,37044,1,0,3:0:0:0:
316,316,37377,6,0,B|260:256|280:188|388:160|468:224|404:344|236:328|388:112|240:92,1,420.000016021729,8|0,3:0|3:0,0:0:0:0:
112,56,39210,1,0,3:0:0:0:
60,204,39710,1,0,3:0:0:0:
204,172,40044,5,0,0:0:0:0:
260,268,40377,2,0,L|352:200,1,105.000004005432
360,308,41044,1,0,0:0:0:0:
172,252,41377,2,0,P|192:212|308:152,2,157.500006008148
72,184,42710,5,8,3:0:0:0:
88,80,43044,1,0,0:0:0:0:
232,128,43377,1,0,3:0:0:0:
168,216,43710,1,0,0:0:0:0:
300,308,44044,5,0,0:0:0:0:
396,96,44544,1,0,0:0:0:0:
288,280,45044,1,0,0:0:0:0:
216,344,45377,5,0,0:0:0:0:
96,304,45710,1,0,0:0:0:0:
80,180,46044,1,0,3:0:0:0:
168,88,46377,1,0,0:0:0:0:
292,80,46710,1,0,3:0:0:0:
404,256,47210,1,0,3:0:0:0:
200,220,47710,1,0,3:0:0:0:
152,324,48044,6,0,P|96:276|84:232,1,105.000004005432,8|0,3:0|0:0,0:0:0:0:
84,156,48710,2,0,P|136:80|192:80,1,105.000004005432,0|0,3:0|0:0,0:0:0:0:
292,56,49377,1,0,3:0:0:0:
356,200,49877,1,0,3:0:0:0:
200,184,50377,1,0,3:0:0:0:
316,236,50710,5,0,0:0:0:0:
432,328,51044,2,0,L|360:328,2,52.5000020027161,0|0|0,0:0|0:0|3:0,0:0:0:0:
448,192,51710,1,0,0:0:0:0:
364,84,52044,1,0,3:0:0:0:
172,156,52544,1,0,3:0:0:0:
360,236,53044,1,0,3:0:0:0:
256,344,53377,5,8,3:0:0:0:
384,308,53710,2,0,P|308:292|284:240,1,105.000004005432,0|0,0:0|3:0,0:0:0:0:
236,240,54210,1,0,0:0:0:0:
172,220,54377,2,0,P|196:136|248:120,2,105.000004005432,0|0|0,0:0|0:0|3:0,0:0:0:0:
160,300,55210,1,0,0:0:0:0:
228,324,55377,1,0,3:0:0:0:
368,316,55710,1,0,0:0:0:0:
364,36,56377,5,0,0:0:0:0:
388,104,56544,1,0,0:0:0:0:
372,172,56710,1,0,3:0:0:0:
232,172,57044,1,0,0:0:0:0:
204,108,57210,1,0,0:0:0:0:
232,44,57377,1,0,3:0:0:0:
56,148,57877,1,0,3:0:0:0:
232,252,58377,1,0,3:0:0:0:
104,300,58710,5,8,3:0:0:0:
180,188,59044,1,0,0:0:0:0:
264,296,59377,1,0,3:0:0:0:
336,180,59710,1,0,0:0:0:0:
456,244,60044,1,0,3:0:0:0:
400,48,60544,1,0,3:0:0:0:
220,144,61044,1,0,3:0:0:0:
180,272,61377,5,0,0:0:0:0:
68,348,61710,6,0,P|40:304|52:220,1,105.000004005432,0|0,0:0|3:0,0:0:0:0:
116,140,62377,1,0,0:0:0:0:
152,104,62544,1,0,0:0:0:0:
200,80,62710,1,0,3:0:0:0:
336,100,63044,2,0,P|376:168|372:180,1,52.5000020027161,0|0,0:0|3:0,0:0:0:0:
292,324,63710,1,0,3:0:0:0:
112,308,64044,5,10,0:3:0:0:
64,132,64377,1,0,0:0:0:0:
112,112,64488,1,0,0:0:0:0:
164,112,64599,1,0,0:0:0:0:
212,132,64710,1,2,0:0:0:0:
324,216,65044,1,0,0:0:0:0:
220,312,65377,1,2,0:0:0:0:
108,136,65877,1,2,0:0:0:0:
216,324,66377,1,2,0:0:0:0:
328,324,66710,5,0,0:0:0:0:
384,244,67044,1,0,0:0:0:0:
404,204,67155,1,2,0:0:0:0:
396,156,67266,1,0,0:0:0:0:
376,112,67377,1,0,0:0:0:0:
236,112,67710,5,0,0:0:0:0:
216,152,67821,1,0,0:0:0:0:
216,200,67932,1,0,0:0:0:0:
236,244,68044,1,2,0:0:0:0:
120,320,68377,6,0,P|80:244|104:156,1,140
104,148,68821,1,0,0:0:0:0:
124,104,68932,1,0,0:0:0:0:
156,68,69044,1,2,0:0:0:0:
188,132,69377,5,2,0:3:0:0:
104,244,69710,1,0,0:0:0:0:
148,256,69821,1,0,0:0:0:0:
196,256,69932,1,0,0:0:0:0:
240,240,70044,1,2,0:0:0:0:
376,200,70377,6,0,L|412:264,3,46.6666666666667,0|0|0|2,0:0|0:0|0:0|0:0,0:0:0:0:
260,248,71044,2,0,P|208:272|144:216,1,140
136,180,71488,1,0,0:0:0:0:
132,132,71599,1,0,0:0:0:0:
148,88,71710,1,2,0:0:0:0:
68,204,72044,5,0,0:0:0:0:
144,272,72377,1,0,0:0:0:0:
208,200,72710,1,2,0:0:0:0:
280,272,73044,1,0,0:0:0:0:
344,200,73377,1,2,0:0:0:0:
316,44,73877,1,2,0:0:0:0:
160,40,74377,1,2,0:0:0:0:
104,124,74710,5,2,0:3:0:0:
220,100,75044,2,0,L|204:160,1,52.5000020027161
240,188,75377,2,0,L|260:248,1,52.5000020027161
220,272,75710,2,0,L|200:320,1,52.5000020027161
112,260,76044,1,2,0:0:0:0:
88,104,76544,1,2,0:0:0:0:
240,152,77044,1,2,0:0:0:0:
116,324,77710,6,0,L|92:264,1,52.5000020027161
132,236,78044,6,0,L|156:168,1,52.5000020027161
120,144,78377,6,0,L|100:72,1,52.5000020027161
164,52,78710,1,2,0:0:0:0:
312,100,79210,1,2,0:0:0:0:
404,228,79710,1,2,0:0:0:0:
360,324,80044,5,2,0:3:0:0:
260,296,80377,2,0,P|204:264|204:260,1,52.5000020027161
180,244,80710,2,0,P|124:240|120:268,1,52.5000020027161
96,264,81044,2,0,P|44:232|48:216,1,52.5000020027161
48,184,81377,1,2,0:0:0:0:
156,72,81877,1,2,0:0:0:0:
204,220,82377,1,2,0:0:0:0:
388,320,83044,5,0,0:0:0:0:
408,268,83210,2,0,L|384:196,1,52.5000020027161,0|2,0:0|0:0,0:0:0:0:
292,180,83710,1,0,0:0:0:0:
268,228,83877,2,0,L|288:296,1,52.5000020027161,0|2,0:0|0:0,0:0:0:0:
128,308,84544,1,2,0:0:0:0:
188,164,85044,1,2,0:0:0:0:
392,88,85377,5,2,0:3:0:0:
368,200,85710,2,0,P|316:264|260:272,1,105.000004005432,0|2,0:0|0:0,0:0:0:0:
192,276,86377,2,0,P|124:232|112:188,1,105.000004005432,0|2,0:0|0:0,0:0:0:0:
148,60,87210,1,2,0:0:0:0:
288,132,87710,1,2,0:0:0:0:
420,296,88377,5,0,0:0:0:0:
332,240,88710,2,0,L|264:240,2,52.5000020027161,2|0|0,0:0|0:0|0:0,0:0:0:0:
268,156,89377,1,2,0:0:0:0:
176,28,89877,1,2,0:0:0:0:
68,144,90377,1,2,0:0:0:0:
108,272,90710,5,2,0:3:0:0:
172,188,91044,1,0,0:0:0:0:
248,248,91377,1,2,0:0:0:0:
300,156,91710,1,0,0:0:0:0:
388,216,92044,1,2,0:0:0:0:
296,88,92544,1,2,0:0:0:0:
228,232,93044,1,2,0:0:0:0:
96,68,93710,5,0,0:0:0:0:
148,64,93877,1,0,0:0:0:0:
184,104,94044,1,2,0:0:0:0:
204,208,94377,5,0,0:0:0:0:
152,220,94544,1,0,0:0:0:0:
108,188,94710,1,2,0:0:0:0:
236,96,95210,1,2,0:0:0:0:
300,240,95710,1,2,0:0:0:0:
200,308,96044,5,2,0:3:0:0:
176,200,96377,2,0,P|184:140|212:116,1,70,0|2,0:0|0:0,0:0:0:0:
240,48,97044,1,0,0:0:0:0:
284,124,97377,6,0,P|308:184|304:232,1,105,2|2,0:0|0:0,0:0:0:0:
276,324,98377,1,2,0:0:0:0:
412,292,99044,5,0,0:0:0:0:
396,188,99377,2,0,P|368:136|292:120,1,105.000004005432,2|0,0:0|0:0,0:0:0:0:
212,112,100044,1,2,0:0:0:0:
144,208,100544,6,0,P|176:276|232:284,1,105,2|2,0:0|0:0,0:0:0:0:
308,248,101377,5,2,0:3:0:0:
344,188,101710,2,0,P|312:140|280:132,1,70,0|2,0:0|0:0,0:0:0:0:
236,112,102377,1,0,0:0:0:0:
180,152,102710,1,2,0:0:0:0:
144,252,103210,1,2,0:0:0:0:
224,320,103710,1,2,0:0:0:0:
340,144,104377,6,0,P|420:128|444:80,1,105.000004005432,0|2,0:0|0:0,0:0:0:0:
360,40,105044,2,0,P|276:56|252:88,1,105.000004005432,0|2,0:0|0:0,0:0:0:0:
316,216,105877,1,2,0:0:0:0:
176,140,106377,1,2,0:0:0:0:
156,244,106710,5,2,0:3:0:0:
248,296,107044,2,0,L|308:296,1,52.5000020027161
352,296,107377,1,0,0:0:0:0:
400,204,107710,1,0,0:0:0:0:
372,104,108044,2,0,P|288:64|212:64,2,157.500006008148
228,256,109710,5,0,0:0:0:0:
128,228,110044,2,0,L|128:116,1,105.000004005432
200,44,110710,1,0,0:0:0:0:
356,72,111210,2,0,P|368:152|284:216,1,157.500006008148
256,192,112044,12,0,117377,0:0:0:0:
