osu file format v14

[General]
AudioFilename: audio.mp3
AudioLeadIn: 0
PreviewTime: 44341
Countdown: 0
SampleSet: None
StackLeniency: 0.7
Mode: 0
LetterboxInBreaks: 0
WidescreenStoryboard: 0

[Editor]
Bookmarks: 22082,33091,44651,55660,66669,77678,88687,110706,121715
DistanceSpacing: 2
BeatDivisor: 16
GridSize: 8
TimelineZoom: 1.4

[Metadata]
Title:Here We Are
TitleUnicode:Here We Are
Artist:toby fox
ArtistUnicode:toby fox
Creator:Osuology
Version:Truth
Source:UNDERTALE
Tags:radiation ost soundtrack alphys true lab creepy
BeatmapID:1289238
BeatmapSetID:610604

[Difficulty]
HPDrainRate:6.7
CircleSize:5
OverallDifficulty:8.4
ApproachRate:9
SliderMultiplier:1.8
SliderTickRate:2

[Events]
//Background and Video events
0,0,"BG.png",0,0
//Break Periods
//Storyboard Layer 0 (Background)
//Storyboard Layer 1 (Fail)
//Storyboard Layer 2 (Pass)
//Storyboard Layer 3 (Foreground)
//Storyboard Sound Samples

[TimingPoints]
64.2184181599709,550.45871559633,5,3,1,60,1,0
22082,-100,5,3,1,75,0,0
43275,-100,5,3,3,75,0,0
43344,-100,5,3,4,75,0,0
43412,-100,5,3,5,75,0,0
43481,-100,5,3,6,75,0,0
43550,-100,5,3,1,75,0,0
44651,550.45871559633,5,3,2,87,1,0
44651,-100,5,3,2,87,0,1
66600,-100,5,3,2,87,0,0
66669,-100,5,3,2,87,0,1
88687,-100,5,3,1,75,0,0
110706,-100,5,3,1,66,0,0
123641,-100,5,3,3,66,0,0
123710,-100,5,3,4,66,0,0
123779,-100,5,3,5,66,0,0
123848,-100,5,3,6,66,0,0
123917,-100,5,3,1,66,0,0

[Colours]
Combo1 : 255,136,136
Combo2 : 191,44,0
Combo3 : 135,15,255
Combo4 : 239,188,95
Combo5 : 192,123,31
Combo6 : 181,0,181

[HitObjects]
160,162,22082,5,2,0:0:0:0:
283,263,22357,1,4,0:0:0:0:
134,319,22633,1,8,0:0:0:0:
250,176,22908,5,2,0:0:0:0:
224,334,23183,1,4,0:0:0:0:
101,232,23459,1,8,0:0:0:0:
283,263,23733,5,2,0:0:0:0:
134,319,24009,1,4,0:0:0:0:
160,162,24284,5,2,0:0:0:0:
283,263,24559,1,4,0:0:0:0:
309,106,24834,5,2,0:0:0:0:
462,60,25110,1,4,0:0:0:0:
426,216,25385,1,8,0:0:0:0:
372,38,25660,5,2,0:0:0:0:
488,148,25935,1,4,0:0:0:0:
335,195,26211,1,8,0:0:0:0:
462,60,26486,5,2,0:0:0:0:
426,216,26761,1,4,0:0:0:0:
309,106,27036,5,2,0:0:0:0:
488,148,27311,1,4,0:0:0:0:
372,38,27587,5,2,0:0:0:0:
219,90,27862,1,4,0:0:0:0:
340,196,28137,1,8,0:0:0:0:
280,20,28412,5,2,0:0:0:0:
249,178,28687,1,4,0:0:0:0:
401,126,28962,1,8,0:0:0:0:
219,90,29238,5,2,0:0:0:0:
340,196,29513,1,4,0:0:0:0:
372,38,29788,5,2,0:0:0:0:
249,178,30064,1,4,0:0:0:0:
125,78,30339,5,2,0:0:0:0:
249,178,30614,1,4,0:0:0:0:
100,235,30889,1,8,0:0:0:0:
67,149,31165,5,2,0:0:0:0:
215,92,31440,1,4,0:0:0:0:
190,249,31715,1,8,0:0:0:0:
125,78,31990,5,2,0:0:0:0:
249,178,32265,1,4,0:0:0:0:
100,235,32541,5,2,0:0:0:0:
215,92,32816,1,4,0:0:0:0:
34,64,33091,5,2,0:0:0:0:
17,262,33366,1,4,0:0:0:0:
197,178,33642,1,8,0:0:0:0:
128,102,33917,5,2,0:0:0:0:
2,161,34192,1,4,0:0:0:0:
116,240,34468,1,8,0:0:0:0:
34,64,34743,5,2,0:0:0:0:
17,262,35018,1,4,0:0:0:0:
197,178,35293,5,2,0:0:0:0:
2,161,35568,1,4,0:0:0:0:
128,102,35844,5,2,0:0:0:0:
298,157,36119,1,4,0:0:0:0:
168,273,36394,1,8,0:0:0:0:
230,80,36669,5,2,0:0:0:0:
265,251,36944,1,4,0:0:0:0:
97,200,37219,1,8,0:0:0:0:
298,157,37495,5,2,0:0:0:0:
168,273,37770,1,4,0:0:0:0:
128,102,38045,5,2,0:0:0:0:
265,251,38321,1,4,0:0:0:0:
325,57,38596,5,2,0:0:0:0:
197,178,38871,1,4,0:0:0:0:
365,229,39146,1,8,0:0:0:0:
225,80,39422,5,2,0:0:0:0:
266,251,39697,1,4,0:0:0:0:
394,131,39972,1,8,0:0:0:0:
197,178,40247,5,2,0:0:0:0:
365,229,40522,1,4,0:0:0:0:
225,80,40798,5,2,0:0:0:0:
266,251,41073,1,4,0:0:0:0:
115,199,41348,5,2,0:0:0:0:
283,336,41623,1,4,0:0:0:0:
228,125,41898,1,8,0:0:0:0:
149,330,42173,1,2,0:0:0:0:
331,210,42449,1,4,0:0:0:0:
115,199,42724,1,8,0:0:0:0:
283,336,42999,1,2,0:0:0:0:
149,330,43275,5,8,0:0:0:0:
149,330,43344,1,8,0:0:0:0:
149,330,43412,1,8,0:0:0:0:
149,330,43481,1,8,0:0:0:0:
149,330,43550,1,8,0:0:0:0:
149,330,44100,1,8,0:0:0:0:
336,106,44651,5,2,0:0:0:0:
385,157,44788,1,0,0:0:0:0:
435,105,44926,1,0,0:0:0:0:
387,51,45063,1,0,0:0:0:0:
336,106,45201,1,8,0:0:0:0:
266,231,45476,1,2,0:0:0:0:
316,179,45614,1,0,0:0:0:0:
265,128,45751,1,0,0:0:0:0:
215,180,45889,1,0,0:0:0:0:
266,231,46027,1,8,0:0:0:0:
133,287,46302,5,2,0:0:0:0:
42,93,46577,1,0,0:0:0:0:
72,157,46715,1,0,0:0:0:0:
102,222,46852,1,2,0:0:0:0:
112,38,47128,1,0,0:0:0:0:
153,127,47266,1,0,0:0:0:0:
195,218,47403,5,2,0:0:0:0:
244,269,47540,1,0,0:0:0:0:
295,218,47678,1,0,0:0:0:0:
246,164,47816,1,0,0:0:0:0:
195,218,47953,1,8,0:0:0:0:
70,289,48228,1,2,0:0:0:0:
119,340,48365,1,0,0:0:0:0:
170,289,48503,1,0,0:0:0:0:
121,235,48641,1,0,0:0:0:0:
70,289,48778,1,8,0:0:0:0:
123,154,49054,5,2,0:0:0:0:
314,54,49329,1,0,0:0:0:0:
252,91,49467,1,0,0:0:0:0:
189,126,49605,1,2,0:0:0:0:
370,111,49880,1,0,0:0:0:0:
283,162,50018,1,0,0:0:0:0:
195,211,50156,5,2,0:0:0:0:
252,253,50293,1,0,0:0:0:0:
186,281,50430,1,0,0:0:0:0:
244,323,50568,1,0,0:0:0:0:
252,253,50706,1,8,0:0:0:0:
119,309,50981,1,2,0:0:0:0:
62,267,51118,1,0,0:0:0:0:
128,239,51255,1,0,0:0:0:0:
70,197,51393,1,0,0:0:0:0:
62,267,51531,1,8,0:0:0:0:
151,154,51806,5,2,0:0:0:0:
198,99,51944,1,0,0:0:0:0:
225,165,52082,1,0,0:0:0:0:
272,111,52219,1,0,0:0:0:0:
298,178,52357,1,10,0:0:0:0:
345,123,52495,1,0,0:0:0:0:
370,190,52632,1,2,0:0:0:0:
414,133,52770,1,0,0:0:0:0:
438,200,52907,5,2,0:0:0:0:
393,256,53045,1,0,0:0:0:0:
464,263,53183,1,0,0:0:0:0:
422,321,53320,1,0,0:0:0:0:
393,256,53458,1,8,0:0:0:0:
262,316,53733,1,0,0:0:0:0:
220,257,53871,1,0,0:0:0:0:
191,322,54008,1,0,0:0:0:0:
150,261,54146,1,0,0:0:0:0:
220,257,54284,1,8,0:0:0:0:
51,199,54559,5,0,0:0:0:0:
17,135,54696,1,0,0:0:0:0:
89,135,54834,1,0,0:0:0:0:
51,72,54972,1,0,0:0:0:0:
122,72,55109,1,0,0:0:0:0:
128,215,55384,1,0,0:0:0:0:
173,124,55522,1,0,0:0:0:0:
226,39,55660,5,0,0:0:0:0:
246,117,55797,1,0,0:0:0:0:
307,63,55935,1,0,0:0:0:0:
226,39,56073,1,0,0:0:0:0:
246,117,56210,1,8,0:0:0:0:
370,12,56485,5,2,0:0:0:0:
389,89,56622,1,0,0:0:0:0:
450,35,56760,1,0,0:0:0:0:
370,12,56898,1,0,0:0:0:0:
389,89,57035,1,8,0:0:0:0:
263,191,57311,5,2,0:0:0:0:
373,309,57586,1,0,0:0:0:0:
300,344,57724,1,0,0:0:0:0:
218,341,57862,1,2,0:0:0:0:
383,230,58137,1,2,0:0:0:0:
291,275,58275,1,0,0:0:0:0:
187,271,58413,5,2,0:0:0:0:
125,218,58550,1,0,0:0:0:0:
201,190,58687,1,0,0:0:0:0:
187,271,58825,1,0,0:0:0:0:
125,218,58962,1,8,0:0:0:0:
280,172,59238,1,2,0:0:0:0:
218,119,59375,1,0,0:0:0:0:
294,93,59512,1,0,0:0:0:0:
280,172,59650,1,0,0:0:0:0:
218,119,59787,1,8,0:0:0:0:
56,106,60063,5,2,0:0:0:0:
158,327,60339,1,0,0:0:0:0:
123,254,60476,1,0,0:0:0:0:
88,180,60614,1,2,0:0:0:0:
198,264,60889,1,0,0:0:0:0:
163,191,61026,1,0,0:0:0:0:
128,117,61164,5,2,0:0:0:0:
168,46,61302,1,0,0:0:0:0:
207,116,61439,1,0,0:0:0:0:
247,45,61577,1,0,0:0:0:0:
206,115,61715,1,8,0:0:0:0:
367,120,61990,1,2,0:0:0:0:
327,191,62128,1,0,0:0:0:0:
288,121,62265,1,0,0:0:0:0:
248,192,62403,1,0,0:0:0:0:
289,122,62541,1,8,0:0:0:0:
129,146,62816,5,2,0:0:0:0:
135,226,62953,1,0,0:0:0:0:
58,198,63091,1,0,0:0:0:0:
52,117,63228,1,0,0:0:0:0:
118,69,63366,1,8,0:0:0:0:
18,26,63504,1,0,0:0:0:0:
118,0,63641,1,2,0:0:0:0:
228,29,63779,1,0,0:0:0:0:
322,83,63917,5,2,0:0:0:0:
359,11,64054,1,0,0:0:0:0:
398,81,64192,1,0,0:0:0:0:
437,10,64329,1,0,0:0:0:0:
398,81,64467,1,8,0:0:0:0:
324,225,64742,1,2,0:0:0:0:
361,153,64879,1,0,0:0:0:0:
400,223,65017,1,0,0:0:0:0:
443,154,65154,1,0,0:0:0:0:
400,223,65292,1,8,0:0:0:0:
257,301,65568,5,2,0:0:0:0:
221,228,65706,1,0,0:0:0:0:
176,296,65843,1,0,0:0:0:0:
139,223,65981,1,0,0:0:0:0:
95,292,66118,1,2,0:0:0:0:
314,165,66394,1,0,0:0:0:0:
184,158,66531,1,0,0:0:0:0:
57,149,66669,5,2,0:0:0:0:
52,59,66807,1,0,0:0:0:0:
107,130,66945,1,0,0:0:0:0:
21,105,67082,1,0,0:0:0:0:
106,75,67220,1,8,0:0:0:0:
277,21,67495,1,2,0:0:0:0:
282,111,67633,1,0,0:0:0:0:
227,40,67771,1,0,0:0:0:0:
313,65,67908,1,0,0:0:0:0:
228,95,68046,1,8,0:0:0:0:
326,244,68320,5,2,0:0:0:0:
79,350,68595,1,0,0:0:0:0:
161,314,68733,1,0,0:0:0:0:
245,282,68871,1,0,0:0:0:0:
33,282,69146,1,2,0:0:0:0:
133,239,69284,1,0,0:0:0:0:
235,200,69421,5,2,0:0:0:0:
229,110,69558,1,0,0:0:0:0:
286,179,69696,1,0,0:0:0:0:
200,156,69834,1,0,0:0:0:0:
284,124,69971,1,8,0:0:0:0:
449,51,70247,1,2,0:0:0:0:
455,141,70384,1,0,0:0:0:0:
398,72,70522,1,0,0:0:0:0:
484,95,70660,1,0,0:0:0:0:
400,127,70797,1,8,0:0:0:0:
232,193,71073,5,2,0:0:0:0:
149,227,71210,1,0,0:0:0:0:
152,317,71348,1,0,0:0:0:0:
242,340,71486,1,0,0:0:0:0:
289,265,71623,1,2,0:0:0:0:
465,173,71898,1,0,0:0:0:0:
383,134,72036,1,0,0:0:0:0:
300,99,72173,5,2,0:0:0:0:
210,110,72311,1,0,0:0:0:0:
120,122,72449,1,0,0:0:0:0:
31,135,72586,1,0,0:0:0:0:
96,72,72724,1,8,0:0:0:0:
141,258,72999,5,2,0:0:0:0:
231,269,73137,1,0,0:0:0:0:
321,281,73275,1,0,0:0:0:0:
410,294,73412,1,0,0:0:0:0:
330,335,73550,1,8,0:0:0:0:
167,186,73825,5,2,0:0:0:0:
428,111,74100,1,0,0:0:0:0:
341,136,74238,1,0,0:0:0:0:
254,159,74375,1,10,0:0:0:0:
318,222,74513,1,0,0:0:0:0:
232,247,74650,1,2,0:0:0:0:
301,304,74788,1,0,0:0:0:0:
215,333,74926,5,2,0:0:0:0:
147,273,75063,1,0,0:0:0:0:
79,213,75201,1,0,0:0:0:0:
11,153,75339,1,0,0:0:0:0:
99,169,75476,1,8,0:0:0:0:
297,51,75751,1,2,0:0:0:0:
365,111,75888,1,0,0:0:0:0:
433,171,76026,1,0,0:0:0:0:
501,231,76164,1,0,0:0:0:0:
413,215,76301,1,8,0:0:0:0:
221,173,76577,5,2,0:0:0:0:
4,14,76852,1,0,0:0:0:0:
76,67,76990,1,0,0:0:0:0:
152,115,77128,1,2,0:0:0:0:
3,102,77403,1,0,0:0:0:0:
75,155,77540,1,0,0:0:0:0:
151,203,77679,5,2,0:0:0:0:
61,244,77816,1,0,0:0:0:0:
50,341,77953,1,0,0:0:0:0:
136,291,78091,1,0,0:0:0:0:
224,247,78228,1,8,0:0:0:0:
394,145,78504,1,2,0:0:0:0:
484,104,78641,1,0,0:0:0:0:
495,7,78778,1,0,0:0:0:0:
409,57,78916,1,0,0:0:0:0:
321,101,79053,1,8,0:0:0:0:
130,45,79329,5,2,0:0:0:0:
34,71,79467,1,0,0:0:0:0:
12,167,79605,1,0,0:0:0:0:
104,131,79742,1,0,0:0:0:0:
198,100,79880,1,10,0:0:0:0:
186,197,80017,1,0,0:0:0:0:
80,236,80155,1,2,0:0:0:0:
209,321,80293,1,0,0:0:0:0:
352,263,80430,5,2,0:0:0:0:
430,201,80568,1,0,0:0:0:0:
499,130,80706,1,0,0:0:0:0:
407,93,80843,1,0,0:0:0:0:
329,154,80981,1,8,0:0:0:0:
160,121,81256,1,2,0:0:0:0:
82,183,81394,1,0,0:0:0:0:
13,254,81532,1,0,0:0:0:0:
105,291,81669,1,0,0:0:0:0:
181,227,81807,1,8,0:0:0:0:
298,67,82082,5,2,0:0:0:0:
396,59,82219,1,0,0:0:0:0:
452,140,82357,1,0,0:0:0:0:
353,148,82495,1,0,0:0:0:0:
254,153,82632,1,2,0:0:0:0:
460,213,82907,1,0,0:0:0:0:
361,220,83045,1,0,0:0:0:0:
262,226,83183,5,2,0:0:0:0:
169,197,83320,1,0,0:0:0:0:
109,277,83458,1,0,0:0:0:0:
166,357,83596,1,0,0:0:0:0:
262,326,83733,1,8,0:0:0:0:
242,129,84008,1,2,0:0:0:0:
335,158,84145,1,0,0:0:0:0:
395,78,84283,1,0,0:0:0:0:
338,1,84421,1,0,0:0:0:0:
242,29,84558,1,8,0:0:0:0:
185,219,84834,5,2,0:0:0:0:
92,190,84971,1,0,0:0:0:0:
37,270,85109,1,0,0:0:0:0:
89,347,85247,1,0,0:0:0:0:
185,319,85384,1,8,0:0:0:0:
279,288,85522,1,0,0:0:0:0:
286,168,85660,1,2,0:0:0:0:
355,68,85797,1,0,0:0:0:0:
377,206,85935,5,2,0:0:0:0:
351,300,86072,1,0,0:0:0:0:
435,354,86210,1,0,0:0:0:0:
508,293,86348,1,0,0:0:0:0:
473,200,86485,1,8,0:0:0:0:
201,216,86761,1,2,0:0:0:0:
227,122,86898,1,0,0:0:0:0:
143,69,87036,1,0,0:0:0:0:
70,129,87174,1,0,0:0:0:0:
105,222,87311,1,8,0:0:0:0:
432,171,87586,5,2,0:0:0:0:
458,77,87723,1,0,0:0:0:0:
374,24,87861,1,0,0:0:0:0:
301,84,87999,1,0,0:0:0:0:
336,177,88136,1,0,0:0:0:0:
186,308,88412,1,0,0:0:0:0:
86,303,88550,1,0,0:0:0:0:
32,220,88687,5,2,0:0:0:0:
39,148,88825,1,0,0:0:0:0:
110,152,88962,1,0,0:0:0:0:
110,224,89100,1,0,0:0:0:0:
32,220,89238,1,8,0:0:0:0:
79,84,89513,1,2,0:0:0:0:
86,12,89651,1,0,0:0:0:0:
157,16,89788,1,0,0:0:0:0:
157,88,89926,1,0,0:0:0:0:
79,84,90064,1,8,0:0:0:0:
275,56,90339,5,2,0:0:0:0:
346,61,90476,1,0,0:0:0:0:
418,62,90614,1,0,0:0:0:0:
489,69,90751,1,0,0:0:0:0:
487,141,90889,1,10,0:0:0:0:
482,213,91027,1,0,0:0:0:0:
487,141,91164,1,0,0:0:0:0:
415,134,91302,1,0,0:0:0:0:
409,205,91439,5,2,0:0:0:0:
337,192,91577,1,0,0:0:0:0:
319,262,91715,1,0,0:0:0:0:
389,276,91852,1,0,0:0:0:0:
409,205,91990,1,8,0:0:0:0:
265,213,92265,1,2,0:0:0:0:
193,200,92403,1,0,0:0:0:0:
175,270,92541,1,0,0:0:0:0:
245,284,92678,1,0,0:0:0:0:
265,213,92816,1,8,0:0:0:0:
204,82,93091,5,2,0:0:0:0:
276,95,93229,1,0,0:0:0:0:
294,25,93367,1,0,0:0:0:0:
224,11,93504,1,0,0:0:0:0:
204,82,93642,1,2,0:0:0:0:
60,67,93917,1,0,0:0:0:0:
131,74,94054,1,0,0:0:0:0:
126,146,94192,5,2,0:0:0:0:
53,140,94330,1,0,0:0:0:0:
43,211,94468,1,0,0:0:0:0:
114,218,94605,1,0,0:0:0:0:
126,146,94743,1,8,0:0:0:0:
259,198,95017,1,2,0:0:0:0:
186,192,95155,1,0,0:0:0:0:
176,263,95293,1,0,0:0:0:0:
247,270,95430,1,0,0:0:0:0:
259,198,95568,1,8,0:0:0:0:
359,94,95843,5,2,0:0:0:0:
354,166,95981,1,0,0:0:0:0:
349,238,96118,1,0,0:0:0:0:
421,243,96256,1,0,0:0:0:0:
349,238,96394,1,10,0:0:0:0:
344,310,96531,1,0,0:0:0:0:
417,315,96669,1,0,0:0:0:0:
490,320,96806,1,0,0:0:0:0:
493,248,96944,5,2,0:0:0:0:
496,176,97082,1,0,0:0:0:0:
424,171,97219,1,0,0:0:0:0:
421,243,97357,1,0,0:0:0:0:
493,248,97495,1,8,0:0:0:0:
469,106,97770,1,2,0:0:0:0:
472,34,97908,1,0,0:0:0:0:
400,29,98045,1,0,0:0:0:0:
397,101,98183,1,0,0:0:0:0:
469,106,98321,1,8,0:0:0:0:
232,62,98595,5,2,0:0:0:0:
229,134,98733,1,0,0:0:0:0:
301,139,98870,1,0,0:0:0:0:
304,67,99008,1,0,0:0:0:0:
232,62,99146,1,2,0:0:0:0:
88,52,99421,1,0,0:0:0:0:
85,124,99559,1,0,0:0:0:0:
157,127,99696,5,2,0:0:0:0:
118,188,99834,1,0,0:0:0:0:
191,192,99972,1,0,0:0:0:0:
151,253,100109,1,0,0:0:0:0:
191,192,100247,1,8,0:0:0:0:
293,292,100522,1,2,0:0:0:0:
332,231,100660,1,0,0:0:0:0:
259,227,100798,1,0,0:0:0:0:
299,166,100935,1,0,0:0:0:0:
259,227,101073,1,8,0:0:0:0:
393,175,101348,5,2,0:0:0:0:
432,114,101486,1,0,0:0:0:0:
359,110,101624,1,0,0:0:0:0:
399,49,101761,1,0,0:0:0:0:
359,110,101899,1,10,0:0:0:0:
326,44,102036,1,0,0:0:0:0:
286,106,102173,1,0,0:0:0:0:
252,40,102311,1,0,0:0:0:0:
212,103,102449,5,2,0:0:0:0:
173,164,102587,1,0,0:0:0:0:
246,168,102725,1,0,0:0:0:0:
206,229,102862,1,0,0:0:0:0:
246,168,103000,1,8,0:0:0:0:
102,158,103274,1,2,0:0:0:0:
141,97,103412,1,0,0:0:0:0:
68,93,103550,1,0,0:0:0:0:
108,33,103687,1,0,0:0:0:0:
68,93,103825,1,8,0:0:0:0:
251,186,104100,5,2,0:0:0:0:
290,125,104238,1,0,0:0:0:0:
217,121,104376,1,0,0:0:0:0:
257,62,104513,1,0,0:0:0:0:
217,121,104651,1,2,0:0:0:0:
362,131,104926,1,0,0:0:0:0:
435,135,105063,1,0,0:0:0:0:
395,196,105200,5,2,0:0:0:0:
356,257,105338,1,0,0:0:0:0:
429,261,105476,1,0,0:0:0:0:
389,320,105613,1,0,0:0:0:0:
429,261,105751,1,8,0:0:0:0:
285,248,106027,1,2,0:0:0:0:
324,187,106165,1,0,0:0:0:0:
251,183,106303,1,0,0:0:0:0:
291,124,106440,1,0,0:0:0:0:
251,183,106578,1,8,0:0:0:0:
147,282,106852,5,2,0:0:0:0:
188,340,106990,1,0,0:0:0:0:
218,275,107128,1,0,0:0:0:0:
259,334,107265,1,0,0:0:0:0:
218,275,107403,1,10,0:0:0:0:
289,269,107540,1,0,0:0:0:0:
249,211,107678,1,2,0:0:0:0:
319,205,107816,1,0,0:0:0:0:
279,148,107953,5,2,0:0:0:0:
206,151,108091,1,0,0:0:0:0:
239,86,108228,1,0,0:0:0:0:
167,90,108366,1,0,0:0:0:0:
239,86,108504,1,8,0:0:0:0:
380,114,108779,1,2,0:0:0:0:
453,111,108917,1,0,0:0:0:0:
420,176,109054,1,0,0:0:0:0:
492,172,109192,1,0,0:0:0:0:
420,176,109330,1,8,0:0:0:0:
299,254,109605,5,2,0:0:0:0:
89,222,109880,1,0,0:0:0:0:
159,233,110017,1,0,0:0:0:0:
229,244,110155,1,2,0:0:0:0:
103,154,110430,1,0,0:0:0:0:
173,165,110567,1,0,0:0:0:0:
243,176,110705,5,2,0:0:0:0:
258,124,110843,1,0,0:0:0:0:
280,74,110981,1,0,0:0:0:0:
316,34,111118,1,0,0:0:0:0:
367,18,111256,1,8,0:0:0:0:
371,176,111531,1,2,0:0:0:0:
356,228,111669,1,0,0:0:0:0:
334,278,111807,1,0,0:0:0:0:
298,318,111944,1,0,0:0:0:0:
247,334,112082,1,8,0:0:0:0:
104,330,112357,5,2,0:0:0:0:
111,276,112495,1,0,0:0:0:0:
149,238,112632,1,0,0:0:0:0:
198,215,112770,1,0,0:0:0:0:
233,174,112907,1,10,0:0:0:0:
205,127,113045,1,0,0:0:0:0:
151,119,113183,1,2,0:0:0:0:
108,86,113320,1,0,0:0:0:0:
115,32,113458,5,2,0:0:0:0:
159,1,113595,1,0,0:0:0:0:
212,7,113733,1,0,0:0:0:0:
237,54,113871,1,0,0:0:0:0:
228,107,114008,1,8,0:0:0:0:
413,184,114284,1,2,0:0:0:0:
369,214,114421,1,0,0:0:0:0:
316,209,114559,1,0,0:0:0:0:
291,162,114697,1,0,0:0:0:0:
300,109,114834,1,8,0:0:0:0:
204,159,115109,5,2,0:0:0:0:
160,189,115246,1,0,0:0:0:0:
107,184,115384,1,0,0:0:0:0:
82,137,115522,1,0,0:0:0:0:
91,84,115659,1,2,0:0:0:0:
34,311,115935,1,0,0:0:0:0:
87,316,116073,1,0,0:0:0:0:
131,286,116210,5,2,0:0:0:0:
184,278,116348,1,0,0:0:0:0:
233,298,116485,1,0,0:0:0:0:
276,330,116623,1,0,0:0:0:0:
328,318,116761,1,8,0:0:0:0:
437,191,117036,1,2,0:0:0:0:
384,183,117174,1,0,0:0:0:0:
335,203,117311,1,0,0:0:0:0:
292,235,117449,1,0,0:0:0:0:
240,223,117587,1,8,0:0:0:0:
134,202,117862,5,2,0:0:0:0:
131,148,117999,1,0,0:0:0:0:
143,95,118137,1,0,0:0:0:0:
176,52,118274,1,0,0:0:0:0:
228,40,118412,1,10,0:0:0:0:
281,44,118550,1,0,0:0:0:0:
329,66,118687,1,0,0:0:0:0:
351,115,118825,1,0,0:0:0:0:
359,168,118962,5,2,0:0:0:0:
234,271,119375,1,0,0:0:0:0:
223,324,119513,1,8,0:0:0:0:
126,273,119788,1,2,0:0:0:0:
52,193,120201,1,0,0:0:0:0:
106,196,120339,1,8,0:0:0:0:
85,90,120614,5,2,0:0:0:0:
190,110,120889,1,0,0:0:0:0:
244,109,121027,1,0,0:0:0:0:
296,118,121164,1,2,0:0:0:0:
181,197,121439,1,0,0:0:0:0:
235,196,121577,1,0,0:0:0:0:
286,205,121715,5,2,0:0:0:0:
409,306,121990,1,4,0:0:0:0:
260,362,122266,1,8,0:0:0:0:
376,219,122541,5,2,0:0:0:0:
350,377,122816,1,4,0:0:0:0:
227,275,123092,1,8,0:0:0:0:
409,306,123366,5,0,0:0:0:0:
260,362,123641,1,8,0:0:0:0:
260,362,123710,1,8,0:0:0:0:
260,362,123779,1,8,0:0:0:0:
260,362,123848,1,8,0:0:0:0:
260,362,123917,1,8,0:0:0:0:
260,362,124467,1,8,0:0:0:0:
