osu file format v14

[General]
AudioFilename: audio.mp3
AudioLeadIn: 0
PreviewTime: 44341
Countdown: 0
SampleSet: None
StackLeniency: 0.7
Mode: 0
LetterboxInBreaks: 0
WidescreenStoryboard: 0

[Editor]
Bookmarks: 22082,33091,44651,55660,66669,77678,88687,110706,121715
DistanceSpacing: 1.1
BeatDivisor: 2
GridSize: 8
TimelineZoom: 1.4

[Metadata]
Title:Here We Are
TitleUnicode:Here We Are
Artist:toby fox
ArtistUnicode:toby fox
Creator:Osuology
Version:Normal
Source:UNDERTALE
Tags:radiation ost soundtrack alphys true lab creepy
BeatmapID:1306744
BeatmapSetID:610604

[Difficulty]
HPDrainRate:5
CircleSize:4
OverallDifficulty:4
ApproachRate:5
SliderMultiplier:1.3
SliderTickRate:2

[Events]
//Background and Video events
0,0,"BG.png",0,0
//Break Periods
//Storyboard Layer 0 (Background)
//Storyboard Layer 1 (Fail)
//Storyboard Layer 2 (Pass)
//Storyboard Layer 3 (Foreground)
//Storyboard Sound Samples

[TimingPoints]
64,550.45871559633,5,3,1,60,1,0
22082,-100,5,3,1,75,0,0
43275,-100,5,3,3,75,0,0
43412,-100,5,3,5,75,0,0
43550,-100,5,3,1,75,0,0
44651,550.45871559633,5,3,2,87,1,1
44651,-100,5,3,2,87,0,1
66600,-100,5,3,2,87,0,0
66669,-100,5,3,2,87,0,1
88687,-100,5,3,1,75,0,0
110706,-100,5,3,1,66,0,0
123641,-100,5,3,3,66,0,0
123779,-100,5,3,5,66,0,0
123917,-100,5,3,1,66,0,0

[Colours]
Combo1 : 255,136,136
Combo2 : 191,44,0
Combo3 : 135,15,255
Combo4 : 239,188,95
Combo5 : 192,123,31
Combo6 : 181,0,181

[HitObjects]
79,115,22082,6,0,P|151:117|221:88,1,130,2|8,0:0|0:0,0:0:0:0:
260,52,22908,2,0,P|321:30|397:40,1,130,2|8,0:0|0:0,0:0:0:0:
447,70,23733,2,0,B|421:146|471:123|428:218,1,130,2|2,0:0|0:0,0:0:0:0:
394,333,24834,6,0,P|314:357|245:336,1,130,2|8,0:0|0:0,0:0:0:0:
266,276,25660,2,0,P|202:268|141:291,1,130,2|8,0:0|0:0,0:0:0:0:
108,228,26486,2,0,P|125:162|151:107,1,130,2|2,0:0|0:0,0:0:0:0:
294,83,27586,6,0,B|304:162|266:134|283:223,1,130,2|8,0:0|0:0,0:0:0:0:
352,224,28412,2,0,B|342:145|380:173|363:84,1,130,2|8,0:0|0:0,0:0:0:0:
345,27,29238,1,2,0:0:0:0:
211,76,29788,1,2,0:0:0:0:
159,210,30339,6,0,B|222:233|222:233|289:206,1,130,2|8,0:0|0:0,0:0:0:0:
348,187,31164,2,0,B|369:249|369:249|356:321,1,130,2|8,0:0|0:0,0:0:0:0:
429,310,31990,2,0,B|440:242|440:242|417:178,1,130,2|2,0:0|0:0,0:0:0:0:
386,45,33091,6,0,P|286:65|234:63,1,130,2|8,0:0|0:0,0:0:0:0:
188,48,33917,2,0,P|122:50|59:68,1,130,2|8,0:0|0:0,0:0:0:0:
21,126,34742,2,0,P|19:177|69:258,1,130,2|2,0:0|0:0,0:0:0:0:
177,318,35843,6,0,L|270:215,1,130,2|8,0:0|0:0,0:0:0:0:
334,232,36669,2,0,L|428:128,1,130,2|8,0:0|0:0,0:0:0:0:
466,79,37495,1,2,0:0:0:0:
325,54,38045,1,2,0:0:0:0:
275,188,38596,6,0,B|193:217|215:185|148:200,1,130,2|8,0:0|0:0,0:0:0:0:
120,133,39421,2,0,B|198:106|211:145|248:121,1,130,2|8,0:0|0:0,0:0:0:0:
298,69,40247,1,2,0:0:0:0:
439,47,40797,1,2,0:0:0:0:
477,184,41348,6,0,B|414:199|414:199|337:184,1,130,2|8,0:0|0:0,0:0:0:0:
283,214,42174,2,0,B|270:277|270:277|284:340,1,130,2|8,0:0|0:0,0:0:0:0:
212,338,42999,1,2,0:0:0:0:
142,320,43275,2,0,L|124:292,2,32.5,8|8|8,0:0|0:0|0:0,0:0:0:0:
62,193,44100,1,8,0:0:0:0:
201,162,44651,6,0,P|230:175|262:183,1,65,2|0,0:0|0:0,0:0:0:0:
329,158,45201,1,8,0:0:0:0:
398,139,45476,2,0,P|429:146|459:160,1,65,2|0,0:0|0:0,0:0:0:0:
509,211,46027,1,8,0:0:0:0:
483,277,46302,1,2,0:0:0:0:
457,343,46577,1,0,0:0:0:0:
412,287,46852,1,2,0:0:0:0:
367,231,47128,1,0,0:0:0:0:
337,296,47403,6,0,P|280:322|253:325,1,65,2|0,0:0|0:0,0:0:0:0:
230,268,47953,2,0,P|287:242|314:239,1,65,8|2,0:0|0:0,0:0:0:0:
318,176,48504,2,0,P|292:119|289:92,1,65,0|0,0:0|0:0,0:0:0:0:
346,69,49054,2,0,P|372:126|375:153,2,65,2|0|2,0:0|0:0|0:0,0:0:0:0:
276,52,49880,1,0,0:0:0:0:
206,68,50155,5,2,0:0:0:0:
136,83,50430,1,0,0:0:0:0:
183,136,50706,1,8,0:0:0:0:
113,153,50981,1,2,0:0:0:0:
158,208,51256,2,0,P|183:227|212:258,1,65,0|8,0:0|0:0,0:0:0:0:
169,312,51806,2,0,P|191:335|217:355,1,65,2|0,0:0|0:0,0:0:0:0:
288,350,52357,1,10,0:0:0:0:
321,287,52632,1,2,0:0:0:0:
351,222,52907,6,0,P|352:178|338:145,1,65,2|0,0:0|0:0,0:0:0:0:
278,133,53458,2,0,P|277:89|291:56,1,65,8|0,0:0|0:0,0:0:0:0:
232,18,54008,2,0,P|200:9|168:12,1,65,0|8,0:0|0:0,0:0:0:0:
143,81,54559,2,0,P|111:89|79:86,1,65,0|0,0:0|0:0,0:0:0:0:
19,48,55109,1,0,0:0:0:0:
16,119,55384,1,0,0:0:0:0:
60,175,55660,5,0,0:0:0:0:
128,194,55935,1,0,0:0:0:0:
78,245,56210,1,8,0:0:0:0:
147,263,56485,1,2,0:0:0:0:
195,209,56761,2,0,P|216:245|215:286,1,65
289,270,57311,2,0,P|294:238|313:212,1,65,2|0,0:0|0:0,0:0:0:0:
386,210,57862,2,0,P|379:242|361:269,1,65,2|2,0:0|0:0,0:0:0:0:
323,329,58412,6,0,P|252:354|240:351,1,65,2|0,0:0|0:0,0:0:0:0:
235,290,58962,2,0,P|203:296|177:316,1,65,8|2,0:0|0:0,0:0:0:0:
105,320,59513,2,0,P|98:288|78:262,1,65,0|0,0:0|0:0,0:0:0:0:
52,193,60063,1,2,0:0:0:0:
123,196,60338,1,0,0:0:0:0:
125,124,60613,1,2,0:0:0:0:
53,118,60889,1,0,0:0:0:0:
58,46,61164,6,0,P|131:26|192:50,1,130,2|8,0:0|0:0,0:0:0:0:
221,100,61990,2,0,P|283:114|342:89,1,130,2|8,0:0|0:0,0:0:0:0:
411,70,62816,2,0,P|429:104|433:129,1,65,2|0,0:0|0:0,0:0:0:0:
429,201,63366,1,8,0:0:0:0:
406,268,63641,1,2,0:0:0:0:
354,318,63917,6,0,P|309:330|290:324,1,65,2|0,0:0|0:0,0:0:0:0:
254,264,64467,2,0,P|299:252|318:258,1,65,8|2,0:0|0:0,0:0:0:0:
344,191,65017,2,0,P|345:146|310:120,1,65,0|8,0:0|0:0,0:0:0:0:
288,75,65568,1,2,0:0:0:0:
239,22,65843,1,0,0:0:0:0:
222,91,66118,1,2,0:0:0:0:
169,41,66394,1,0,0:0:0:0:
156,111,66669,6,0,P|149:164|157:194,2,65,2|0|8,0:0|0:0|0:0,0:0:0:0:
218,146,67495,2,0,P|224:198|204:234,2,65,2|0|8,0:0|0:0|0:0,0:0:0:0:
287,130,68320,2,0,P|321:174|336:178,1,65,2|0,0:0|0:0,0:0:0:0:
396,157,68871,2,0,P|362:113|347:109,1,65,0|2,0:0|0:0,0:0:0:0:
306,58,69421,5,2,0:0:0:0:
245,20,69696,1,0,0:0:0:0:
245,91,69972,1,8,0:0:0:0:
182,57,70247,1,2,0:0:0:0:
185,128,70522,2,0,P|160:130|121:100,1,65,0|8,0:0|0:0,0:0:0:0:
52,102,71073,1,2,0:0:0:0:
85,164,71348,1,0,0:0:0:0:
13,166,71623,1,2,0:0:0:0:
49,227,71898,1,0,0:0:0:0:
120,229,72173,6,0,P|159:250|199:256,1,65,2|0,0:0|0:0,0:0:0:0:
250,258,72724,1,8,0:0:0:0:
315,230,72999,2,0,P|347:227|374:210,2,65,2|0|8,0:0|0:0|0:0,0:0:0:0:
258,185,73825,2,0,P|241:157|238:125,2,65,2|0|10,0:0|0:0|0:0,0:0:0:0:
324,158,74650,1,2,0:0:0:0:
351,91,74926,6,0,P|383:70|433:77,1,65,2|0,0:0|0:0,0:0:0:0:
461,116,75476,2,0,P|435:135|403:139,1,65,8|2,0:0|0:0,0:0:0:0:
419,209,76027,2,0,P|437:234|441:266,1,65,0|0,0:0|0:0,0:0:0:0:
392,317,76577,2,0,P|373:291|369:259,1,65,2|0,0:0|0:0,0:0:0:0:
299,240,77128,1,2,0:0:0:0:
240,281,77403,1,0,0:0:0:0:
170,263,77678,6,0,P|130:240|104:240,1,65,2|0,0:0|0:0,0:0:0:0:
48,207,78228,1,8,0:0:0:0:
106,164,78504,2,0,P|146:141|172:141,1,65,2|0,0:0|0:0,0:0:0:0:
227,106,79054,1,8,0:0:0:0:
167,66,79329,2,0,P|127:43|101:43,1,65,2|0,0:0|0:0,0:0:0:0:
74,104,79880,2,0,P|42:109|16:128,1,65,10|2,0:0|0:0,0:0:0:0:
20,199,80430,5,2,0:0:0:0:
74,245,80706,1,0,0:0:0:0:
131,202,80981,1,8,0:0:0:0:
180,253,81256,1,2,0:0:0:0:
226,198,81531,2,0,P|244:214|252:263,1,65,0|8,0:0|0:0,0:0:0:0:
324,266,82082,2,0,P|329:234|352:211,2,65,2|0|2,0:0|0:0|0:0,0:0:0:0:
304,334,82907,1,0,0:0:0:0:
232,334,83183,5,2,0:0:0:0:
160,328,83458,1,0,0:0:0:0:
100,288,83733,1,8,0:0:0:0:
162,253,84008,1,2,0:0:0:0:
102,213,84284,1,0,0:0:0:0:
62,153,84559,1,8,0:0:0:0:
133,148,84834,2,0,P|163:170|175:204,1,65,2|0,0:0|0:0,0:0:0:0:
244,211,85384,1,8,0:0:0:0:
306,176,85660,1,2,0:0:0:0:
355,124,85935,5,2,0:0:0:0:
416,161,86210,1,0,0:0:0:0:
438,228,86485,1,8,0:0:0:0:
366,219,86761,1,2,0:0:0:0:
361,290,87036,1,0,0:0:0:0:
322,350,87311,1,8,0:0:0:0:
287,287,87586,2,0,P|276:229|265:216,1,65,2|0,0:0|0:0,0:0:0:0:
223,174,88137,1,0,0:0:0:0:
155,149,88412,1,0,0:0:0:0:
83,141,88687,6,0,B|53:225|116:198|87:293,1,130,2|8,0:0|0:0,0:0:0:0:
165,273,89513,2,0,B|166:251|174:218|167:193|129:189|155:148,1,130,2|8,0:0|0:0,0:0:0:0:
151,77,90339,2,0,P|212:85|234:83,1,65,2|0,0:0|0:0,0:0:0:0:
281,58,90889,1,10,0:0:0:0:
332,107,91164,1,0,0:0:0:0:
380,159,91439,6,0,L|487:258,1,130,2|8,0:0|0:0,0:0:0:0:
435,306,92265,2,0,L|328:207,1,130,2|8,0:0|0:0,0:0:0:0:
284,263,93091,2,0,L|391:362,1,130,2|2,0:0|0:0,0:0:0:0:
236,339,94192,6,0,P|207:295|115:272,1,130,2|8,0:0|0:0,0:0:0:0:
138,197,95017,2,0,P|199:178|237:127,1,130,2|8,0:0|0:0,0:0:0:0:
258,58,95843,2,0,P|303:45|400:93,1,130,2|10,0:0|0:0,0:0:0:0:
429,122,96669,1,0,0:0:0:0:
452,189,96944,6,0,B|464:222|464:222|476:267,2,65,2|0|8,0:0|0:0|0:0,0:0:0:0:
393,230,97770,2,0,B|400:269|400:269|412:312,2,65,2|0|8,0:0|0:0|0:0,0:0:0:0:
351,171,98595,2,0,L|282:177,1,65,2|0,0:0|0:0,0:0:0:0:
215,185,99146,2,0,L|146:191,1,65,2|0,0:0|0:0,0:0:0:0:
78,188,99696,6,0,P|82:146|145:70,1,130,2|8,0:0|0:0,0:0:0:0:
169,15,100522,2,0,P|212:32|294:8,1,130,2|8,0:0|0:0,0:0:0:0:
352,47,101348,2,0,P|394:94|406:158,1,130,2|10,0:0|0:0,0:0:0:0:
394,228,102173,1,0,0:0:0:0:
331,263,102449,6,0,B|290:231|232:293|182:253,1,130,2|8,0:0|0:0,0:0:0:0:
157,210,103274,2,0,B|129:238|71:176|30:208,1,130,2|8,0:0|0:0,0:0:0:0:
26,134,104100,2,0,B|31:71|53:88|53:4,1,130,2|2,0:0|0:0,0:0:0:0:
194,26,105201,6,0,B|240:49|240:49|248:139,1,130,2|8,0:0|0:0,0:0:0:0:
227,196,106027,2,0,B|181:173|181:173|173:83,1,130,2|8,0:0|0:0,0:0:0:0:
112,59,106852,1,2,0:0:0:0:
76,197,107403,2,0,L|93:264,1,65,10|2,0:0|0:0,0:0:0:0:
129,320,107953,6,0,P|177:317|258:288,1,130,2|8,0:0|0:0,0:0:0:0:
325,290,108779,2,0,P|385:313|449:319,1,130,2|8,0:0|0:0,0:0:0:0:
475,252,109605,2,0,P|469:209|475:173,1,65,2|0,0:0|0:0,0:0:0:0:
472,116,110155,2,0,P|474:83|468:51,1,65,2|0,0:0|0:0,0:0:0:0:
404,18,110706,6,0,B|329:56|352:4|259:47,1,130,2|8,0:0|0:0,0:0:0:0:
280,110,111531,2,0,B|355:72|332:124|425:81,1,130,2|8,0:0|0:0,0:0:0:0:
416,160,112357,1,2,0:0:0:0:
303,248,112907,2,0,P|261:258|240:252,1,65,10|2,0:0|0:0,0:0:0:0:
177,219,113458,6,0,B|162:174|162:174|81:133,1,130,2|8,0:0|0:0,0:0:0:0:
17,145,114284,2,0,B|32:190|32:190|113:231,1,130,2|8,0:0|0:0,0:0:0:0:
150,283,115109,1,2,0:0:0:0:
289,313,115660,1,2,0:0:0:0:
429,340,116210,6,0,L|449:191,1,130,2|8,0:0|0:0,0:0:0:0:
381,181,117036,2,0,L|361:330,1,130,2|8,0:0|0:0,0:0:0:0:
289,313,117862,1,2,0:0:0:0:
232,181,118412,2,0,L|202:120,1,65,10|0,0:0|0:0,0:0:0:0:
175,56,118962,6,0,P|213:50|278:116,1,130,2|8,0:0|0:0,0:0:0:0:
281,178,119788,2,0,P|319:227|382:228,1,130,2|8,0:0|0:0,0:0:0:0:
438,183,120614,2,0,P|412:163|380:158,1,65,2|0,0:0|0:0,0:0:0:0:
353,92,121164,2,0,P|327:72|295:67,1,65,2|0,0:0|0:0,0:0:0:0:
226,48,121715,6,0,L|89:90,1,130,2|8,0:0|0:0,0:0:0:0:
93,15,122540,2,0,L|-4:119,1,130,2|8,0:0|0:0,0:0:0:0:
32,176,123366,1,0,0:0:0:0:
91,215,123641,2,0,L|113:257,2,32.5,8|8|8,0:0|0:0|0:0,0:0:0:0:
231,188,124467,1,8,0:0:0:0:
