osu file format v14

[General]
AudioFilename: audio.mp3
AudioLeadIn: 0
PreviewTime: 44341
Countdown: 0
SampleSet: None
StackLeniency: 0.7
Mode: 0
LetterboxInBreaks: 0
WidescreenStoryboard: 0

[Editor]
Bookmarks: 22082,33091,44651,55660,66669,77678,88687,110706,121715
DistanceSpacing: 0.8
BeatDivisor: 2
GridSize: 8
TimelineZoom: 1.4

[Metadata]
Title:Here We Are
TitleUnicode:Here We Are
Artist:toby fox
ArtistUnicode:toby fox
Creator:Osuology
Version:Easy
Source:UNDERTALE
Tags:radiation ost soundtrack alphys true lab creepy
BeatmapID:1295819
BeatmapSetID:610604

[Difficulty]
HPDrainRate:3
CircleSize:3
OverallDifficulty:3
ApproachRate:4
SliderMultiplier:1.1
SliderTickRate:2

[Events]
//Background and Video events
0,0,"BG.png",0,0
//Break Periods
//Storyboard Layer 0 (Background)
//Storyboard Layer 1 (Fail)
//Storyboard Layer 2 (Pass)
//Storyboard Layer 3 (Foreground)
//Storyboard Sound Samples

[TimingPoints]
64,550.45871559633,5,3,1,75,1,0
22082,-100,5,3,1,75,0,0
43275,-100,5,3,3,75,0,0
43550,-100,5,3,1,75,0,0
44651,550.45871559633,5,3,2,87,1,1
44651,-100,5,3,2,87,0,1
66600,-100,5,3,2,87,0,0
66669,-100,5,3,2,87,0,1
88687,-100,5,3,1,75,0,0
110706,-100,5,3,1,66,0,0
123641,-100,5,3,3,66,0,0
123917,-100,5,3,1,66,0,0

[Colours]
Combo1 : 255,136,136
Combo2 : 191,44,0
Combo3 : 135,15,255
Combo4 : 239,188,95
Combo5 : 192,123,31
Combo6 : 181,0,181

[HitObjects]
256,192,22082,6,0,P|192:104|141:84,2,165,2|2|2,0:0|0:0|0:0,0:0:0:0:
333,221,24284,1,2,0:0:0:0:
412,190,24834,2,0,P|346:306|257:187,1,330,2|2,0:0|0:0,0:0:0:0:
234,105,27036,1,2,0:0:0:0:
209,19,27587,6,0,B|113:61|113:61|94:118,2,165,2|2|0,0:0|0:0|0:0,0:0:0:0:
288,57,29788,1,0,0:0:0:0:
254,139,30339,2,0,L|247:304,2,165,2|2|2,0:0|0:0|0:0,0:0:0:0:
319,79,32541,1,2,0:0:0:0:
357,0,33091,6,0,P|400:46|376:145,2,165,2|2|0,0:0|0:0|0:0,0:0:0:0:
270,15,35293,1,0,0:0:0:0:
181,11,35844,2,0,P|126:72|98:149,1,165,2|2,0:0|0:0,0:0:0:0:
119,279,37495,2,0,P|146:231|185:193,1,110,2|2,0:0|0:0,0:0:0:0:
268,161,38596,6,0,L|170:11,2,165,2|2|2,0:0|0:0|0:0,0:0:0:0:
308,239,40798,1,2,0:0:0:0:
392,215,41348,2,0,P|384:287|269:319,2,165,2|2|2,0:0|0:0|0:0,0:0:0:0:
433,200,43275,2,8,L|438:126,1,55
352,121,44100,1,8,0:0:0:0:
267,155,44651,6,0,P|243:65|176:22,2,165,2|2|2,0:0|0:0|0:0,0:0:0:0:
236,186,46577,2,0,L|227:281,2,55,0|2|0,0:0|0:0|0:0,0:0:0:0:
207,152,47403,6,0,B|88:170|88:170|52:225,2,165,2|2|2,0:0|0:0|0:0,0:0:0:0:
282,106,49605,2,0,L|336:136,1,55,2|0,0:0|0:0,0:0:0:0:
357,167,50155,6,0,P|346:255|325:336,2,165,2|2|2,0:0|0:0|0:0,0:0:0:0:
381,130,52082,2,0,L|415:82,2,55,0|10|2,0:0|0:0|0:0,0:0:0:0:
404,167,52907,6,0,P|442:238|495:328,2,165,2|0|0,0:0|0:0|0:0,0:0:0:0:
316,158,55109,2,0,L|234:169,1,55,0|0,0:0|0:0,0:0:0:0:
217,170,55660,6,0,P|162:122|60:175,1,165,0|2,0:0|0:0,0:0:0:0:
107,273,57311,2,0,L|176:287,1,55,2|0,0:0|0:0,0:0:0:0:
205,280,57862,2,0,L|265:293,1,55,2|2,0:0|0:0,0:0:0:0:
302,297,58412,6,0,P|298:163|301:97,2,165,2|2|2,0:0|0:0|0:0,0:0:0:0:
384,326,60614,1,2,0:0:0:0:
438,257,61164,6,0,B|392:203|390:135|390:135|424:122|449:115,2,165,2|2|2,0:0|0:0|0:0,0:0:0:0:
490,327,63366,2,0,L|426:349,1,55,8|2,0:0|0:0,0:0:0:0:
393,344,63917,6,0,B|336:340|309:313|309:313|281:285|190:288,2,165,2|2|2,0:0|0:0|0:0,0:0:0:0:
444,272,66118,1,2,0:0:0:0:
412,189,66669,6,0,B|392:107|392:107|356:70|298:103,1,165,2|2,0:0|0:0,0:0:0:0:
185,94,68320,2,0,L|204:161,1,55,2|0,0:0|0:0,0:0:0:0:
239,165,68871,2,0,L|258:232,1,55,8|2,0:0|0:0,0:0:0:0:
259,261,69421,6,0,P|208:305|124:252,1,165,2|2,0:0|0:0,0:0:0:0:
75,196,70797,1,8,0:0:0:0:
56,155,71073,2,0,L|71:84,1,55,2|0,0:0|0:0,0:0:0:0:
23,103,71623,2,0,L|38:32,1,55,2|0,0:0|0:0,0:0:0:0:
40,5,72173,6,0,B|130:25|163:24|163:24|146:68,2,165,2|2|2,0:0|0:0|0:0,0:0:0:0:
59,90,74375,2,0,L|78:172,1,55,10|2,0:0|0:0,0:0:0:0:
87,184,74926,6,0,B|154:209|200:162|200:162|221:190|215:216,1,165,2|2,0:0|0:0,0:0:0:0:
192,237,76027,2,0,B|258:251,2,55,0|0|2,0:0|0:0|0:0,0:0:0:0:
151,253,76852,2,0,L|123:324,1,55,0|2,0:0|0:0,0:0:0:0:
160,336,77403,1,0,0:0:0:0:
203,344,77678,6,0,P|290:332|384:290,2,165,2|2|2,0:0|0:0|0:0,0:0:0:0:
140,281,79880,1,10,0:0:0:0:
115,196,80430,6,0,B|162:165|176:100|176:100|219:136,2,165,2|2|2,0:0|0:0|0:0,0:0:0:0:
42,246,82632,2,0,L|100:292,1,55,2|0,0:0|0:0,0:0:0:0:
122,302,83183,6,0,B|200:295|240:285|240:285|302:295,1,165,2|2,0:0|0:0,0:0:0:0:
191,198,84834,2,0,B|186:150|169:113|169:113|175:81,1,110,2|8,0:0|0:0,0:0:0:0:
190,50,85660,1,2,0:0:0:0:
233,44,85935,6,0,B|309:79|309:79|427:123,2,165,2|2|2,0:0|0:0|0:0,0:0:0:0:
227,131,88137,1,0,0:0:0:0:
140,116,88687,6,0,B|174:203|148:288|110:244,2,165,2|2|2,0:0|0:0|0:0,0:0:0:0:
51,114,90889,1,10,0:0:0:0:
45,202,91439,2,0,P|32:264|119:365,2,165,2|2|2,0:0|0:0|0:0,0:0:0:0:
109,141,93641,1,2,0:0:0:0:
170,204,94192,6,0,B|217:188|263:274|263:274|309:236,2,165,2|2|2,0:0|0:0|0:0,0:0:0:0:
83,221,96394,2,0,L|58:171,1,55,10|0,0:0|0:0,0:0:0:0:
53,128,96944,6,0,P|109:103|211:96,2,165,2|2|2,0:0|0:0|0:0,0:0:0:0:
15,150,98871,2,0,L|48:225,2,55,0|2|0,0:0|0:0|0:0,0:0:0:0:
8,106,99696,6,0,B|4:2|4:2|107:9,2,165,2|2|2,0:0|0:0|0:0,0:0:0:0:
65,172,101898,2,0,L|117:216,1,55,10|0,0:0|0:0,0:0:0:0:
141,235,102449,6,0,B|155:314|155:314|179:329|237:315|244:284|244:284,2,165,2|2|2,0:0|0:0|0:0,0:0:0:0:
204,174,104650,1,2,0:0:0:0:
271,117,105201,6,0,P|330:133|388:56,2,165,2|2|2,0:0|0:0|0:0,0:0:0:0:
195,72,107403,2,0,L|131:85,1,55,10|2,0:0|0:0,0:0:0:0:
97,91,107953,6,0,P|102:200|84:274,2,165,2|2|2,0:0|0:0|0:0,0:0:0:0:
128,60,109880,2,0,L|200:61,2,55,0|2|0,0:0|0:0|0:0,0:0:0:0:
86,44,110706,6,0,B|14:64|14:64|3:192,2,165,2|2|2,0:0|0:0|0:0,0:0:0:0:
164,84,112907,1,10,0:0:0:0:
248,108,113458,2,0,B|308:104|308:104|271:164|288:237,2,165,2|2|2,0:0|0:0|0:0,0:0:0:0:
164,84,115660,2,0,L|113:140,1,55,2|0,0:0|0:0,0:0:0:0:
93,152,116210,6,0,P|139:260|150:313,2,165,2|2|2,0:0|0:0|0:0,0:0:0:0:
49,147,118137,1,0,0:0:0:0:
34,188,118412,2,0,L|28:253,1,55,10|0,0:0|0:0,0:0:0:0:
37,285,118962,6,0,B|48:368|48:368|109:349|169:340,1,165,2|2,0:0|0:0,0:0:0:0:
187,283,120339,1,8,0:0:0:0:
229,295,120614,2,0,L|356:297,1,110,2|2,0:0|0:0,0:0:0:0:
353,209,121715,6,0,L|270:98,1,110,2|8,0:0|0:0,0:0:0:0:
272,162,122540,2,0,L|164:117,1,110,2|8,0:0|0:0,0:0:0:0:
134,144,123366,1,0,0:0:0:0:
99,171,123641,2,0,L|13:223,1,55,8|8,0:0|0:0,0:0:0:0:
101,271,124467,1,8,0:0:0:0:
