osu file format v14

[General]
AudioFilename: audio.mp3
AudioLeadIn: 0
PreviewTime: 10553
Countdown: 0
SampleSet: Soft
StackLeniency: 0.7
Mode: 3
LetterboxInBreaks: 0
SpecialStyle: 0
WidescreenStoryboard: 0

[Editor]
Bookmarks: 14194
DistanceSpacing: 1.2
BeatDivisor: 8
GridSize: 32
TimelineZoom: 1.7

[Metadata]
Title:Heartache
TitleUnicode:Heartache
Artist:toby fox
ArtistUnicode:toby fox
Creator:silentch
Version:Hyper
Source:Undertale
Tags:
BeatmapID:1303657
BeatmapSetID:617983

[Difficulty]
HPDrainRate:7
CircleSize:7
OverallDifficulty:7
ApproachRate:5
SliderMultiplier:1.4
SliderTickRate:1

[Events]
//Background and Video events
0,0,"bg.png",0,0
//Break Periods
//Storyboard Layer 0 (Background)
//Storyboard Layer 1 (Fail)
//Storyboard Layer 2 (Pass)
//Storyboard Layer 3 (Foreground)
//Storyboard Sound Samples

[TimingPoints]
10,502.092050209205,4,2,1,60,1,0
12060,-100,4,2,1,60,0,1
18085,-100,4,2,1,60,0,0
30135,-100,4,2,1,60,0,1
51223,-100,4,2,1,60,0,0
87374,-100,4,2,1,60,0,1
108210,-100,4,2,1,60,0,0

[HitObjects]
109,192,10,5,0,0:0:0:0:
475,192,10,1,0,0:0:0:0:
329,192,135,1,0,0:0:0:0:
256,192,261,1,0,0:0:0:0:
402,192,386,1,0,0:0:0:0:
109,192,512,1,0,0:0:0:0:
402,192,763,1,0,0:0:0:0:
36,192,763,1,0,0:0:0:0:
182,192,888,1,0,0:0:0:0:
329,192,1014,1,0,0:0:0:0:
109,192,1139,1,0,0:0:0:0:
256,192,1265,1,0,0:0:0:0:
475,192,1516,1,0,0:0:0:0:
109,192,1516,1,0,0:0:0:0:
329,192,1641,1,0,0:0:0:0:
256,192,1767,1,0,0:0:0:0:
402,192,1892,1,0,0:0:0:0:
182,192,2018,1,0,0:0:0:0:
109,192,2269,1,0,0:0:0:0:
475,192,2269,1,0,0:0:0:0:
329,192,2394,1,0,0:0:0:0:
256,192,2520,1,0,0:0:0:0:
402,192,2645,1,0,0:0:0:0:
36,192,2771,1,0,0:0:0:0:
402,192,3022,1,0,0:0:0:0:
109,192,3022,1,0,0:0:0:0:
256,192,3148,1,0,0:0:0:0:
402,192,3273,1,0,0:0:0:0:
329,192,3399,1,0,0:0:0:0:
109,192,3524,1,0,0:0:0:0:
475,192,3775,1,0,0:0:0:0:
36,192,3775,1,0,0:0:0:0:
329,192,3901,1,0,0:0:0:0:
256,192,4026,1,0,0:0:0:0:
402,192,4152,1,0,0:0:0:0:
182,192,4277,1,0,0:0:0:0:
36,192,4277,1,0,0:0:0:0:
475,192,4528,1,0,0:0:0:0:
109,192,4528,1,0,0:0:0:0:
402,192,4779,1,0,0:0:0:0:
36,192,4779,1,0,0:0:0:0:
329,192,5030,1,0,0:0:0:0:
182,192,5030,1,0,0:0:0:0:
256,192,5281,1,0,0:0:0:0:
109,192,5281,1,0,0:0:0:0:
329,192,5407,1,0,0:0:0:0:
402,192,5533,1,0,0:0:0:0:
36,192,5533,1,0,0:0:0:0:
182,192,5658,1,0,0:0:0:0:
329,192,5784,1,0,0:0:0:0:
109,192,5784,1,0,0:0:0:0:
402,192,5909,1,0,0:0:0:0:
475,192,6035,1,4,0:0:0:0:
36,192,6035,1,0,0:0:0:0:
256,192,6160,1,0,0:0:0:0:
36,192,6286,1,0,0:0:0:0:
475,192,6286,1,0,0:0:0:0:
402,192,6411,1,4,0:0:0:0:
182,192,6411,1,0,0:0:0:0:
329,192,6537,1,0,0:0:0:0:
36,192,6662,1,4,0:0:0:0:
109,192,6725,1,4,0:0:0:0:
475,192,6788,1,4,0:0:0:0:
182,192,6788,1,0,0:0:0:0:
329,192,6913,1,0,0:0:0:0:
182,192,7039,1,0,0:0:0:0:
402,192,7164,1,4,0:0:0:0:
36,192,7164,1,0,0:0:0:0:
329,192,7290,1,4,0:0:0:0:
475,192,7290,1,0,0:0:0:0:
109,192,7415,1,4,0:0:0:0:
475,192,7541,1,4,0:0:0:0:
256,192,7541,1,0,0:0:0:0:
402,192,7666,1,0,0:0:0:0:
182,192,7792,1,4,0:0:0:0:
329,192,7792,1,0,0:0:0:0:
36,192,7917,1,0,0:0:0:0:
182,192,8043,1,0,0:0:0:0:
475,192,8043,1,0,0:0:0:0:
109,192,8294,1,4,0:0:0:0:
402,192,8294,1,0,0:0:0:0:
256,192,8420,1,0,0:0:0:0:
36,192,8545,1,0,0:0:0:0:
182,192,8671,1,4,0:0:0:0:
402,192,8671,1,0,0:0:0:0:
36,192,8796,1,0,0:0:0:0:
475,192,8922,1,4,0:0:0:0:
402,192,8984,1,4,0:0:0:0:
182,192,9047,1,4,0:0:0:0:
329,192,9047,1,0,0:0:0:0:
109,192,9173,1,0,0:0:0:0:
36,192,9298,1,4,0:0:0:0:
256,192,9298,1,0,0:0:0:0:
329,192,9424,1,4,0:0:0:0:
109,192,9424,1,0,0:0:0:0:
182,192,9549,1,0,0:0:0:0:
402,192,9549,1,0,0:0:0:0:
256,192,9675,1,4,0:0:0:0:
475,192,9675,1,0,0:0:0:0:
329,192,9800,1,4,0:0:0:0:
36,192,9800,1,0,0:0:0:0:
182,192,9926,1,0,0:0:0:0:
329,192,10051,1,4,0:0:0:0:
475,192,10051,1,0,0:0:0:0:
109,192,10177,1,0,0:0:0:0:
256,192,10177,1,0,0:0:0:0:
402,192,10302,1,4,0:0:0:0:
475,192,10302,1,0,0:0:0:0:
182,192,10553,128,0,10804:0:0:0:0:
109,192,10804,128,0,11056:0:0:0:0:
36,192,11056,128,0,11307:0:0:0:0:
402,192,11307,128,0,11432:0:0:0:0:
109,192,11432,128,0,11558:0:0:0:0:
256,192,11558,128,0,11809:0:0:0:0:
182,192,11809,128,0,12060:0:0:0:0:
36,192,12060,1,8,0:0:0:0:
402,192,12060,1,0,0:0:0:0:
475,192,12060,1,0,0:0:0:0:
329,192,12185,1,0,0:0:0:0:
475,192,12311,1,0,0:0:0:0:
182,192,12436,1,2,0:0:0:0:
36,192,12436,1,0,0:0:0:0:
329,192,12562,1,0,0:0:0:0:
109,192,12687,1,0,0:0:0:0:
182,192,12687,1,0,0:0:0:0:
402,192,12813,1,4,0:0:0:0:
36,192,12938,1,0,0:0:0:0:
256,192,13064,1,2,0:0:0:0:
329,192,13064,1,0,0:0:0:0:
36,192,13189,1,4,0:0:0:0:
475,192,13315,1,2,0:0:0:0:
182,192,13315,1,0,0:0:0:0:
329,192,13440,1,4,0:0:0:0:
402,192,13566,1,8,0:0:0:0:
475,192,13566,1,0,0:0:0:0:
109,192,13692,1,0,0:0:0:0:
329,192,13817,1,4,0:0:0:0:
256,192,13943,1,2,0:0:0:0:
109,192,13943,1,0,0:0:0:0:
36,192,14068,1,0,0:0:0:0:
182,192,14194,1,4,0:0:0:0:
475,192,14194,1,0,0:0:0:0:
402,192,14319,1,4,0:0:0:0:
109,192,14319,1,0,0:0:0:0:
109,192,14445,1,0,0:0:0:0:
329,192,14445,1,0,0:0:0:0:
402,192,14570,1,2,0:0:0:0:
182,192,14570,1,0,0:0:0:0:
36,192,14696,1,4,0:0:0:0:
182,192,14821,1,2,0:0:0:0:
329,192,14821,1,0,0:0:0:0:
475,192,14947,1,4,0:0:0:0:
182,192,15072,1,8,0:0:0:0:
36,192,15072,1,0,0:0:0:0:
329,192,15198,1,0,0:0:0:0:
475,192,15323,1,0,0:0:0:0:
109,192,15449,1,2,0:0:0:0:
402,192,15449,1,0,0:0:0:0:
256,192,15574,1,0,0:0:0:0:
402,192,15700,1,0,0:0:0:0:
256,192,15825,1,4,0:0:0:0:
109,192,15825,1,0,0:0:0:0:
475,192,15951,1,0,0:0:0:0:
182,192,16076,1,2,0:0:0:0:
36,192,16076,1,0,0:0:0:0:
402,192,16202,1,4,0:0:0:0:
475,192,16327,1,2,0:0:0:0:
109,192,16327,1,0,0:0:0:0:
256,192,16453,1,0,0:0:0:0:
109,192,16579,1,4,0:0:0:0:
402,192,16579,1,4,0:0:0:0:
329,192,16704,1,0,0:0:0:0:
182,192,16767,1,0,0:0:0:0:
36,192,16830,1,0,0:0:0:0:
256,192,16955,1,2,0:0:0:0:
475,192,16955,1,0,0:0:0:0:
402,192,16955,1,0,0:0:0:0:
182,192,17081,1,4,0:0:0:0:
36,192,17206,1,0,0:0:0:0:
109,192,17206,1,0,0:0:0:0:
402,192,17332,1,2,0:0:0:0:
182,192,17332,1,0,0:0:0:0:
475,192,17332,1,0,0:0:0:0:
109,192,17457,1,0,0:0:0:0:
329,192,17583,1,2,0:0:0:0:
402,192,17583,1,0,0:0:0:0:
109,192,17708,1,4,0:0:0:0:
182,192,17708,1,0,0:0:0:0:
36,192,17834,1,0,0:0:0:0:
475,192,17834,1,0,0:0:0:0:
402,192,17897,1,0,0:0:0:0:
329,192,17959,1,0,0:0:0:0:
36,192,18085,1,4,0:0:0:0:
402,192,18085,1,0,0:0:0:0:
182,192,18210,1,0,0:0:0:0:
402,192,18336,1,0,0:0:0:0:
182,192,18461,1,2,0:0:0:0:
36,192,18461,1,0,0:0:0:0:
475,192,18587,1,0,0:0:0:0:
256,192,18712,1,0,0:0:0:0:
402,192,18712,1,0,0:0:0:0:
182,192,18838,1,4,0:0:0:0:
36,192,18838,1,0,0:0:0:0:
329,192,18963,1,0,0:0:0:0:
475,192,19089,1,2,0:0:0:0:
109,192,19089,1,0,0:0:0:0:
256,192,19215,1,0,0:0:0:0:
402,192,19340,1,2,0:0:0:0:
182,192,19340,1,0,0:0:0:0:
36,192,19591,1,4,0:0:0:0:
182,192,19591,1,0,0:0:0:0:
402,192,19717,1,4,0:0:0:0:
109,192,19842,1,0,0:0:0:0:
256,192,19968,1,2,0:0:0:0:
475,192,19968,1,0,0:0:0:0:
109,192,20093,1,4,0:0:0:0:
402,192,20093,1,0,0:0:0:0:
256,192,20219,1,0,0:0:0:0:
475,192,20344,1,4,0:0:0:0:
36,192,20344,1,0,0:0:0:0:
256,192,20470,1,0,0:0:0:0:
402,192,20595,1,2,0:0:0:0:
109,192,20595,1,0,0:0:0:0:
182,192,20721,1,0,0:0:0:0:
329,192,20846,1,2,0:0:0:0:
475,192,20846,1,0,0:0:0:0:
36,192,21097,1,4,0:0:0:0:
182,192,21097,1,0,0:0:0:0:
475,192,21097,1,0,0:0:0:0:
329,192,21223,1,0,0:0:0:0:
182,192,21348,1,0,0:0:0:0:
109,192,21348,1,0,0:0:0:0:
475,192,21474,1,2,0:0:0:0:
329,192,21474,1,0,0:0:0:0:
36,192,21474,1,0,0:0:0:0:
182,192,21599,1,0,0:0:0:0:
475,192,21725,1,2,0:0:0:0:
256,192,21725,1,0,0:0:0:0:
402,192,21851,1,4,0:0:0:0:
36,192,21851,1,0,0:0:0:0:
256,192,21976,1,0,0:0:0:0:
109,192,22102,1,2,0:0:0:0:
475,192,22102,1,0,0:0:0:0:
329,192,22227,1,0,0:0:0:0:
402,192,22353,1,2,0:0:0:0:
109,192,22353,1,0,0:0:0:0:
36,192,22604,1,4,0:0:0:0:
475,192,22604,1,0,0:0:0:0:
329,192,22729,1,0,0:0:0:0:
109,192,22855,1,4,0:0:0:0:
182,192,22855,1,0,0:0:0:0:
402,192,22980,1,2,0:0:0:0:
475,192,22980,1,0,0:0:0:0:
182,192,23106,1,4,0:0:0:0:
256,192,23231,1,2,0:0:0:0:
329,192,23357,1,2,0:0:0:0:
36,192,23357,1,0,0:0:0:0:
182,192,23482,1,0,0:0:0:0:
109,192,23608,1,2,0:0:0:0:
402,192,23608,1,0,0:0:0:0:
256,192,23733,1,4,0:0:0:0:
182,192,23733,1,0,0:0:0:0:
475,192,23859,1,2,0:0:0:0:
329,192,23859,1,0,0:0:0:0:
182,192,23984,1,0,0:0:0:0:
402,192,24110,1,4,0:0:0:0:
475,192,24110,1,0,0:0:0:0:
329,192,24235,1,0,0:0:0:0:
109,192,24361,1,4,0:0:0:0:
256,192,24361,1,0,0:0:0:0:
36,192,24486,1,2,0:0:0:0:
402,192,24486,1,0,0:0:0:0:
182,192,24612,1,4,0:0:0:0:
475,192,24612,1,0,0:0:0:0:
329,192,24738,1,2,0:0:0:0:
36,192,24738,1,0,0:0:0:0:
182,192,24863,1,4,0:0:0:0:
475,192,24863,1,0,0:0:0:0:
329,192,24989,1,0,0:0:0:0:
109,192,25114,1,2,0:0:0:0:
402,192,25114,1,0,0:0:0:0:
256,192,25240,1,4,0:0:0:0:
36,192,25365,1,2,0:0:0:0:
475,192,25365,1,0,0:0:0:0:
36,192,25616,1,4,0:0:0:0:
329,192,25616,1,0,0:0:0:0:
475,192,25616,1,0,0:0:0:0:
109,192,25742,1,0,0:0:0:0:
402,192,25867,1,2,0:0:0:0:
256,192,25993,1,2,0:0:0:0:
475,192,25993,1,0,0:0:0:0:
36,192,26118,1,4,0:0:0:0:
182,192,26244,1,2,0:0:0:0:
402,192,26244,1,0,0:0:0:0:
109,192,26369,1,4,0:0:0:0:
329,192,26369,1,0,0:0:0:0:
36,192,26495,1,0,0:0:0:0:
256,192,26495,1,0,0:0:0:0:
182,192,26620,1,2,0:0:0:0:
475,192,26620,1,0,0:0:0:0:
329,192,26746,1,0,0:0:0:0:
182,192,26871,1,2,0:0:0:0:
402,192,26871,1,0,0:0:0:0:
475,192,26997,1,0,0:0:0:0:
36,192,27122,128,0,27248:0:0:0:0:
256,192,27248,128,0,27374:0:0:0:0:
402,192,27374,128,0,27499:0:0:0:0:
182,192,27499,128,0,27625:0:0:0:0:
402,192,27625,128,0,27750:0:0:0:0:
36,192,27625,128,0,27750:0:0:0:0:
182,192,27750,128,0,27876:0:0:0:0:
329,192,27876,128,0,28001:0:0:0:0:
109,192,28001,128,0,28127:0:0:0:0:
475,192,28127,128,0,28252:0:0:0:0:
256,192,28252,128,0,28378:0:0:0:0:
36,192,28378,128,0,28503:0:0:0:0:
402,192,28503,128,0,28629:0:0:0:0:
329,192,28629,128,0,28880:0:0:0:0:
256,192,28880,128,0,29131:0:0:0:0:
182,192,29131,128,0,29382:0:0:0:0:
329,192,29382,128,0,29507:0:0:0:0:
182,192,29507,128,0,29633:0:0:0:0:
256,192,29633,128,0,29884:0:0:0:0:
402,192,29884,128,0,30135:0:0:0:0:
36,192,30135,1,8,0:0:0:0:
182,192,30135,1,0,0:0:0:0:
475,192,30135,1,0,0:0:0:0:
109,192,30261,1,0,0:0:0:0:
329,192,30386,1,0,0:0:0:0:
109,192,30512,1,2,0:0:0:0:
256,192,30512,1,0,0:0:0:0:
475,192,30637,1,0,0:0:0:0:
36,192,30763,1,0,0:0:0:0:
182,192,30763,1,0,0:0:0:0:
402,192,30888,1,4,0:0:0:0:
256,192,31014,1,0,0:0:0:0:
36,192,31139,1,2,0:0:0:0:
182,192,31139,1,0,0:0:0:0:
402,192,31265,1,4,0:0:0:0:
109,192,31390,1,2,0:0:0:0:
475,192,31390,1,0,0:0:0:0:
256,192,31516,1,0,0:0:0:0:
36,192,31641,1,8,0:0:0:0:
402,192,31641,1,0,0:0:0:0:
182,192,31767,1,0,0:0:0:0:
256,192,31892,1,4,0:0:0:0:
36,192,32018,1,2,0:0:0:0:
329,192,32018,1,0,0:0:0:0:
182,192,32143,1,0,0:0:0:0:
475,192,32269,1,4,0:0:0:0:
109,192,32269,1,0,0:0:0:0:
36,192,32394,1,4,0:0:0:0:
402,192,32394,1,0,0:0:0:0:
329,192,32520,1,0,0:0:0:0:
109,192,32520,1,0,0:0:0:0:
475,192,32645,1,2,0:0:0:0:
256,192,32645,1,0,0:0:0:0:
109,192,32771,1,4,0:0:0:0:
182,192,32897,1,2,0:0:0:0:
329,192,32897,1,0,0:0:0:0:
109,192,33148,1,8,0:0:0:0:
256,192,33273,1,0,0:0:0:0:
109,192,33399,1,0,0:0:0:0:
256,192,33524,1,2,0:0:0:0:
36,192,33524,1,0,0:0:0:0:
402,192,33650,1,0,0:0:0:0:
109,192,33775,1,0,0:0:0:0:
329,192,33901,1,4,0:0:0:0:
182,192,33901,1,0,0:0:0:0:
36,192,34026,1,0,0:0:0:0:
402,192,34152,1,2,0:0:0:0:
475,192,34152,1,0,0:0:0:0:
256,192,34277,1,0,0:0:0:0:
36,192,34403,1,2,0:0:0:0:
182,192,34403,1,0,0:0:0:0:
329,192,34528,1,0,0:0:0:0:
256,192,34654,1,4,0:0:0:0:
402,192,34654,1,0,0:0:0:0:
182,192,34779,1,0,0:0:0:0:
256,192,34842,1,0,0:0:0:0:
329,192,34905,1,0,0:0:0:0:
475,192,34905,1,0,0:0:0:0:
36,192,35030,1,2,0:0:0:0:
402,192,35030,1,0,0:0:0:0:
109,192,35156,1,0,0:0:0:0:
475,192,35281,1,4,0:0:0:0:
182,192,35407,1,2,0:0:0:0:
36,192,35407,1,0,0:0:0:0:
402,192,35533,1,0,0:0:0:0:
256,192,35658,1,2,0:0:0:0:
109,192,35658,1,0,0:0:0:0:
475,192,35909,1,2,0:0:0:0:
182,192,35909,1,0,0:0:0:0:
36,192,36160,1,8,0:0:0:0:
402,192,36160,1,0,0:0:0:0:
256,192,36286,1,0,0:0:0:0:
109,192,36411,1,0,0:0:0:0:
475,192,36411,1,0,0:0:0:0:
329,192,36537,1,2,0:0:0:0:
36,192,36537,1,0,0:0:0:0:
182,192,36662,1,0,0:0:0:0:
36,192,36788,1,0,0:0:0:0:
329,192,36788,1,0,0:0:0:0:
475,192,36913,1,4,0:0:0:0:
256,192,36913,1,0,0:0:0:0:
109,192,37039,1,0,0:0:0:0:
329,192,37164,1,2,0:0:0:0:
109,192,37290,1,4,0:0:0:0:
475,192,37415,1,2,0:0:0:0:
402,192,37415,1,0,0:0:0:0:
475,192,37666,1,8,0:0:0:0:
36,192,37666,1,0,0:0:0:0:
402,192,37792,1,0,0:0:0:0:
329,192,37917,1,0,0:0:0:0:
256,192,38043,1,2,0:0:0:0:
36,192,38043,1,0,0:0:0:0:
475,192,38168,1,0,0:0:0:0:
109,192,38294,1,4,0:0:0:0:
182,192,38294,1,0,0:0:0:0:
402,192,38420,1,4,0:0:0:0:
475,192,38545,1,0,0:0:0:0:
182,192,38545,1,0,0:0:0:0:
36,192,38671,1,2,0:0:0:0:
256,192,38671,1,0,0:0:0:0:
329,192,38922,1,2,0:0:0:0:
182,192,38922,1,0,0:0:0:0:
475,192,39173,1,8,0:0:0:0:
329,192,39173,1,0,0:0:0:0:
36,192,39298,1,0,0:0:0:0:
256,192,39424,1,0,0:0:0:0:
475,192,39549,1,2,0:0:0:0:
402,192,39549,1,0,0:0:0:0:
109,192,39675,1,0,0:0:0:0:
402,192,39800,1,0,0:0:0:0:
182,192,39926,1,4,0:0:0:0:
475,192,40051,1,0,0:0:0:0:
36,192,40177,1,2,0:0:0:0:
329,192,40177,1,0,0:0:0:0:
109,192,40428,1,2,0:0:0:0:
402,192,40428,1,0,0:0:0:0:
256,192,40553,1,4,0:0:0:0:
475,192,40679,1,8,0:0:0:0:
402,192,40679,1,0,0:0:0:0:
109,192,40804,1,0,0:0:0:0:
256,192,40930,1,4,0:0:0:0:
36,192,41056,1,2,0:0:0:0:
475,192,41056,1,0,0:0:0:0:
182,192,41181,1,0,0:0:0:0:
256,192,41307,1,2,0:0:0:0:
402,192,41432,1,4,0:0:0:0:
36,192,41432,1,0,0:0:0:0:
182,192,41558,1,0,0:0:0:0:
475,192,41683,1,2,0:0:0:0:
109,192,41683,1,0,0:0:0:0:
182,192,41934,1,2,0:0:0:0:
329,192,41934,1,0,0:0:0:0:
36,192,42185,1,4,0:0:0:0:
182,192,42185,1,0,0:0:0:0:
402,192,42311,1,0,0:0:0:0:
182,192,42436,1,4,0:0:0:0:
329,192,42562,1,2,0:0:0:0:
109,192,42562,1,0,0:0:0:0:
36,192,42687,1,0,0:0:0:0:
475,192,42813,1,0,0:0:0:0:
182,192,42938,1,4,0:0:0:0:
402,192,43064,1,0,0:0:0:0:
256,192,43189,1,2,0:0:0:0:
36,192,43189,1,0,0:0:0:0:
402,192,43315,1,0,0:0:0:0:
475,192,43440,1,2,0:0:0:0:
182,192,43440,1,0,0:0:0:0:
475,192,43692,1,8,0:0:0:0:
36,192,43692,1,0,0:0:0:0:
182,192,43817,1,0,0:0:0:0:
402,192,43943,1,4,0:0:0:0:
256,192,44068,1,2,0:0:0:0:
109,192,44194,1,0,0:0:0:0:
329,192,44319,1,4,0:0:0:0:
402,192,44445,1,2,0:0:0:0:
109,192,44445,1,0,0:0:0:0:
256,192,44570,1,4,0:0:0:0:
36,192,44570,1,0,0:0:0:0:
182,192,44696,1,2,0:0:0:0:
329,192,44696,1,0,0:0:0:0:
36,192,44821,1,4,0:0:0:0:
256,192,44947,1,2,0:0:0:0:
402,192,44947,1,0,0:0:0:0:
475,192,45072,1,4,0:0:0:0:
182,192,45198,1,8,0:0:0:0:
36,192,45198,1,0,0:0:0:0:
256,192,45323,1,0,0:0:0:0:
402,192,45449,1,0,0:0:0:0:
182,192,45574,1,2,0:0:0:0:
109,192,45700,1,0,0:0:0:0:
329,192,45825,1,0,0:0:0:0:
402,192,45951,1,4,0:0:0:0:
256,192,46076,1,0,0:0:0:0:
182,192,46202,1,2,0:0:0:0:
329,192,46327,1,4,0:0:0:0:
402,192,46453,1,2,0:0:0:0:
109,192,46453,1,0,0:0:0:0:
256,192,46579,1,4,0:0:0:0:
36,192,46704,1,8,0:0:0:0:
475,192,46704,1,0,0:0:0:0:
256,192,46955,1,0,0:0:0:0:
475,192,47081,1,2,0:0:0:0:
402,192,47081,1,0,0:0:0:0:
256,192,47206,1,0,0:0:0:0:
402,192,47332,1,0,0:0:0:0:
475,192,47457,1,4,0:0:0:0:
182,192,47457,1,0,0:0:0:0:
109,192,47583,1,0,0:0:0:0:
329,192,47708,1,2,0:0:0:0:
36,192,47708,1,0,0:0:0:0:
256,192,47834,1,0,0:0:0:0:
182,192,47959,1,2,0:0:0:0:
475,192,47959,1,0,0:0:0:0:
402,192,48085,1,0,0:0:0:0:
329,192,48210,1,4,0:0:0:0:
36,192,48210,1,0,0:0:0:0:
182,192,48336,1,0,0:0:0:0:
36,192,48461,1,0,0:0:0:0:
329,192,48587,1,2,0:0:0:0:
256,192,48587,1,0,0:0:0:0:
475,192,48712,1,0,0:0:0:0:
109,192,48838,1,0,0:0:0:0:
402,192,48838,1,0,0:0:0:0:
329,192,48963,1,4,0:0:0:0:
182,192,48963,1,0,0:0:0:0:
256,192,49089,1,0,0:0:0:0:
475,192,49215,1,2,0:0:0:0:
36,192,49215,1,0,0:0:0:0:
182,192,49340,1,0,0:0:0:0:
329,192,49466,1,2,0:0:0:0:
109,192,49466,1,0,0:0:0:0:
475,192,49591,1,0,0:0:0:0:
402,192,49717,1,8,0:0:0:0:
36,192,49717,1,0,0:0:0:0:
256,192,49842,1,0,0:0:0:0:
182,192,49968,1,0,0:0:0:0:
329,192,50093,5,2,0:0:0:0:
36,192,50093,1,0,0:0:0:0:
182,192,50219,1,0,0:0:0:0:
402,192,50344,1,2,0:0:0:0:
475,192,50344,1,0,0:0:0:0:
182,192,50470,1,4,0:0:0:0:
256,192,50470,1,0,0:0:0:0:
329,192,50595,1,2,0:0:0:0:
36,192,50595,1,0,0:0:0:0:
402,192,50721,1,4,0:0:0:0:
475,192,50721,1,0,0:0:0:0:
475,192,50972,1,2,0:0:0:0:
182,192,51223,5,0,0:0:0:0:
36,192,51223,1,0,0:0:0:0:
475,192,51348,1,0,0:0:0:0:
329,192,51474,1,0,0:0:0:0:
475,192,51599,1,0,0:0:0:0:
256,192,51725,1,0,0:0:0:0:
256,192,51976,1,0,0:0:0:0:
475,192,51976,1,0,0:0:0:0:
109,192,52102,1,0,0:0:0:0:
182,192,52227,1,0,0:0:0:0:
36,192,52353,1,0,0:0:0:0:
256,192,52478,1,0,0:0:0:0:
182,192,52729,1,0,0:0:0:0:
36,192,52729,1,0,0:0:0:0:
402,192,52855,1,0,0:0:0:0:
329,192,52980,1,0,0:0:0:0:
475,192,53106,1,0,0:0:0:0:
256,192,53231,1,0,0:0:0:0:
329,192,53482,1,0,0:0:0:0:
475,192,53482,1,0,0:0:0:0:
109,192,53608,1,0,0:0:0:0:
182,192,53733,1,0,0:0:0:0:
36,192,53859,1,0,0:0:0:0:
329,192,53984,1,0,0:0:0:0:
475,192,54235,1,0,0:0:0:0:
36,192,54235,1,0,0:0:0:0:
109,192,54298,1,0,0:0:0:0:
402,192,54361,1,0,0:0:0:0:
182,192,54361,1,0,0:0:0:0:
256,192,54424,1,0,0:0:0:0:
329,192,54486,1,0,0:0:0:0:
475,192,54612,1,0,0:0:0:0:
256,192,54738,1,0,0:0:0:0:
109,192,54738,1,0,0:0:0:0:
329,192,54989,1,0,0:0:0:0:
475,192,54989,1,0,0:0:0:0:
36,192,55114,1,0,0:0:0:0:
402,192,55240,1,0,0:0:0:0:
182,192,55240,1,0,0:0:0:0:
475,192,55365,1,0,0:0:0:0:
329,192,55491,1,0,0:0:0:0:
36,192,55491,1,0,0:0:0:0:
475,192,55742,1,0,0:0:0:0:
109,192,55742,1,0,0:0:0:0:
329,192,55867,1,0,0:0:0:0:
402,192,55930,1,0,0:0:0:0:
182,192,55993,1,0,0:0:0:0:
475,192,55993,1,0,0:0:0:0:
256,192,56118,1,0,0:0:0:0:
182,192,56244,1,0,0:0:0:0:
36,192,56244,1,0,0:0:0:0:
329,192,56495,1,0,0:0:0:0:
475,192,56495,1,0,0:0:0:0:
182,192,56620,1,0,0:0:0:0:
256,192,56746,1,0,0:0:0:0:
402,192,56746,1,0,0:0:0:0:
109,192,56871,1,0,0:0:0:0:
329,192,56871,1,0,0:0:0:0:
256,192,56997,1,0,0:0:0:0:
475,192,56997,1,0,0:0:0:0:
36,192,57122,1,0,0:0:0:0:
182,192,57248,1,4,0:0:0:0:
402,192,57248,1,0,0:0:0:0:
256,192,57374,1,0,0:0:0:0:
402,192,57499,1,0,0:0:0:0:
475,192,57499,1,0,0:0:0:0:
36,192,57625,1,2,0:0:0:0:
182,192,57625,1,0,0:0:0:0:
329,192,57750,1,0,0:0:0:0:
475,192,57876,1,4,0:0:0:0:
182,192,57876,1,0,0:0:0:0:
109,192,57938,1,0,0:0:0:0:
36,192,58001,1,0,0:0:0:0:
402,192,58001,1,0,0:0:0:0:
256,192,58127,1,0,0:0:0:0:
109,192,58252,1,2,0:0:0:0:
475,192,58252,1,0,0:0:0:0:
256,192,58378,1,0,0:0:0:0:
402,192,58503,1,2,0:0:0:0:
36,192,58503,1,0,0:0:0:0:
329,192,58629,1,0,0:0:0:0:
182,192,58754,1,4,0:0:0:0:
475,192,58754,1,0,0:0:0:0:
256,192,58880,1,0,0:0:0:0:
36,192,59005,1,4,0:0:0:0:
402,192,59131,1,2,0:0:0:0:
329,192,59131,1,0,0:0:0:0:
182,192,59256,1,4,0:0:0:0:
109,192,59382,1,0,0:0:0:0:
256,192,59507,1,2,0:0:0:0:
402,192,59633,1,0,0:0:0:0:
256,192,59758,1,2,0:0:0:0:
36,192,59758,1,0,0:0:0:0:
475,192,59884,1,4,0:0:0:0:
402,192,60010,1,2,0:0:0:0:
329,192,60010,1,0,0:0:0:0:
475,192,60198,1,0,0:0:0:0:
109,192,60261,1,2,0:0:0:0:
402,192,60261,1,0,0:0:0:0:
182,192,60323,1,0,0:0:0:0:
256,192,60386,1,0,0:0:0:0:
36,192,60386,1,0,0:0:0:0:
329,192,60449,1,0,0:0:0:0:
402,192,60512,1,4,0:0:0:0:
475,192,60512,1,0,0:0:0:0:
182,192,60637,1,2,0:0:0:0:
109,192,60637,1,0,0:0:0:0:
329,192,60763,1,4,0:0:0:0:
402,192,60763,1,0,0:0:0:0:
182,192,60888,1,4,0:0:0:0:
475,192,61014,1,2,0:0:0:0:
36,192,61139,1,0,0:0:0:0:
109,192,61265,1,2,0:0:0:0:
402,192,61265,1,0,0:0:0:0:
329,192,61390,1,0,0:0:0:0:
36,192,61516,1,2,0:0:0:0:
402,192,61516,1,0,0:0:0:0:
256,192,61767,1,0,0:0:0:0:
475,192,61767,1,0,0:0:0:0:
182,192,62018,1,0,0:0:0:0:
402,192,62018,1,0,0:0:0:0:
36,192,62143,1,2,0:0:0:0:
109,192,62143,1,0,0:0:0:0:
256,192,62269,1,4,0:0:0:0:
329,192,62269,1,0,0:0:0:0:
36,192,62394,1,0,0:0:0:0:
182,192,62520,1,2,0:0:0:0:
475,192,62520,1,0,0:0:0:0:
402,192,62645,1,0,0:0:0:0:
109,192,62645,1,0,0:0:0:0:
182,192,62771,1,2,0:0:0:0:
475,192,62771,1,0,0:0:0:0:
402,192,63022,1,2,0:0:0:0:
36,192,63022,1,0,0:0:0:0:
109,192,63273,1,4,0:0:0:0:
475,192,63273,1,0,0:0:0:0:
329,192,63399,1,0,0:0:0:0:
109,192,63524,1,4,0:0:0:0:
36,192,63524,1,0,0:0:0:0:
402,192,63650,1,2,0:0:0:0:
182,192,63775,1,4,0:0:0:0:
36,192,63775,1,0,0:0:0:0:
402,192,63901,1,4,0:0:0:0:
329,192,63963,1,0,0:0:0:0:
256,192,64026,1,2,0:0:0:0:
109,192,64026,1,0,0:0:0:0:
475,192,64152,1,0,0:0:0:0:
329,192,64277,1,2,0:0:0:0:
36,192,64277,1,0,0:0:0:0:
256,192,64403,1,4,0:0:0:0:
402,192,64528,1,2,0:0:0:0:
182,192,64528,1,0,0:0:0:0:
109,192,64654,1,0,0:0:0:0:
329,192,64779,1,4,0:0:0:0:
475,192,64779,1,0,0:0:0:0:
256,192,64905,1,0,0:0:0:0:
182,192,65030,1,4,0:0:0:0:
329,192,65156,1,2,0:0:0:0:
109,192,65156,1,0,0:0:0:0:
256,192,65281,1,0,0:0:0:0:
36,192,65281,1,0,0:0:0:0:
402,192,65407,1,0,0:0:0:0:
475,192,65533,1,4,0:0:0:0:
109,192,65533,1,0,0:0:0:0:
402,192,65658,1,0,0:0:0:0:
329,192,65784,1,2,0:0:0:0:
36,192,65784,1,0,0:0:0:0:
475,192,65909,1,0,0:0:0:0:
329,192,66035,1,2,0:0:0:0:
109,192,66035,1,0,0:0:0:0:
256,192,66286,1,4,0:0:0:0:
402,192,66286,1,0,0:0:0:0:
109,192,66411,1,0,0:0:0:0:
182,192,66537,1,0,0:0:0:0:
36,192,66662,1,2,0:0:0:0:
475,192,66662,1,0,0:0:0:0:
256,192,66788,1,0,0:0:0:0:
402,192,66788,1,0,0:0:0:0:
109,192,66913,1,0,0:0:0:0:
36,192,67039,1,4,0:0:0:0:
402,192,67039,1,0,0:0:0:0:
182,192,67164,1,0,0:0:0:0:
329,192,67164,1,0,0:0:0:0:
256,192,67290,1,2,0:0:0:0:
36,192,67290,1,0,0:0:0:0:
182,192,67415,1,0,0:0:0:0:
256,192,67541,1,2,0:0:0:0:
475,192,67541,1,0,0:0:0:0:
329,192,67792,1,4,0:0:0:0:
109,192,67792,1,0,0:0:0:0:
329,192,68043,1,0,0:0:0:0:
475,192,68168,1,2,0:0:0:0:
402,192,68168,1,0,0:0:0:0:
182,192,68294,1,4,0:0:0:0:
36,192,68294,1,0,0:0:0:0:
256,192,68420,1,0,0:0:0:0:
36,192,68545,1,4,0:0:0:0:
329,192,68545,1,0,0:0:0:0:
402,192,68671,1,0,0:0:0:0:
109,192,68796,1,2,0:0:0:0:
475,192,68796,1,0,0:0:0:0:
182,192,68922,1,0,0:0:0:0:
402,192,69047,1,2,0:0:0:0:
475,192,69047,1,0,0:0:0:0:
36,192,69047,1,0,0:0:0:0:
256,192,69173,1,0,0:0:0:0:
402,192,69298,1,4,0:0:0:0:
475,192,69298,1,0,0:0:0:0:
182,192,69298,1,0,0:0:0:0:
182,192,69549,1,0,0:0:0:0:
36,192,69549,1,0,0:0:0:0:
475,192,69675,1,2,0:0:0:0:
329,192,69675,1,0,0:0:0:0:
109,192,69800,1,0,0:0:0:0:
402,192,69800,1,0,0:0:0:0:
256,192,69926,1,0,0:0:0:0:
36,192,69989,1,0,0:0:0:0:
109,192,70051,1,4,0:0:0:0:
475,192,70051,1,0,0:0:0:0:
402,192,70051,1,0,0:0:0:0:
256,192,70177,1,0,0:0:0:0:
182,192,70302,1,2,0:0:0:0:
36,192,70302,1,0,0:0:0:0:
329,192,70428,1,0,0:0:0:0:
109,192,70553,1,2,0:0:0:0:
475,192,70553,1,0,0:0:0:0:
329,192,70679,1,0,0:0:0:0:
256,192,70804,1,4,0:0:0:0:
36,192,70804,1,0,0:0:0:0:
109,192,70930,1,0,0:0:0:0:
182,192,71056,1,0,0:0:0:0:
475,192,71181,1,2,0:0:0:0:
402,192,71181,1,0,0:0:0:0:
256,192,71307,1,4,0:0:0:0:
329,192,71307,1,0,0:0:0:0:
475,192,71432,1,0,0:0:0:0:
182,192,71558,1,4,0:0:0:0:
36,192,71558,1,0,0:0:0:0:
402,192,71558,1,0,0:0:0:0:
329,192,71683,1,0,0:0:0:0:
109,192,71809,1,2,0:0:0:0:
256,192,71809,1,0,0:0:0:0:
36,192,71934,1,0,0:0:0:0:
182,192,72060,1,2,0:0:0:0:
329,192,72060,1,0,0:0:0:0:
36,192,72248,1,0,0:0:0:0:
109,192,72311,1,0,0:0:0:0:
475,192,72311,1,0,0:0:0:0:
402,192,72374,1,0,0:0:0:0:
329,192,72436,1,0,0:0:0:0:
36,192,72499,1,0,0:0:0:0:
109,192,72562,1,2,0:0:0:0:
182,192,72625,1,0,0:0:0:0:
256,192,72687,1,4,0:0:0:0:
475,192,72687,1,0,0:0:0:0:
182,192,72813,1,2,0:0:0:0:
329,192,72813,1,0,0:0:0:0:
36,192,72938,1,4,0:0:0:0:
402,192,72938,1,0,0:0:0:0:
109,192,73064,1,2,0:0:0:0:
329,192,73064,1,0,0:0:0:0:
182,192,73189,1,0,0:0:0:0:
402,192,73315,1,2,0:0:0:0:
109,192,73315,1,0,0:0:0:0:
329,192,73440,1,0,0:0:0:0:
256,192,73566,1,2,0:0:0:0:
475,192,73566,1,0,0:0:0:0:
329,192,73817,1,4,0:0:0:0:
109,192,73817,1,0,0:0:0:0:
402,192,73943,1,0,0:0:0:0:
256,192,74005,1,0,0:0:0:0:
36,192,74068,1,4,0:0:0:0:
109,192,74068,1,0,0:0:0:0:
475,192,74194,1,2,0:0:0:0:
329,192,74194,1,0,0:0:0:0:
256,192,74319,1,4,0:0:0:0:
475,192,74445,1,0,0:0:0:0:
109,192,74445,1,0,0:0:0:0:
402,192,74570,1,2,0:0:0:0:
36,192,74570,1,0,0:0:0:0:
475,192,74821,1,2,0:0:0:0:
109,192,74821,1,0,0:0:0:0:
402,192,74947,1,0,0:0:0:0:
329,192,75072,1,2,0:0:0:0:
182,192,75072,1,0,0:0:0:0:
36,192,75323,1,4,0:0:0:0:
402,192,75323,1,0,0:0:0:0:
475,192,75449,1,0,0:0:0:0:
256,192,75574,1,0,0:0:0:0:
402,192,75700,1,2,0:0:0:0:
182,192,75825,1,0,0:0:0:0:
36,192,75825,1,0,0:0:0:0:
475,192,75951,1,0,0:0:0:0:
256,192,76076,1,4,0:0:0:0:
109,192,76076,1,0,0:0:0:0:
402,192,76202,1,0,0:0:0:0:
329,192,76327,1,2,0:0:0:0:
36,192,76327,1,0,0:0:0:0:
402,192,76453,1,0,0:0:0:0:
329,192,76579,1,2,0:0:0:0:
109,192,76579,1,0,0:0:0:0:
256,192,76704,1,0,0:0:0:0:
402,192,76830,1,4,0:0:0:0:
182,192,76830,1,0,0:0:0:0:
475,192,76955,1,0,0:0:0:0:
36,192,77081,1,0,0:0:0:0:
329,192,77206,1,2,0:0:0:0:
109,192,77332,1,4,0:0:0:0:
182,192,77332,1,0,0:0:0:0:
475,192,77457,1,4,0:0:0:0:
36,192,77583,1,2,0:0:0:0:
182,192,77583,1,0,0:0:0:0:
402,192,77708,1,0,0:0:0:0:
256,192,77834,1,2,0:0:0:0:
109,192,77834,1,0,0:0:0:0:
475,192,77959,1,0,0:0:0:0:
182,192,78085,1,2,0:0:0:0:
36,192,78085,1,0,0:0:0:0:
475,192,78336,1,4,0:0:0:0:
109,192,78336,1,0,0:0:0:0:
256,192,78336,1,0,0:0:0:0:
329,192,78461,1,0,0:0:0:0:
475,192,78587,1,0,0:0:0:0:
329,192,78712,1,2,0:0:0:0:
402,192,78838,1,4,0:0:0:0:
36,192,78838,1,0,0:0:0:0:
109,192,78963,1,2,0:0:0:0:
402,192,79089,1,4,0:0:0:0:
182,192,79089,1,0,0:0:0:0:
475,192,79215,1,0,0:0:0:0:
256,192,79215,1,0,0:0:0:0:
329,192,79340,1,2,0:0:0:0:
36,192,79340,1,0,0:0:0:0:
402,192,79591,1,2,0:0:0:0:
182,192,79591,1,0,0:0:0:0:
475,192,79842,1,4,0:0:0:0:
109,192,79842,1,0,0:0:0:0:
256,192,80093,1,0,0:0:0:0:
402,192,80219,1,2,0:0:0:0:
475,192,80344,1,4,0:0:0:0:
109,192,80344,1,0,0:0:0:0:
329,192,80470,1,0,0:0:0:0:
402,192,80595,1,4,0:0:0:0:
109,192,80595,1,0,0:0:0:0:
36,192,80721,1,0,0:0:0:0:
182,192,80846,1,2,0:0:0:0:
475,192,80846,1,0,0:0:0:0:
475,192,81097,1,2,0:0:0:0:
109,192,81097,1,0,0:0:0:0:
256,192,81223,1,0,0:0:0:0:
402,192,81348,1,4,0:0:0:0:
36,192,81348,1,0,0:0:0:0:
329,192,81599,1,0,0:0:0:0:
475,192,81725,1,2,0:0:0:0:
109,192,81725,1,0,0:0:0:0:
402,192,81851,1,0,0:0:0:0:
36,192,81851,1,0,0:0:0:0:
329,192,81976,1,0,0:0:0:0:
182,192,82102,1,4,0:0:0:0:
109,192,82102,1,0,0:0:0:0:
256,192,82227,1,0,0:0:0:0:
475,192,82353,1,2,0:0:0:0:
402,192,82353,1,0,0:0:0:0:
329,192,82478,1,0,0:0:0:0:
109,192,82604,1,2,0:0:0:0:
256,192,82604,1,0,0:0:0:0:
402,192,82855,1,4,0:0:0:0:
36,192,82855,1,0,0:0:0:0:
109,192,82980,1,0,0:0:0:0:
329,192,83106,1,0,0:0:0:0:
182,192,83231,1,2,0:0:0:0:
402,192,83231,1,0,0:0:0:0:
329,192,83357,1,4,0:0:0:0:
36,192,83357,1,0,0:0:0:0:
475,192,83482,1,0,0:0:0:0:
182,192,83608,1,4,0:0:0:0:
329,192,83608,1,0,0:0:0:0:
402,192,83733,1,0,0:0:0:0:
109,192,83859,1,2,0:0:0:0:
256,192,83984,1,0,0:0:0:0:
402,192,84110,1,2,0:0:0:0:
36,192,84110,1,0,0:0:0:0:
475,192,84361,1,0,0:0:0:0:
329,192,84486,1,0,0:0:0:0:
402,192,84612,1,0,0:0:0:0:
109,192,84738,1,0,0:0:0:0:
402,192,84863,1,0,0:0:0:0:
36,192,85114,1,0,0:0:0:0:
182,192,85240,1,0,0:0:0:0:
329,192,85365,1,0,0:0:0:0:
475,192,85491,1,0,0:0:0:0:
182,192,85616,1,0,0:0:0:0:
402,192,85867,128,0,86118:0:0:0:0:
329,192,86118,128,0,86369:0:0:0:0:
256,192,86369,128,0,86620:0:0:0:0:
402,192,86620,128,0,86746:0:0:0:0:
182,192,86746,128,0,86871:0:0:0:0:
329,192,86871,128,0,87122:0:0:0:0:
402,192,87122,128,0,87374:0:0:0:0:
475,192,87374,1,8,0:0:0:0:
36,192,87374,1,0,0:0:0:0:
256,192,87499,1,0,0:0:0:0:
402,192,87625,1,0,0:0:0:0:
36,192,87750,1,2,0:0:0:0:
109,192,87750,1,0,0:0:0:0:
475,192,87876,1,0,0:0:0:0:
329,192,88001,1,0,0:0:0:0:
402,192,88001,1,0,0:0:0:0:
182,192,88127,1,4,0:0:0:0:
402,192,88252,1,0,0:0:0:0:
256,192,88378,1,2,0:0:0:0:
109,192,88378,1,0,0:0:0:0:
402,192,88503,1,4,0:0:0:0:
329,192,88629,1,2,0:0:0:0:
475,192,88629,1,0,0:0:0:0:
36,192,88754,1,4,0:0:0:0:
256,192,88880,1,8,0:0:0:0:
475,192,88880,1,0,0:0:0:0:
109,192,89005,1,0,0:0:0:0:
182,192,89131,1,0,0:0:0:0:
329,192,89256,1,2,0:0:0:0:
475,192,89256,1,0,0:0:0:0:
36,192,89382,1,0,0:0:0:0:
256,192,89382,1,0,0:0:0:0:
182,192,89507,1,4,0:0:0:0:
109,192,89633,1,4,0:0:0:0:
402,192,89633,1,0,0:0:0:0:
36,192,89758,1,0,0:0:0:0:
329,192,89758,1,0,0:0:0:0:
36,192,89884,1,2,0:0:0:0:
402,192,89884,1,0,0:0:0:0:
182,192,90010,1,4,0:0:0:0:
36,192,90135,1,2,0:0:0:0:
475,192,90135,1,0,0:0:0:0:
109,192,90386,1,8,0:0:0:0:
402,192,90386,1,0,0:0:0:0:
256,192,90512,1,0,0:0:0:0:
109,192,90637,1,0,0:0:0:0:
475,192,90763,1,2,0:0:0:0:
329,192,90763,1,0,0:0:0:0:
256,192,90888,1,0,0:0:0:0:
109,192,91014,1,0,0:0:0:0:
329,192,91139,1,4,0:0:0:0:
182,192,91139,1,0,0:0:0:0:
36,192,91265,1,0,0:0:0:0:
182,192,91390,1,2,0:0:0:0:
256,192,91390,1,0,0:0:0:0:
402,192,91516,1,4,0:0:0:0:
36,192,91641,1,2,0:0:0:0:
182,192,91641,1,0,0:0:0:0:
329,192,91767,1,0,0:0:0:0:
36,192,91892,1,4,0:0:0:0:
475,192,91892,1,0,0:0:0:0:
256,192,92018,1,0,0:0:0:0:
109,192,92081,1,0,0:0:0:0:
182,192,92143,1,0,0:0:0:0:
329,192,92269,1,2,0:0:0:0:
475,192,92269,1,0,0:0:0:0:
182,192,92394,1,0,0:0:0:0:
402,192,92520,1,0,0:0:0:0:
36,192,92520,1,0,0:0:0:0:
329,192,92645,1,4,0:0:0:0:
109,192,92645,1,0,0:0:0:0:
182,192,92771,1,0,0:0:0:0:
475,192,92897,1,2,0:0:0:0:
329,192,92897,1,0,0:0:0:0:
182,192,93022,1,0,0:0:0:0:
109,192,93022,1,0,0:0:0:0:
36,192,93148,1,2,0:0:0:0:
36,192,93399,1,8,0:0:0:0:
402,192,93399,1,0,0:0:0:0:
256,192,93524,1,0,0:0:0:0:
109,192,93650,1,0,0:0:0:0:
329,192,93775,1,2,0:0:0:0:
475,192,93775,1,0,0:0:0:0:
36,192,93901,1,0,0:0:0:0:
182,192,94026,1,0,0:0:0:0:
402,192,94026,1,0,0:0:0:0:
109,192,94152,1,4,0:0:0:0:
256,192,94277,1,0,0:0:0:0:
36,192,94403,1,2,0:0:0:0:
475,192,94403,1,0,0:0:0:0:
109,192,94528,1,4,0:0:0:0:
329,192,94654,1,2,0:0:0:0:
182,192,94654,1,0,0:0:0:0:
36,192,94905,1,8,0:0:0:0:
475,192,94905,1,0,0:0:0:0:
329,192,95030,1,0,0:0:0:0:
109,192,95156,1,0,0:0:0:0:
182,192,95156,1,0,0:0:0:0:
402,192,95281,1,2,0:0:0:0:
329,192,95281,1,0,0:0:0:0:
182,192,95407,1,0,0:0:0:0:
109,192,95407,1,0,0:0:0:0:
36,192,95533,1,0,0:0:0:0:
329,192,95658,1,4,0:0:0:0:
109,192,95658,1,0,0:0:0:0:
36,192,95784,1,0,0:0:0:0:
256,192,95784,1,0,0:0:0:0:
36,192,95909,1,2,0:0:0:0:
329,192,95909,1,0,0:0:0:0:
402,192,96035,1,4,0:0:0:0:
475,192,96160,1,2,0:0:0:0:
109,192,96160,1,0,0:0:0:0:
475,192,96411,1,8,0:0:0:0:
109,192,96411,1,0,0:0:0:0:
402,192,96537,1,0,0:0:0:0:
182,192,96662,1,0,0:0:0:0:
36,192,96788,1,2,0:0:0:0:
329,192,96788,1,0,0:0:0:0:
475,192,96788,1,0,0:0:0:0:
182,192,96913,1,4,0:0:0:0:
329,192,97039,1,0,0:0:0:0:
402,192,97039,1,0,0:0:0:0:
475,192,97164,1,4,0:0:0:0:
36,192,97164,1,0,0:0:0:0:
256,192,97290,1,0,0:0:0:0:
475,192,97415,1,2,0:0:0:0:
109,192,97415,1,0,0:0:0:0:
256,192,97541,1,4,0:0:0:0:
109,192,97666,1,2,0:0:0:0:
402,192,97666,1,0,0:0:0:0:
36,192,97917,1,8,0:0:0:0:
475,192,97917,1,0,0:0:0:0:
329,192,98043,1,0,0:0:0:0:
182,192,98168,1,4,0:0:0:0:
109,192,98168,1,0,0:0:0:0:
329,192,98294,1,2,0:0:0:0:
402,192,98294,1,0,0:0:0:0:
182,192,98420,1,0,0:0:0:0:
36,192,98420,1,0,0:0:0:0:
329,192,98545,1,0,0:0:0:0:
402,192,98671,1,4,0:0:0:0:
109,192,98671,1,0,0:0:0:0:
329,192,98796,1,0,0:0:0:0:
182,192,98796,1,0,0:0:0:0:
402,192,98922,1,2,0:0:0:0:
256,192,98922,1,0,0:0:0:0:
475,192,99047,1,4,0:0:0:0:
329,192,99173,1,2,0:0:0:0:
182,192,99173,1,0,0:0:0:0:
256,192,99424,1,4,0:0:0:0:
36,192,99424,1,0,0:0:0:0:
109,192,99549,1,0,0:0:0:0:
475,192,99675,1,0,0:0:0:0:
329,192,99675,1,0,0:0:0:0:
36,192,99800,1,2,0:0:0:0:
182,192,99800,1,0,0:0:0:0:
256,192,99926,1,0,0:0:0:0:
109,192,100051,1,0,0:0:0:0:
329,192,100051,1,0,0:0:0:0:
182,192,100177,1,4,0:0:0:0:
475,192,100302,1,0,0:0:0:0:
402,192,100428,1,2,0:0:0:0:
109,192,100428,1,0,0:0:0:0:
329,192,100553,1,0,0:0:0:0:
109,192,100679,1,2,0:0:0:0:
256,192,100679,1,0,0:0:0:0:
36,192,100930,1,8,0:0:0:0:
402,192,100930,1,0,0:0:0:0:
182,192,101056,1,0,0:0:0:0:
329,192,101181,1,0,0:0:0:0:
475,192,101181,1,0,0:0:0:0:
182,192,101307,1,2,0:0:0:0:
36,192,101432,1,0,0:0:0:0:
402,192,101432,1,0,0:0:0:0:
182,192,101558,1,0,0:0:0:0:
109,192,101683,1,4,0:0:0:0:
402,192,101683,1,0,0:0:0:0:
256,192,101809,1,0,0:0:0:0:
36,192,101809,1,0,0:0:0:0:
36,192,101934,1,2,0:0:0:0:
182,192,101934,1,0,0:0:0:0:
109,192,102185,1,2,0:0:0:0:
329,192,102311,1,4,0:0:0:0:
36,192,102436,1,8,0:0:0:0:
256,192,102436,1,0,0:0:0:0:
182,192,102562,1,0,0:0:0:0:
402,192,102687,1,0,0:0:0:0:
475,192,102687,1,0,0:0:0:0:
109,192,102813,1,2,0:0:0:0:
256,192,102813,1,0,0:0:0:0:
36,192,102938,1,0,0:0:0:0:
329,192,103064,1,0,0:0:0:0:
475,192,103189,1,4,0:0:0:0:
182,192,103189,1,0,0:0:0:0:
256,192,103315,1,0,0:0:0:0:
329,192,103440,1,2,0:0:0:0:
475,192,103440,1,0,0:0:0:0:
36,192,103566,1,4,0:0:0:0:
109,192,103692,1,2,0:0:0:0:
256,192,103692,1,0,0:0:0:0:
475,192,103817,1,4,0:0:0:0:
36,192,103943,1,8,0:0:0:0:
182,192,103943,1,0,0:0:0:0:
402,192,104068,1,0,0:0:0:0:
475,192,104194,1,0,0:0:0:0:
256,192,104319,1,2,0:0:0:0:
402,192,104319,1,0,0:0:0:0:
182,192,104445,1,0,0:0:0:0:
109,192,104570,1,0,0:0:0:0:
36,192,104696,1,4,0:0:0:0:
329,192,104696,1,0,0:0:0:0:
256,192,104821,1,0,0:0:0:0:
36,192,104821,1,0,0:0:0:0:
402,192,104947,1,2,0:0:0:0:
475,192,104947,1,0,0:0:0:0:
109,192,104947,1,0,0:0:0:0:
329,192,105072,1,4,0:0:0:0:
36,192,105198,1,2,0:0:0:0:
182,192,105198,1,0,0:0:0:0:
475,192,105323,1,4,0:0:0:0:
36,192,105449,1,8,0:0:0:0:
256,192,105449,1,0,0:0:0:0:
329,192,105574,1,0,0:0:0:0:
182,192,105700,1,0,0:0:0:0:
402,192,105825,1,2,0:0:0:0:
475,192,105825,1,0,0:0:0:0:
36,192,105951,1,0,0:0:0:0:
182,192,106076,1,0,0:0:0:0:
329,192,106076,1,0,0:0:0:0:
109,192,106202,1,4,0:0:0:0:
329,192,106327,1,0,0:0:0:0:
402,192,106453,1,2,0:0:0:0:
256,192,106453,1,0,0:0:0:0:
109,192,106579,1,4,0:0:0:0:
475,192,106704,1,2,0:0:0:0:
329,192,106704,1,0,0:0:0:0:
182,192,106830,1,4,0:0:0:0:
475,192,106955,1,8,0:0:0:0:
36,192,106955,1,0,0:0:0:0:
109,192,107081,1,0,0:0:0:0:
182,192,107143,1,0,0:0:0:0:
256,192,107206,1,4,0:0:0:0:
402,192,107332,1,2,0:0:0:0:
256,192,107457,1,0,0:0:0:0:
36,192,107583,1,2,0:0:0:0:
109,192,107583,1,0,0:0:0:0:
475,192,107708,1,4,0:0:0:0:
329,192,107834,1,4,0:0:0:0:
182,192,107959,1,2,0:0:0:0:
36,192,108210,1,2,0:0:0:0:
329,192,108210,1,0,0:0:0:0:
