osu file format v14

[General]
AudioFilename: audio.mp3
AudioLeadIn: 0
PreviewTime: 12074
Countdown: 0
SampleSet: Soft
StackLeniency: 0.7
Mode: 3
LetterboxInBreaks: 0
SpecialStyle: 0
WidescreenStoryboard: 1

[Editor]
DistanceSpacing: 1.6
BeatDivisor: 16
GridSize: 32
TimelineZoom: 1.4

[Metadata]
Title:Heartache
TitleUnicode:Heartache
Artist:toby fox
ArtistUnicode:toby fox
Creator:Mipha-
Version:Normal
Source:UNDERTALE
Tags:chiptune midi orchestral famoss toriel toriel's theme video game instrumental electronic ost soundtrack miphather tobyfox FwugRadiation mus_boss1 demo complete 日本版 Limited Edition Collector's Iam8bit Materia Collective Fangamer MCOL-0004 8bit-8048 8BIT-8081 FG11
BeatmapID:2694969
BeatmapSetID:1277549

[Difficulty]
HPDrainRate:7.5
CircleSize:4
OverallDifficulty:7.5
ApproachRate:5
SliderMultiplier:1.4
SliderTickRate:1

[Events]
//Background and Video events
0,0,"bg.jpg",0,0
//Break Periods
//Storyboard Layer 0 (Background)
//Storyboard Layer 1 (Fail)
//Storyboard Layer 2 (Pass)
//Storyboard Layer 3 (Foreground)
//Storyboard Layer 4 (Overlay)
//Storyboard Sound Samples

[TimingPoints]
1531,502.092050209205,3,2,1,50,1,0
13581,-100,3,2,1,50,0,1
18100,-100,3,2,1,50,0,0
31656,-100,3,2,1,50,0,1
52744,-100,3,2,1,50,0,0
88895,-100,3,2,1,50,0,1
108476,-100,3,2,1,50,0,0

[HitObjects]
64,192,1531,1,0,0:0:0:0:
320,192,1656,1,0,0:0:0:0:
192,192,1782,1,0,0:0:0:0:
320,192,1907,1,0,0:0:0:0:
64,192,2033,1,0,0:0:0:0:
64,192,2284,1,0,0:0:0:0:
320,192,2409,1,0,0:0:0:0:
192,192,2535,1,0,0:0:0:0:
448,192,2660,1,0,0:0:0:0:
320,192,2786,1,0,0:0:0:0:
64,192,3037,1,0,0:0:0:0:
320,192,3162,1,0,0:0:0:0:
192,192,3288,1,0,0:0:0:0:
320,192,3413,1,0,0:0:0:0:
64,192,3539,1,0,0:0:0:0:
64,192,3790,1,0,0:0:0:0:
320,192,3915,1,0,0:0:0:0:
192,192,4041,1,0,0:0:0:0:
448,192,4166,1,0,0:0:0:0:
320,192,4292,1,0,0:0:0:0:
192,192,4543,1,0,0:0:0:0:
320,192,4669,1,0,0:0:0:0:
192,192,4794,1,0,0:0:0:0:
320,192,4920,1,0,0:0:0:0:
64,192,5045,1,0,0:0:0:0:
192,192,5296,1,0,0:0:0:0:
320,192,5422,1,0,0:0:0:0:
192,192,5547,1,0,0:0:0:0:
448,192,5673,1,0,0:0:0:0:
320,192,5798,1,0,0:0:0:0:
64,192,6049,128,0,6300:0:0:0:0:
448,192,6300,128,0,6551:0:0:0:0:
320,192,6551,128,0,6802:0:0:0:0:
64,192,6802,128,0,7054:0:0:0:0:
192,192,7054,128,0,7305:0:0:0:0:
320,192,7305,128,0,7556:0:0:0:0:
64,192,7556,1,0,0:0:0:0:
448,192,7556,1,0,0:0:0:0:
320,192,7681,1,0,0:0:0:0:
192,192,7807,1,0,0:0:0:0:
320,192,7932,1,0,0:0:0:0:
64,192,8058,1,0,0:0:0:0:
64,192,8309,1,0,0:0:0:0:
448,192,8309,1,0,0:0:0:0:
320,192,8434,1,0,0:0:0:0:
192,192,8560,1,0,0:0:0:0:
448,192,8685,1,0,0:0:0:0:
320,192,8811,1,0,0:0:0:0:
64,192,9062,1,0,0:0:0:0:
448,192,9062,1,0,0:0:0:0:
320,192,9187,1,0,0:0:0:0:
192,192,9313,1,0,0:0:0:0:
320,192,9438,1,0,0:0:0:0:
64,192,9564,1,0,0:0:0:0:
64,192,9815,1,0,0:0:0:0:
448,192,9815,1,0,0:0:0:0:
320,192,9941,1,0,0:0:0:0:
192,192,10066,1,0,0:0:0:0:
448,192,10192,1,0,0:0:0:0:
320,192,10317,1,0,0:0:0:0:
64,192,10568,1,0,0:0:0:0:
448,192,10568,1,0,0:0:0:0:
320,192,10694,1,0,0:0:0:0:
192,192,10819,1,0,0:0:0:0:
320,192,10945,1,0,0:0:0:0:
64,192,11070,1,0,0:0:0:0:
64,192,11321,1,0,0:0:0:0:
448,192,11321,1,0,0:0:0:0:
320,192,11447,1,0,0:0:0:0:
192,192,11572,1,0,0:0:0:0:
448,192,11698,1,0,0:0:0:0:
320,192,11823,1,0,0:0:0:0:
64,192,12074,128,0,12325:0:0:0:0:
448,192,12325,128,0,12577:0:0:0:0:
320,192,12577,128,0,12828:0:0:0:0:
192,192,12828,1,0,0:0:0:0:
64,192,12953,1,0,0:0:0:0:
192,192,13079,128,0,13330:0:0:0:0:
320,192,13330,128,0,13581:0:0:0:0:
64,192,13581,1,6,0:0:0:0:
192,192,13581,1,0,0:0:0:20:LR_Chm High Long.wav
320,192,13832,1,0,0:0:0:50:LR_Snare Drum 2.wav
64,192,13957,1,8,0:0:0:0:
448,192,13957,1,0,0:0:0:20:LR_Chm High Long.wav
64,192,14208,1,0,0:0:0:50:LR_Drum Rim Fast.wav
192,192,14334,1,0,0:0:0:50:LR_Drum Rim Fast.wav
64,192,14585,1,8,0:0:0:0:
320,192,14585,1,0,0:0:0:0:
192,192,14836,1,8,0:0:0:0:
448,192,14836,1,0,0:0:0:0:
64,192,15087,1,4,0:0:0:0:
320,192,15087,1,2,0:0:0:0:
448,192,15087,1,0,0:0:0:20:LR_Chm High Long.wav
192,192,15338,1,0,0:0:0:50:LR_Snare Drum 2.wav
64,192,15464,1,8,0:0:0:0:
448,192,15464,1,0,0:0:0:20:LR_Chm High Long.wav
320,192,15589,1,0,0:0:0:50:LR_Snare Drum 2.wav
448,192,15840,1,0,0:0:0:50:LR_Drum Rim Fast.wav
320,192,15966,1,0,0:0:0:50:LR_Snare Drum 2.wav
192,192,16091,1,8,0:0:0:0:
448,192,16091,1,0,0:0:0:0:
64,192,16342,1,8,0:0:0:0:
320,192,16342,1,0,0:0:0:0:
64,192,16593,1,4,0:0:0:0:
192,192,16593,1,2,0:0:0:0:
448,192,16593,1,0,0:0:0:20:LR_Chm High Long.wav
320,192,16844,1,0,0:0:0:50:LR_Snare Drum 2.wav
64,192,16970,1,8,0:0:0:0:
448,192,16970,1,0,0:0:0:20:LR_Chm High Long.wav
64,192,17221,1,0,0:0:0:50:LR_Drum Rim Fast.wav
192,192,17346,1,0,0:0:0:50:LR_Drum Rim Fast.wav
64,192,17597,1,8,0:0:0:0:
448,192,17597,1,0,0:0:0:0:
64,192,17848,1,8,0:0:0:0:
448,192,17848,1,0,0:0:0:0:
64,192,18100,1,2,0:0:0:0:
320,192,18225,1,0,0:0:0:50:LR_Drum Rim Fast.wav
192,192,18351,1,0,0:0:0:50:LR_Snare Drum 2.wav
64,192,18476,1,8,0:0:0:0:
448,192,18476,1,0,0:0:0:20:LR_Chm High Long.wav
448,192,18727,1,0,0:0:0:50:LR_Drum Rim Fast.wav
320,192,18853,1,0,0:0:0:50:LR_Drum Rim Fast.wav
64,192,19104,1,8,0:0:0:0:
448,192,19104,1,0,0:0:0:0:
192,192,19229,1,10,0:0:0:0:
320,192,19355,128,2,19606:0:0:0:0:
64,192,19606,1,6,0:0:0:0:
320,192,19731,1,0,0:0:0:50:LR_Drum Rim Fast.wav
192,192,19857,1,2,0:0:0:0:
64,192,19982,1,8,0:0:0:0:
320,192,19982,1,0,0:0:0:20:LR_Chm High Long.wav
192,192,20108,1,0,0:0:0:50:LR_Snare Drum 2.wav
64,192,20359,1,0,0:0:0:50:LR_Drum Rim Fast.wav
320,192,20484,1,0,0:0:0:50:LR_Snare Drum 2.wav
64,192,20610,1,8,0:0:0:0:
448,192,20610,1,0,0:0:0:0:
192,192,20736,1,0,0:0:0:50:LR_Snare Drum 2.wav
64,192,20861,1,8,0:0:0:0:
448,192,20861,1,0,0:0:0:0:
64,192,21112,1,2,0:0:0:0:
320,192,21238,1,0,0:0:0:50:LR_Drum Rim Fast.wav
192,192,21363,1,2,0:0:0:0:
64,192,21489,1,8,0:0:0:0:
320,192,21489,1,0,0:0:0:20:LR_Chm High Long.wav
192,192,21614,1,0,0:0:0:50:LR_Snare Drum 2.wav
64,192,21865,1,0,0:0:0:50:LR_Drum Rim Fast.wav
320,192,21991,1,0,0:0:0:50:LR_Snare Drum 2.wav
64,192,22116,1,8,0:0:0:0:
448,192,22116,1,0,0:0:0:0:
192,192,22242,1,0,0:0:0:50:LR_Snare Drum 2.wav
64,192,22367,1,8,0:0:0:0:
448,192,22367,1,0,0:0:0:0:
192,192,22618,1,6,0:0:0:0:
320,192,22744,1,0,0:0:0:50:LR_Drum Rim Fast.wav
192,192,22869,1,2,0:0:0:0:
64,192,22995,1,8,0:0:0:0:
320,192,22995,1,0,0:0:0:20:LR_Chm High Long.wav
192,192,23120,1,0,0:0:0:50:LR_Snare Drum 2.wav
192,192,23372,1,0,0:0:0:50:LR_Drum Rim Fast.wav
320,192,23497,1,0,0:0:0:50:LR_Snare Drum 2.wav
64,192,23623,1,8,0:0:0:0:
448,192,23623,1,0,0:0:0:0:
192,192,23748,1,0,0:0:0:50:LR_Snare Drum 2.wav
64,192,23874,1,8,0:0:0:0:
448,192,23874,1,0,0:0:0:0:
64,192,24125,128,2,24376:0:0:0:0:
448,192,24376,128,2,24627:0:0:0:0:
192,192,24501,1,8,0:0:0:0:
320,192,24627,128,0,24878:0:0:0:50:LR_Snare Drum 2.wav
64,192,24878,128,0,25129:0:0:0:50:LR_Drum Rim Fast.wav
448,192,24878,1,0,0:0:0:20:LR_Chm High Long.wav
192,192,25129,128,8,25380:0:0:0:0:
448,192,25129,1,0,0:0:0:0:
320,192,25380,128,8,25631:0:0:0:0:
448,192,25380,1,0,0:0:0:0:
64,192,25631,1,2,0:0:0:0:
320,192,25756,1,0,0:0:0:50:LR_Drum Rim Fast.wav
192,192,25882,1,2,0:0:0:0:
64,192,26007,1,8,0:0:0:0:
320,192,26007,1,0,0:0:0:20:LR_Chm High Long.wav
192,192,26133,1,0,0:0:0:50:LR_Snare Drum 2.wav
64,192,26384,1,0,0:0:0:50:LR_Drum Rim Fast.wav
320,192,26510,1,0,0:0:0:50:LR_Snare Drum 2.wav
64,192,26635,1,8,0:0:0:0:
448,192,26635,1,0,0:0:0:0:
192,192,26761,1,0,0:0:0:50:LR_Snare Drum 2.wav
64,192,26886,1,8,0:0:0:0:
448,192,26886,1,0,0:0:0:0:
64,192,27137,1,2,0:0:0:0:
320,192,27263,1,0,0:0:0:50:LR_Drum Rim Fast.wav
192,192,27388,1,2,0:0:0:0:
64,192,27514,1,8,0:0:0:0:
320,192,27514,1,0,0:0:0:20:LR_Chm High Long.wav
192,192,27639,1,0,0:0:0:50:LR_Snare Drum 2.wav
448,192,27765,1,2,0:0:0:0:
192,192,27890,1,0,0:0:0:50:LR_Drum Rim Fast.wav
320,192,28016,1,0,0:0:0:50:LR_Snare Drum 2.wav
64,192,28141,1,8,0:0:0:0:
448,192,28141,1,0,0:0:0:0:
192,192,28267,1,0,0:0:0:50:LR_Snare Drum 2.wav
64,192,28392,1,8,0:0:0:0:
448,192,28392,1,0,0:0:0:0:
64,192,28643,1,0,0:0:0:0:
192,192,28769,1,0,0:0:0:0:
320,192,28895,1,0,0:0:0:0:
448,192,29020,1,0,0:0:0:0:
192,192,29146,1,0,0:0:0:0:
320,192,29271,1,0,0:0:0:0:
448,192,29397,1,0,0:0:0:0:
192,192,29522,1,0,0:0:0:0:
64,192,29648,1,0,0:0:0:0:
448,192,29773,1,0,0:0:0:0:
320,192,29899,1,0,0:0:0:0:
192,192,30024,1,0,0:0:0:0:
64,192,30150,128,0,30401:0:0:0:0:
448,192,30401,128,0,30652:0:0:0:0:
320,192,30652,128,0,30903:0:0:0:0:
192,192,30903,1,0,0:0:0:0:
64,192,31028,1,0,0:0:0:0:
192,192,31154,128,0,31405:0:0:0:0:
320,192,31405,128,0,31656:0:0:0:0:
64,192,31656,1,6,0:0:0:0:
192,192,31656,1,0,0:0:0:20:LR_Chm High Long.wav
320,192,31907,1,0,0:0:0:50:LR_Snare Drum 2.wav
64,192,32033,1,8,0:0:0:0:
448,192,32033,1,0,0:0:0:20:LR_Chm High Long.wav
64,192,32284,1,0,0:0:0:50:LR_Drum Rim Fast.wav
192,192,32409,1,0,0:0:0:50:LR_Drum Rim Fast.wav
64,192,32660,1,8,0:0:0:0:
320,192,32660,1,0,0:0:0:0:
192,192,32911,1,8,0:0:0:0:
448,192,32911,1,0,0:0:0:0:
64,192,33162,1,4,0:0:0:0:
320,192,33162,1,2,0:0:0:0:
448,192,33162,1,0,0:0:0:20:LR_Chm High Long.wav
192,192,33413,1,0,0:0:0:50:LR_Snare Drum 2.wav
64,192,33539,1,8,0:0:0:0:
448,192,33539,1,0,0:0:0:20:LR_Chm High Long.wav
320,192,33664,1,0,0:0:0:50:LR_Snare Drum 2.wav
448,192,33915,1,0,0:0:0:50:LR_Drum Rim Fast.wav
320,192,34041,1,0,0:0:0:50:LR_Snare Drum 2.wav
192,192,34166,1,8,0:0:0:0:
448,192,34166,1,0,0:0:0:0:
64,192,34418,1,8,0:0:0:0:
320,192,34418,1,0,0:0:0:0:
64,192,34669,1,4,0:0:0:0:
192,192,34669,1,2,0:0:0:0:
448,192,34669,1,0,0:0:0:20:LR_Chm High Long.wav
320,192,34920,1,0,0:0:0:50:LR_Snare Drum 2.wav
64,192,35045,1,8,0:0:0:0:
448,192,35045,1,0,0:0:0:20:LR_Chm High Long.wav
64,192,35296,1,0,0:0:0:50:LR_Drum Rim Fast.wav
192,192,35422,1,0,0:0:0:50:LR_Drum Rim Fast.wav
64,192,35673,1,8,0:0:0:0:
448,192,35673,1,0,0:0:0:0:
64,192,35924,1,8,0:0:0:0:
448,192,35924,1,0,0:0:0:0:
64,192,36175,1,2,0:0:0:0:
320,192,36300,1,0,0:0:0:50:LR_Drum Rim Fast.wav
192,192,36426,1,0,0:0:0:50:LR_Snare Drum 2.wav
64,192,36551,1,8,0:0:0:0:
448,192,36551,1,0,0:0:0:20:LR_Chm High Long.wav
448,192,36802,1,2,0:0:0:0:
192,192,36928,1,2,0:0:0:0:
320,192,36928,1,0,0:0:0:50:LR_Drum Rim Fast.wav
64,192,37179,1,8,0:0:0:0:
320,192,37179,1,0,0:0:0:0:
192,192,37430,1,8,0:0:0:0:
448,192,37430,1,0,0:0:0:0:
64,192,37681,1,4,0:0:0:0:
320,192,37681,1,2,0:0:0:0:
448,192,37681,1,0,0:0:0:20:LR_Chm High Long.wav
192,192,37932,1,2,0:0:0:0:
64,192,38058,1,8,0:0:0:0:
448,192,38058,1,0,0:0:0:20:LR_Chm High Long.wav
448,192,38309,1,0,0:0:0:50:LR_Drum Rim Fast.wav
320,192,38434,1,2,0:0:0:0:
192,192,38685,1,8,0:0:0:0:
448,192,38685,1,0,0:0:0:0:
64,192,38936,1,8,0:0:0:0:
320,192,38936,1,0,0:0:0:0:
64,192,39187,1,4,0:0:0:0:
192,192,39187,1,2,0:0:0:0:
448,192,39187,1,0,0:0:0:20:LR_Chm High Long.wav
320,192,39438,1,2,0:0:0:0:
64,192,39564,1,8,0:0:0:0:
448,192,39564,1,0,0:0:0:20:LR_Chm High Long.wav
192,192,39689,1,0,0:0:0:50:LR_Snare Drum 2.wav
64,192,39941,1,2,0:0:0:0:
192,192,40066,1,0,0:0:0:50:LR_Snare Drum 2.wav
64,192,40192,1,8,0:0:0:0:
320,192,40192,1,0,0:0:0:0:
192,192,40443,1,8,0:0:0:0:
448,192,40443,1,0,0:0:0:0:
64,192,40694,1,4,0:0:0:0:
320,192,40694,1,2,0:0:0:0:
448,192,40694,1,0,0:0:0:20:LR_Chm High Long.wav
192,192,40945,1,2,0:0:0:0:
64,192,41070,1,8,0:0:0:0:
448,192,41070,1,0,0:0:0:20:LR_Chm High Long.wav
448,192,41321,1,0,0:0:0:50:LR_Drum Rim Fast.wav
320,192,41447,1,2,0:0:0:0:
192,192,41698,1,8,0:0:0:0:
448,192,41698,1,0,0:0:0:0:
64,192,41949,1,8,0:0:0:0:
320,192,41949,1,0,0:0:0:0:
64,192,42200,1,4,0:0:0:0:
320,192,42200,1,2,0:0:0:0:
448,192,42200,1,0,0:0:0:20:LR_Chm High Long.wav
192,192,42325,1,0,0:0:0:50:LR_Drum Rim Fast.wav
320,192,42451,1,2,0:0:0:0:
64,192,42577,1,8,0:0:0:0:
448,192,42577,1,0,0:0:0:20:LR_Chm High Long.wav
64,192,42828,1,0,0:0:0:50:LR_Drum Rim Fast.wav
192,192,42953,1,2,0:0:0:0:
320,192,43079,1,0,0:0:0:50:LR_Snare Drum 2.wav
192,192,43204,1,8,0:0:0:0:
448,192,43204,1,0,0:0:0:0:
64,192,43455,1,8,0:0:0:0:
320,192,43455,1,0,0:0:0:0:
64,192,43706,1,2,0:0:0:0:
192,192,43706,1,0,0:0:0:20:LR_Chm High Long.wav
320,192,43957,1,2,0:0:0:0:
64,192,44083,1,8,0:0:0:0:
448,192,44083,1,0,0:0:0:0:
64,192,44334,1,0,0:0:0:50:LR_Drum Rim Fast.wav
192,192,44459,1,2,0:0:0:0:
64,192,44710,1,8,0:0:0:0:
320,192,44710,1,0,0:0:0:0:
192,192,44961,1,8,0:0:0:0:
448,192,44961,1,0,0:0:0:0:
64,192,45213,1,6,0:0:0:0:
448,192,45213,1,0,0:0:0:20:LR_Chm High Long.wav
192,192,45464,1,2,0:0:0:0:
64,192,45589,1,8,0:0:0:0:
448,192,45589,1,0,0:0:0:20:LR_Chm High Long.wav
320,192,45715,1,0,0:0:0:50:LR_Snare Drum 2.wav
448,192,45966,1,2,0:0:0:0:
320,192,46091,1,0,0:0:0:50:LR_Snare Drum 2.wav
192,192,46217,1,8,0:0:0:0:
448,192,46217,1,0,0:0:0:0:
64,192,46468,1,8,0:0:0:0:
320,192,46468,1,0,0:0:0:0:
64,192,46719,1,4,0:0:0:0:
192,192,46719,1,2,0:0:0:0:
448,192,46719,1,0,0:0:0:20:LR_Chm High Long.wav
320,192,46970,1,2,0:0:0:0:
64,192,47095,1,8,0:0:0:0:
448,192,47095,1,0,0:0:0:20:LR_Chm High Long.wav
64,192,47346,1,0,0:0:0:50:LR_Drum Rim Fast.wav
192,192,47472,1,2,0:0:0:0:
64,192,47723,1,8,0:0:0:0:
448,192,47723,1,0,0:0:0:0:
64,192,47974,1,8,0:0:0:0:
448,192,47974,1,0,0:0:0:0:
64,192,48225,1,4,0:0:0:0:
192,192,48225,1,2,0:0:0:0:
448,192,48225,1,0,0:0:0:20:LR_Chm High Long.wav
320,192,48351,1,0,0:0:0:50:LR_Drum Rim Fast.wav
192,192,48476,1,2,0:0:0:0:
64,192,48602,1,8,0:0:0:0:
448,192,48602,1,0,0:0:0:20:LR_Chm High Long.wav
192,192,48727,1,0,0:0:0:50:LR_Snare Drum 2.wav
448,192,48853,1,0,0:0:0:50:LR_Drum Rim Fast.wav
320,192,48978,1,2,0:0:0:0:
64,192,49229,1,8,0:0:0:0:
448,192,49229,1,0,0:0:0:0:
64,192,49480,1,8,0:0:0:0:
448,192,49480,1,0,0:0:0:0:
64,192,49731,1,4,0:0:0:0:
320,192,49731,1,2,0:0:0:0:
448,192,49731,1,0,0:0:0:20:LR_Chm High Long.wav
320,192,49857,1,0,0:0:0:50:LR_Drum Rim Fast.wav
192,192,50108,1,8,0:0:0:0:
448,192,50108,1,0,0:0:0:20:LR_Chm High Long.wav
320,192,50359,1,0,0:0:0:50:LR_Drum Rim Fast.wav
320,192,50484,1,2,0:0:0:0:
64,192,50736,1,8,0:0:0:0:
448,192,50736,1,0,0:0:0:0:
64,192,50987,1,8,0:0:0:0:
448,192,50987,1,0,0:0:0:0:
64,192,51238,1,4,0:0:0:0:
192,192,51238,1,2,0:0:0:0:
448,192,51238,1,0,0:0:0:20:LR_Chm High Long.wav
192,192,51363,1,0,0:0:0:50:LR_Drum Rim Fast.wav
64,192,51614,1,8,0:0:0:0:
320,192,51614,1,0,0:0:0:20:LR_Chm High Long.wav
192,192,51865,1,0,0:0:0:50:LR_Drum Rim Fast.wav
192,192,51991,1,8,0:0:0:0:
64,192,52242,1,8,0:0:0:0:
448,192,52242,1,0,0:0:0:0:
192,192,52493,1,8,0:0:0:0:
448,192,52493,1,0,0:0:0:0:
192,192,52744,1,0,0:0:0:0:
320,192,52869,1,0,0:0:0:0:
192,192,52995,1,0,0:0:0:0:
320,192,53120,1,0,0:0:0:0:
64,192,53246,1,0,0:0:0:0:
192,192,53497,1,0,0:0:0:0:
320,192,53623,1,0,0:0:0:0:
192,192,53748,1,0,0:0:0:0:
448,192,53874,1,0,0:0:0:0:
320,192,53999,1,0,0:0:0:0:
192,192,54250,1,0,0:0:0:0:
320,192,54376,1,0,0:0:0:0:
192,192,54501,1,0,0:0:0:0:
320,192,54627,1,0,0:0:0:0:
64,192,54752,1,0,0:0:0:0:
192,192,55003,1,0,0:0:0:0:
320,192,55129,1,0,0:0:0:0:
192,192,55254,1,0,0:0:0:0:
448,192,55380,1,0,0:0:0:0:
320,192,55505,1,0,0:0:0:0:
320,192,55756,128,0,56007:0:0:0:0:
64,192,56007,1,0,0:0:0:0:
192,192,56007,1,0,0:0:0:0:
64,192,56259,1,0,0:0:0:0:
320,192,56510,1,0,0:0:0:0:
448,192,56510,1,0,0:0:0:0:
448,192,56761,1,0,0:0:0:0:
64,192,57012,1,0,0:0:0:0:
192,192,57012,1,0,0:0:0:0:
448,192,57263,1,0,0:0:0:0:
320,192,57388,128,0,57514:0:0:0:0:
64,192,57514,1,0,0:0:0:0:
192,192,57514,1,0,0:0:0:0:
192,192,57765,1,0,0:0:0:0:
320,192,58016,1,0,0:0:0:0:
448,192,58016,1,0,0:0:0:0:
320,192,58267,1,0,0:0:0:0:
192,192,58392,1,0,0:0:0:0:
64,192,58518,1,0,0:0:0:0:
320,192,58769,1,2,0:0:0:0:
448,192,58769,1,0,0:0:0:0:
192,192,59020,1,2,0:0:0:0:
64,192,59146,1,8,0:0:0:0:
448,192,59146,1,0,0:0:0:0:
192,192,59271,1,0,0:0:0:0:
320,192,59397,1,2,0:0:0:0:
64,192,59522,1,2,0:0:0:0:
192,192,59522,1,0,0:0:0:0:
64,192,59773,1,8,0:0:0:0:
448,192,59773,1,0,0:0:0:0:
64,192,60024,1,8,0:0:0:0:
448,192,60024,1,0,0:0:0:0:
64,192,60275,1,2,0:0:0:0:
192,192,60275,1,0,0:0:0:0:
448,192,60401,1,0,0:0:0:0:
320,192,60526,1,2,0:0:0:0:
64,192,60652,1,8,0:0:0:0:
448,192,60652,1,0,0:0:0:0:
192,192,60777,1,0,0:0:0:0:
448,192,60903,1,2,0:0:0:0:
64,192,61028,1,2,0:0:0:0:
192,192,61028,1,0,0:0:0:0:
64,192,61279,1,8,0:0:0:0:
448,192,61279,1,0,0:0:0:0:
64,192,61531,1,8,0:0:0:0:
448,192,61531,1,0,0:0:0:0:
320,192,61782,128,2,62033:0:0:0:0:
192,192,62033,1,2,0:0:0:0:
64,192,62158,1,8,0:0:0:0:
448,192,62158,1,0,0:0:0:0:
320,192,62284,1,0,0:0:0:0:
192,192,62409,1,2,0:0:0:0:
320,192,62535,1,2,0:0:0:0:
448,192,62535,1,0,0:0:0:0:
64,192,62786,1,8,0:0:0:0:
448,192,62786,1,0,0:0:0:0:
64,192,63037,1,8,0:0:0:0:
448,192,63037,1,2,0:0:0:0:
64,192,63288,128,2,63539:0:0:0:0:
192,192,63288,1,0,0:0:0:0:
448,192,63539,128,2,63790:0:0:0:0:
320,192,63790,128,2,64041:0:0:0:0:
64,192,64041,1,2,0:0:0:0:
192,192,64166,1,2,0:0:0:0:
320,192,64292,128,10,64543:0:0:0:0:
448,192,64543,128,8,64794:0:0:0:0:
64,192,64794,1,2,0:0:0:0:
192,192,64794,1,0,0:0:0:20:LR_Chm High Long.wav
320,192,65045,1,0,0:0:0:50:LR_Snare Drum 2.wav
64,192,65171,1,8,0:0:0:0:
448,192,65171,1,0,0:0:0:20:LR_Chm High Long.wav
320,192,65296,1,0,0:0:0:50:LR_Snare Drum 2.wav
192,192,65422,1,0,0:0:0:50:LR_Drum Rim Fast.wav
320,192,65547,1,0,0:0:0:50:LR_Drum Rim Fast.wav
448,192,65547,1,0,0:0:0:20:LR_Chm High Long.wav
64,192,65798,1,8,0:0:0:0:
448,192,65798,1,0,0:0:0:0:
64,192,66049,1,8,0:0:0:0:
448,192,66049,1,0,0:0:0:0:
320,192,66300,1,2,0:0:0:0:
448,192,66300,1,0,0:0:0:20:LR_Chm High Long.wav
192,192,66551,1,0,0:0:0:50:LR_Snare Drum 2.wav
64,192,66677,1,8,0:0:0:0:
448,192,66677,1,0,0:0:0:20:LR_Chm High Long.wav
192,192,66802,1,0,0:0:0:50:LR_Snare Drum 2.wav
320,192,66928,1,0,0:0:0:50:LR_Drum Rim Fast.wav
192,192,67054,1,0,0:0:0:50:LR_Drum Rim Fast.wav
64,192,67054,1,0,0:0:0:20:LR_Chm High Long.wav
64,192,67305,1,8,0:0:0:0:
448,192,67305,1,0,0:0:0:0:
64,192,67556,1,8,0:0:0:0:
448,192,67556,1,0,0:0:0:0:
64,192,67807,1,2,0:0:0:0:
192,192,67807,1,0,0:0:0:20:LR_Chm High Long.wav
320,192,68058,1,0,0:0:0:50:LR_Snare Drum 2.wav
64,192,68183,1,8,0:0:0:0:
448,192,68183,1,0,0:0:0:20:LR_Chm High Long.wav
320,192,68309,1,0,0:0:0:50:LR_Snare Drum 2.wav
192,192,68434,1,0,0:0:0:50:LR_Drum Rim Fast.wav
320,192,68560,1,0,0:0:0:50:LR_Drum Rim Fast.wav
448,192,68560,1,0,0:0:0:20:LR_Chm High Long.wav
64,192,68811,1,8,0:0:0:0:
448,192,68811,1,0,0:0:0:0:
64,192,69062,1,8,0:0:0:0:
448,192,69062,1,0,0:0:0:0:
320,192,69313,1,2,0:0:0:0:
448,192,69313,1,0,0:0:0:20:LR_Chm High Long.wav
192,192,69564,1,0,0:0:0:50:LR_Snare Drum 2.wav
64,192,69689,1,8,0:0:0:0:
448,192,69689,1,0,0:0:0:20:LR_Chm High Long.wav
192,192,69815,1,0,0:0:0:50:LR_Drum Rim Fast.wav
320,192,69941,1,0,0:0:0:50:LR_Drum Rim Fast.wav
192,192,70066,1,0,0:0:0:50:LR_Drum Rim Fast.wav
64,192,70066,1,0,0:0:0:20:LR_Chm High Long.wav
64,192,70317,1,8,0:0:0:0:
448,192,70317,1,0,0:0:0:0:
64,192,70568,1,2,0:0:0:0:
448,192,70568,1,0,0:0:0:50:LR_Drum Rim Fast.wav
64,192,70819,1,2,0:0:0:0:
192,192,70819,1,0,0:0:0:20:LR_Chm High Long.wav
320,192,71070,1,2,0:0:0:0:
64,192,71196,1,8,0:0:0:0:
448,192,71196,1,0,0:0:0:20:LR_Chm High Long.wav
192,192,71321,1,0,0:0:0:50:LR_Snare Drum 2.wav
320,192,71447,1,0,0:0:0:50:LR_Drum Rim Fast.wav
64,192,71572,1,2,0:0:0:0:
192,192,71572,1,0,0:0:0:20:LR_Chm High Long.wav
64,192,71823,1,8,0:0:0:0:
448,192,71823,1,0,0:0:0:0:
64,192,72074,1,8,0:0:0:0:
448,192,72074,1,0,0:0:0:0:
320,192,72325,1,2,0:0:0:0:
448,192,72325,1,0,0:0:0:20:LR_Chm High Long.wav
192,192,72577,1,2,0:0:0:0:
64,192,72702,1,8,0:0:0:0:
448,192,72702,1,0,0:0:0:20:LR_Chm High Long.wav
320,192,72828,1,0,0:0:0:50:LR_Snare Drum 2.wav
192,192,72953,1,0,0:0:0:50:LR_Drum Rim Fast.wav
320,192,73079,1,2,0:0:0:0:
448,192,73079,1,0,0:0:0:20:LR_Chm High Long.wav
64,192,73330,1,8,0:0:0:0:
448,192,73330,1,0,0:0:0:0:
64,192,73581,1,8,0:0:0:0:
448,192,73581,1,0,0:0:0:0:
320,192,73832,128,2,74083:0:0:0:0:
192,192,74083,1,2,0:0:0:0:
64,192,74208,1,8,0:0:0:0:
448,192,74208,1,0,0:0:0:20:LR_Chm High Long.wav
320,192,74334,1,0,0:0:0:50:LR_Snare Drum 2.wav
192,192,74459,1,0,0:0:0:50:LR_Drum Rim Fast.wav
320,192,74585,1,2,0:0:0:0:
448,192,74585,1,0,0:0:0:20:LR_Chm High Long.wav
64,192,74836,1,8,0:0:0:0:
448,192,74836,1,0,0:0:0:0:
64,192,75087,1,8,0:0:0:0:
448,192,75087,1,0,0:0:0:0:
64,192,75338,1,2,0:0:0:0:
192,192,75338,1,0,0:0:0:20:LR_Chm High Long.wav
320,192,75464,128,0,75589:0:0:0:50:LR_Drum Rim Fast.wav
192,192,75589,1,2,0:0:0:0:
64,192,75715,1,8,0:0:0:0:
448,192,75715,1,0,0:0:0:20:LR_Chm High Long.wav
192,192,75840,1,0,0:0:0:50:LR_Snare Drum 2.wav
320,192,75966,1,0,0:0:0:50:LR_Drum Rim Fast.wav
64,192,76091,1,2,0:0:0:0:
192,192,76091,1,0,0:0:0:20:LR_Chm High Long.wav
64,192,76342,1,8,0:0:0:0:
448,192,76342,1,0,0:0:0:0:
320,192,76468,1,0,0:0:0:50:LR_Snare Drum 2.wav
64,192,76593,1,8,0:0:0:0:
448,192,76593,1,0,0:0:0:0:
64,192,76844,1,2,0:0:0:0:
192,192,76844,1,0,0:0:0:20:LR_Chm High Long.wav
320,192,77095,1,2,0:0:0:0:
64,192,77221,1,8,0:0:0:0:
448,192,77221,1,0,0:0:0:20:LR_Chm High Long.wav
320,192,77346,1,0,0:0:0:50:LR_Snare Drum 2.wav
192,192,77472,1,0,0:0:0:50:LR_Drum Rim Fast.wav
320,192,77597,1,2,0:0:0:0:
448,192,77597,1,0,0:0:0:20:LR_Chm High Long.wav
64,192,77848,1,8,0:0:0:0:
448,192,77848,1,0,0:0:0:0:
64,192,78100,1,8,0:0:0:0:
448,192,78100,1,0,0:0:0:0:
320,192,78351,1,2,0:0:0:0:
448,192,78351,1,0,0:0:0:20:LR_Chm High Long.wav
192,192,78602,1,2,0:0:0:0:
64,192,78727,1,8,0:0:0:0:
448,192,78727,1,0,0:0:0:20:LR_Chm High Long.wav
192,192,78853,1,0,0:0:0:50:LR_Snare Drum 2.wav
320,192,78978,1,0,0:0:0:50:LR_Drum Rim Fast.wav
192,192,79104,1,2,0:0:0:0:
64,192,79104,1,0,0:0:0:20:LR_Chm High Long.wav
64,192,79355,1,8,0:0:0:0:
448,192,79355,1,0,0:0:0:0:
64,192,79606,1,8,0:0:0:0:
448,192,79606,1,0,0:0:0:0:
64,192,79857,1,2,0:0:0:0:
192,192,79857,1,0,0:0:0:20:LR_Chm High Long.wav
320,192,80108,1,2,0:0:0:0:
64,192,80233,1,8,0:0:0:0:
448,192,80233,1,0,0:0:0:20:LR_Chm High Long.wav
320,192,80359,1,0,0:0:0:50:LR_Snare Drum 2.wav
192,192,80484,1,0,0:0:0:50:LR_Drum Rim Fast.wav
320,192,80610,1,2,0:0:0:0:
448,192,80610,1,0,0:0:0:20:LR_Chm High Long.wav
64,192,80861,1,8,0:0:0:0:
448,192,80861,1,0,0:0:0:0:
64,192,81112,1,8,0:0:0:0:
448,192,81112,1,0,0:0:0:0:
320,192,81363,1,2,0:0:0:0:
448,192,81363,1,0,0:0:0:20:LR_Chm High Long.wav
192,192,81614,1,2,0:0:0:0:
64,192,81740,1,8,0:0:0:0:
448,192,81740,1,0,0:0:0:20:LR_Chm High Long.wav
192,192,81865,1,0,0:0:0:50:LR_Snare Drum 2.wav
320,192,81991,1,0,0:0:0:50:LR_Drum Rim Fast.wav
192,192,82116,1,2,0:0:0:0:
64,192,82116,1,0,0:0:0:20:LR_Chm High Long.wav
64,192,82367,1,8,0:0:0:0:
448,192,82367,1,0,0:0:0:0:
64,192,82618,1,8,0:0:0:0:
448,192,82618,1,0,0:0:0:0:
64,192,82869,1,2,0:0:0:0:
192,192,82869,1,0,0:0:0:20:LR_Chm High Long.wav
320,192,83120,1,2,0:0:0:0:
64,192,83246,1,8,0:0:0:0:
448,192,83246,1,0,0:0:0:20:LR_Chm High Long.wav
192,192,83372,1,0,0:0:0:50:LR_Snare Drum 2.wav
320,192,83497,1,0,0:0:0:50:LR_Drum Rim Fast.wav
64,192,83623,1,2,0:0:0:0:
192,192,83623,1,0,0:0:0:20:LR_Chm High Long.wav
64,192,83874,1,8,0:0:0:0:
448,192,83874,1,0,0:0:0:0:
64,192,84125,1,8,0:0:0:0:
448,192,84125,1,0,0:0:0:0:
320,192,84376,1,2,0:0:0:0:
448,192,84376,1,0,0:0:0:20:LR_Chm High Long.wav
192,192,84627,1,2,0:0:0:0:
64,192,84752,1,8,0:0:0:0:
448,192,84752,1,0,0:0:0:20:LR_Chm High Long.wav
320,192,84878,1,0,0:0:0:50:LR_Snare Drum 2.wav
192,192,85003,1,0,0:0:0:50:LR_Drum Rim Fast.wav
320,192,85129,1,8,0:0:0:0:
448,192,85129,1,0,0:0:0:20:LR_Chm High Long.wav
64,192,85380,1,8,0:0:0:0:
448,192,85380,1,0,0:0:0:0:
64,192,85631,1,8,0:0:0:0:
448,192,85631,1,0,0:0:0:0:
64,192,85882,1,0,0:0:0:0:
320,192,86007,1,0,0:0:0:0:
192,192,86133,1,0,0:0:0:0:
320,192,86259,1,0,0:0:0:0:
64,192,86384,1,0,0:0:0:0:
64,192,86635,1,0,0:0:0:0:
320,192,86761,1,0,0:0:0:0:
192,192,86886,1,0,0:0:0:0:
448,192,87012,1,0,0:0:0:0:
320,192,87137,1,0,0:0:0:0:
64,192,87388,128,0,87639:0:0:0:0:
448,192,87639,128,0,87890:0:0:0:0:
320,192,87890,128,0,88141:0:0:0:0:
192,192,88141,1,0,0:0:0:0:
64,192,88267,1,0,0:0:0:0:
192,192,88392,128,0,88643:0:0:0:0:
320,192,88643,128,0,88895:0:0:0:0:
64,192,88895,1,6,0:0:0:0:
192,192,88895,1,0,0:0:0:20:LR_Chm High Long.wav
320,192,89146,1,0,0:0:0:50:LR_Snare Drum 2.wav
64,192,89271,1,8,0:0:0:0:
448,192,89271,1,0,0:0:0:20:LR_Chm High Long.wav
64,192,89522,1,0,0:0:0:50:LR_Drum Rim Fast.wav
192,192,89648,1,0,0:0:0:50:LR_Drum Rim Fast.wav
64,192,89899,1,8,0:0:0:0:
320,192,89899,1,0,0:0:0:0:
192,192,90150,1,8,0:0:0:0:
448,192,90150,1,0,0:0:0:0:
64,192,90401,1,4,0:0:0:0:
320,192,90401,1,2,0:0:0:0:
448,192,90401,1,0,0:0:0:20:LR_Chm High Long.wav
192,192,90652,1,0,0:0:0:50:LR_Snare Drum 2.wav
64,192,90777,1,8,0:0:0:0:
448,192,90777,1,0,0:0:0:20:LR_Chm High Long.wav
320,192,90903,1,0,0:0:0:50:LR_Snare Drum 2.wav
448,192,91154,1,0,0:0:0:50:LR_Drum Rim Fast.wav
320,192,91279,1,0,0:0:0:50:LR_Snare Drum 2.wav
192,192,91405,1,8,0:0:0:0:
448,192,91405,1,0,0:0:0:0:
64,192,91656,1,8,0:0:0:0:
320,192,91656,1,0,0:0:0:0:
64,192,91907,1,4,0:0:0:0:
192,192,91907,1,2,0:0:0:0:
448,192,91907,1,0,0:0:0:20:LR_Chm High Long.wav
320,192,92158,1,0,0:0:0:50:LR_Snare Drum 2.wav
64,192,92284,1,8,0:0:0:0:
448,192,92284,1,0,0:0:0:20:LR_Chm High Long.wav
64,192,92535,1,0,0:0:0:50:LR_Drum Rim Fast.wav
192,192,92660,1,0,0:0:0:50:LR_Drum Rim Fast.wav
64,192,92911,1,8,0:0:0:0:
448,192,92911,1,0,0:0:0:0:
64,192,93162,1,8,0:0:0:0:
448,192,93162,1,0,0:0:0:0:
64,192,93413,1,2,0:0:0:0:
320,192,93539,1,0,0:0:0:50:LR_Drum Rim Fast.wav
192,192,93664,1,0,0:0:0:50:LR_Snare Drum 2.wav
64,192,93790,1,8,0:0:0:0:
448,192,93790,1,0,0:0:0:20:LR_Chm High Long.wav
448,192,94041,1,2,0:0:0:0:
320,192,94166,1,2,0:0:0:0:
64,192,94418,1,8,0:0:0:0:
320,192,94418,1,0,0:0:0:0:
192,192,94669,1,8,0:0:0:0:
448,192,94669,1,0,0:0:0:0:
64,192,94920,1,4,0:0:0:0:
320,192,94920,1,2,0:0:0:0:
448,192,94920,1,0,0:0:0:20:LR_Chm High Long.wav
192,192,95171,1,2,0:0:0:0:
64,192,95296,1,8,0:0:0:0:
448,192,95296,1,0,0:0:0:20:LR_Chm High Long.wav
448,192,95547,1,0,0:0:0:50:LR_Drum Rim Fast.wav
320,192,95673,1,2,0:0:0:0:
192,192,95924,1,8,0:0:0:0:
448,192,95924,1,0,0:0:0:0:
64,192,96175,1,8,0:0:0:0:
320,192,96175,1,0,0:0:0:0:
64,192,96426,1,4,0:0:0:0:
192,192,96426,1,2,0:0:0:0:
448,192,96426,1,0,0:0:0:20:LR_Chm High Long.wav
320,192,96677,1,2,0:0:0:0:
64,192,96802,1,8,0:0:0:0:
448,192,96802,1,0,0:0:0:20:LR_Chm High Long.wav
192,192,96928,1,0,0:0:0:50:LR_Snare Drum 2.wav
64,192,97179,1,2,0:0:0:0:
192,192,97305,1,0,0:0:0:50:LR_Snare Drum 2.wav
64,192,97430,1,8,0:0:0:0:
320,192,97430,1,0,0:0:0:0:
192,192,97681,1,8,0:0:0:0:
448,192,97681,1,0,0:0:0:0:
64,192,97932,1,4,0:0:0:0:
320,192,97932,1,2,0:0:0:0:
448,192,97932,1,0,0:0:0:20:LR_Chm High Long.wav
192,192,98183,1,2,0:0:0:0:
64,192,98309,1,8,0:0:0:0:
448,192,98309,1,0,0:0:0:20:LR_Chm High Long.wav
448,192,98560,1,0,0:0:0:50:LR_Drum Rim Fast.wav
320,192,98685,1,2,0:0:0:0:
192,192,98936,1,8,0:0:0:0:
448,192,98936,1,0,0:0:0:0:
64,192,99187,1,8,0:0:0:0:
320,192,99187,1,0,0:0:0:0:
64,192,99438,1,4,0:0:0:0:
320,192,99438,1,2,0:0:0:0:
448,192,99438,1,0,0:0:0:20:LR_Chm High Long.wav
192,192,99564,1,0,0:0:0:50:LR_Drum Rim Fast.wav
320,192,99689,1,2,0:0:0:0:
64,192,99815,1,8,0:0:0:0:
448,192,99815,1,0,0:0:0:20:LR_Chm High Long.wav
64,192,100066,1,0,0:0:0:50:LR_Drum Rim Fast.wav
192,192,100192,1,2,0:0:0:0:
320,192,100317,1,0,0:0:0:50:LR_Snare Drum 2.wav
192,192,100443,1,8,0:0:0:0:
448,192,100443,1,0,0:0:0:0:
64,192,100694,1,8,0:0:0:0:
320,192,100694,1,0,0:0:0:0:
64,192,100945,1,2,0:0:0:0:
192,192,100945,1,0,0:0:0:20:LR_Chm High Long.wav
320,192,101196,1,2,0:0:0:0:
64,192,101321,1,8,0:0:0:0:
448,192,101321,1,0,0:0:0:0:
64,192,101572,1,0,0:0:0:50:LR_Drum Rim Fast.wav
192,192,101698,1,2,0:0:0:0:
64,192,101949,1,8,0:0:0:0:
320,192,101949,1,0,0:0:0:0:
192,192,102200,1,8,0:0:0:0:
448,192,102200,1,0,0:0:0:0:
64,192,102451,1,4,0:0:0:0:
320,192,102451,1,2,0:0:0:0:
448,192,102451,1,0,0:0:0:20:LR_Chm High Long.wav
192,192,102702,1,2,0:0:0:0:
64,192,102828,1,8,0:0:0:0:
448,192,102828,1,0,0:0:0:20:LR_Chm High Long.wav
320,192,102953,1,0,0:0:0:50:LR_Snare Drum 2.wav
448,192,103204,1,2,0:0:0:0:
320,192,103330,1,0,0:0:0:50:LR_Snare Drum 2.wav
192,192,103455,1,8,0:0:0:0:
448,192,103455,1,0,0:0:0:0:
64,192,103706,1,8,0:0:0:0:
320,192,103706,1,0,0:0:0:0:
64,192,103957,1,4,0:0:0:0:
192,192,103957,1,2,0:0:0:0:
448,192,103957,1,0,0:0:0:20:LR_Chm High Long.wav
320,192,104208,1,2,0:0:0:0:
64,192,104334,1,8,0:0:0:0:
448,192,104334,1,0,0:0:0:20:LR_Chm High Long.wav
64,192,104585,1,0,0:0:0:50:LR_Drum Rim Fast.wav
192,192,104710,1,2,0:0:0:0:
64,192,104961,1,8,0:0:0:0:
320,192,104961,1,0,0:0:0:0:
192,192,105213,1,8,0:0:0:0:
448,192,105213,1,0,0:0:0:0:
64,192,105464,1,4,0:0:0:0:
320,192,105464,1,2,0:0:0:0:
448,192,105464,1,0,0:0:0:20:LR_Chm High Long.wav
192,192,105715,1,2,0:0:0:0:
64,192,105840,1,8,0:0:0:0:
448,192,105840,1,0,0:0:0:20:LR_Chm High Long.wav
320,192,105966,1,0,0:0:0:50:LR_Snare Drum 2.wav
448,192,106217,1,2,0:0:0:0:
320,192,106342,1,0,0:0:0:50:LR_Snare Drum 2.wav
192,192,106468,1,8,0:0:0:0:
448,192,106468,1,0,0:0:0:0:
64,192,106719,1,8,0:0:0:0:
320,192,106719,1,0,0:0:0:0:
64,192,106970,1,4,0:0:0:0:
192,192,106970,1,2,0:0:0:0:
448,192,106970,1,0,0:0:0:20:LR_Chm High Long.wav
320,192,107221,1,2,0:0:0:0:
64,192,107346,1,8,0:0:0:0:
448,192,107346,1,0,0:0:0:20:LR_Chm High Long.wav
192,192,107472,1,0,0:0:0:50:LR_Snare Drum 2.wav
320,192,107597,1,0,0:0:0:50:LR_Drum Rim Fast.wav
192,192,107723,1,2,0:0:0:0:
64,192,107974,1,8,0:0:0:0:
320,192,107974,1,0,0:0:0:0:
192,192,108225,1,8,0:0:0:0:
448,192,108225,1,0,0:0:0:0:
64,192,108476,1,6,0:0:0:0:
192,192,108476,1,0,0:0:0:20:LR_Chm High Long.wav
448,192,108727,1,2,0:0:0:0:
64,192,108853,1,8,0:0:0:0:
320,192,108853,1,0,0:0:0:20:LR_Chm High Long.wav
64,192,109104,1,0,0:0:0:50:LR_Drum Rim Fast.wav
320,192,109229,1,8,0:0:0:0:
64,192,109480,1,8,0:0:0:0:
448,192,109480,1,0,0:0:0:0:
64,192,109731,1,8,0:0:0:0:
448,192,109731,1,0,0:0:0:0:
