osu file format v14

[General]
AudioFilename: audio.mp3
AudioLeadIn: 0
PreviewTime: 82460
Countdown: 0
SampleSet: Soft
StackLeniency: 0.7
Mode: 3
LetterboxInBreaks: 0
SpecialStyle: 0
WidescreenStoryboard: 0

[Editor]
Bookmarks: 509,12216,16118,31728,47338,66850,82460,94167,103923
DistanceSpacing: 1
BeatDivisor: 4
GridSize: 4
TimelineZoom: 1.6

[Metadata]
Title:Hate You
TitleUnicode:Hate You
Artist:toby fox
ArtistUnicode:toby fox
Creator:Weber
Version:NM
Source:Homestuck
Tags:Feferi Meenah Peixes Her Imperious Condescension Vol. Volume 9 Soundtrack OST andrew hussie radiation Ayyri
BeatmapID:1385387
BeatmapSetID:653271

[Difficulty]
HPDrainRate:7.5
CircleSize:4
OverallDifficulty:7.5
ApproachRate:5
SliderMultiplier:1.4
SliderTickRate:1

[Events]
//Background and Video events
0,0,"xd.png",0,0
//Break Periods
//Storyboard Layer 0 (Background)
//Storyboard Layer 1 (Fail)
//Storyboard Layer 2 (Pass)
//Storyboard Layer 3 (Foreground)
//Storyboard Sound Samples

[TimingPoints]
509,487.80487804878,4,2,1,25,1,0
100996,-100,4,2,1,20,0,0
101972,-100,4,2,1,15,0,0
102948,-100,4,2,1,10,0,0
103923,-100,4,2,1,5,0,0

[HitObjects]
320,192,21,5,2,0:0:0:0:
64,192,509,1,4,0:1:0:0:
192,192,509,1,0,0:0:0:0:
448,192,996,1,10,0:0:0:0:
192,192,996,1,8,0:0:0:0:
64,192,1240,1,12,0:0:0:0:
320,192,1484,1,8,0:1:0:0:
192,192,1728,1,0,0:0:0:0:
448,192,1972,1,0,0:0:0:0:
320,192,2094,1,0,0:0:0:0:
192,192,2216,1,8,0:0:0:0:
64,192,2338,1,0,0:0:0:0:
320,192,2460,1,6,0:0:0:0:
192,192,2704,1,4,0:0:0:0:
64,192,2826,1,4,0:0:0:0:
320,192,3069,1,4,0:0:0:0:
448,192,3191,1,12,0:0:0:0:
192,192,3435,1,8,0:1:0:0:
64,192,3435,1,0,0:0:0:0:
64,192,3801,1,0,0:0:0:0:
64,192,4167,1,12,0:0:0:0:
448,192,4411,1,4,0:0:0:0:
320,192,4411,1,0,0:0:0:0:
448,192,4899,1,10,0:0:0:0:
192,192,4899,1,0,0:0:0:0:
64,192,5143,1,4,0:0:0:0:
320,192,5387,1,8,0:1:0:0:
192,192,5630,1,0,0:0:0:0:
448,192,5874,1,0,0:0:0:0:
320,192,5996,1,0,0:0:0:0:
192,192,6118,1,8,0:0:0:0:
320,192,6240,1,0,0:0:0:0:
64,192,6362,1,6,0:0:0:0:
448,192,6606,1,4,0:0:0:0:
320,192,6728,1,4,0:0:0:0:
64,192,6972,1,4,0:0:0:0:
192,192,7094,1,12,0:0:0:0:
320,192,7338,1,8,0:1:0:0:
448,192,7338,1,0,0:0:0:0:
448,192,7704,1,8,0:0:0:0:
448,192,8069,1,12,0:0:0:0:
64,192,8313,1,4,0:0:0:0:
192,192,8313,1,0,0:0:0:0:
320,192,8801,1,10,0:0:0:0:
448,192,8801,1,0,0:0:0:0:
64,192,9045,1,12,0:0:0:0:
448,192,9289,1,8,0:1:0:0:
64,192,9533,1,0,0:0:0:0:
320,192,9777,1,0,0:0:0:0:
448,192,9899,1,0,0:0:0:0:
192,192,10021,1,8,0:0:0:0:
320,192,10143,1,0,0:0:0:0:
64,192,10265,1,6,0:0:0:0:
448,192,10508,1,4,0:0:0:0:
320,192,10630,1,4,0:0:0:0:
64,192,10874,1,4,0:0:0:0:
192,192,10996,1,12,0:0:0:0:
320,192,11240,1,8,0:1:0:0:
448,192,11240,1,0,0:0:0:0:
64,192,11728,1,0,0:0:0:0:
192,192,11728,1,0,0:0:0:0:
320,192,12216,1,4,0:0:0:0:
192,192,12216,128,4,12541:0:0:0:0:
64,192,12541,128,0,12866:0:0:0:0:
448,192,12866,128,0,13191:0:0:0:0:
320,192,13191,128,8,13679:0:1:0:0:
192,192,14167,128,4,14411:0:0:0:0:
64,192,14411,128,4,14533:0:0:0:0:
448,192,14533,128,4,14655:0:0:0:0:
320,192,14655,128,12,14899:0:0:0:0:
192,192,14899,128,8,15143:0:0:0:0:
320,192,15143,128,8,15630:0:1:0:0:
192,192,15630,1,8,0:0:0:0:
64,192,15752,1,8,0:0:0:0:
448,192,15874,1,12,0:0:0:0:
320,192,15996,1,8,0:0:0:0:
192,192,16118,1,4,0:1:0:0:
64,192,16118,1,0,0:0:0:0:
448,192,16606,1,8,0:0:0:0:
320,192,16606,1,2,0:0:0:0:
192,192,16850,1,12,0:0:0:0:
64,192,17094,1,8,0:1:0:0:
320,192,17338,1,0,0:0:0:0:
448,192,17582,1,0,0:0:0:0:
192,192,17704,1,0,0:0:0:0:
320,192,17826,1,8,0:0:0:0:
64,192,17948,1,0,0:0:0:0:
192,192,18069,1,6,0:0:0:0:
448,192,18313,1,4,0:0:0:0:
320,192,18435,1,4,0:0:0:0:
64,192,18679,1,4,0:0:0:0:
192,192,18801,1,12,0:0:0:0:
448,192,19045,1,8,0:1:0:0:
320,192,19045,1,0,0:0:0:0:
320,192,19411,1,8,0:0:0:0:
320,192,19777,1,12,0:0:0:0:
64,192,20021,1,4,0:0:0:0:
192,192,20021,1,0,0:0:0:0:
320,192,20508,1,10,0:0:0:0:
448,192,20508,1,0,0:0:0:0:
64,192,20752,1,4,0:0:0:0:
320,192,20996,1,8,0:1:0:0:
192,192,21240,1,0,0:0:0:0:
448,192,21484,1,0,0:0:0:0:
320,192,21606,1,0,0:0:0:0:
64,192,21728,1,8,0:0:0:0:
448,192,21850,1,0,0:0:0:0:
192,192,21972,1,6,0:0:0:0:
64,192,22216,1,4,0:0:0:0:
192,192,22338,1,4,0:0:0:0:
448,192,22582,1,4,0:0:0:0:
320,192,22704,1,12,0:0:0:0:
64,192,22948,1,8,0:1:0:0:
192,192,22948,1,0,0:0:0:0:
192,192,23313,1,8,0:0:0:0:
192,192,23679,1,12,0:0:0:0:
64,192,23923,1,4,0:0:0:0:
320,192,23923,1,0,0:0:0:0:
192,192,24411,1,10,0:0:0:0:
448,192,24411,1,0,0:0:0:0:
320,192,24655,1,12,0:0:0:0:
64,192,24899,1,8,0:1:0:0:
192,192,25143,1,0,0:0:0:0:
448,192,25387,1,0,0:0:0:0:
320,192,25508,1,0,0:0:0:0:
192,192,25630,1,8,0:0:0:0:
64,192,25752,1,0,0:0:0:0:
320,192,25874,1,6,0:0:0:0:
448,192,25874,1,0,0:0:0:0:
192,192,26362,1,10,0:0:0:0:
448,192,26362,1,0,0:0:0:0:
320,192,26850,1,8,0:1:0:0:
192,192,26850,1,0,0:0:0:0:
64,192,27338,1,2,0:0:0:0:
448,192,27338,1,0,0:0:0:0:
192,192,27826,1,2,0:0:0:0:
320,192,27826,1,0,0:0:0:0:
64,192,28313,1,8,0:0:0:0:
448,192,28557,1,12,0:0:0:0:
192,192,28801,1,8,0:1:0:0:
320,192,29167,1,8,0:0:0:0:
64,192,29289,1,2,0:0:0:0:
320,192,29533,1,8,0:0:0:0:
448,192,29777,1,6,0:0:0:0:
192,192,30021,1,0,0:0:0:0:
64,192,30265,1,12,0:0:0:0:
192,192,30508,1,4,0:0:0:0:
320,192,30752,1,8,0:0:0:0:
192,192,30996,1,8,0:0:0:0:
448,192,31240,1,8,0:0:0:0:
64,192,31484,1,12,0:0:0:0:
320,192,31728,128,6,32094:0:0:0:0:
192,192,32094,128,4,32460:0:0:0:0:
448,192,32460,1,0,0:0:0:0:
320,192,32582,1,0,0:0:0:0:
64,192,32704,128,8,33191:0:1:0:0:
192,192,33191,1,0,0:0:0:0:
320,192,33679,128,4,34045:0:0:0:0:
64,192,34045,128,4,34411:0:0:0:0:
448,192,34411,1,4,0:0:0:0:
320,192,34533,1,4,0:0:0:0:
192,192,34655,128,8,35143:0:1:0:0:
320,192,35143,1,8,0:0:0:0:
64,192,35387,1,12,0:0:0:0:
448,192,35630,128,8,35996:0:0:0:0:
192,192,35996,128,4,36362:0:0:0:0:
320,192,36362,1,0,0:0:0:0:
448,192,36484,1,0,0:0:0:0:
64,192,36606,128,8,37094:0:1:0:0:
192,192,37094,1,4,0:0:0:0:
320,192,37338,1,4,0:0:0:0:
448,192,37582,128,4,37948:0:0:0:0:
64,192,37948,128,4,38313:0:0:0:0:
192,192,38313,1,4,0:0:0:0:
320,192,38435,1,4,0:0:0:0:
192,192,38557,128,8,39045:0:1:0:0:
448,192,39045,1,2,0:0:0:0:
64,192,39289,1,0,0:0:0:0:
320,192,39533,128,8,39899:0:0:0:0:
192,192,39899,128,4,40265:0:0:0:0:
448,192,40265,1,8,0:0:0:0:
320,192,40387,1,0,0:0:0:0:
64,192,40508,128,8,41484:0:1:0:0:
192,192,40996,1,4,0:0:0:0:
320,192,41484,128,4,41850:0:0:0:0:
192,192,41850,128,4,42216:0:0:0:0:
320,192,42216,1,4,0:0:0:0:
448,192,42338,1,0,0:0:0:0:
64,192,42460,128,8,43435:0:1:0:0:
192,192,42948,1,0,0:0:0:0:
320,192,43435,128,4,43801:0:0:0:0:
64,192,43801,128,4,44167:0:0:0:0:
448,192,44167,1,8,0:0:0:0:
320,192,44289,1,0,0:0:0:0:
192,192,44411,128,8,45387:0:1:0:0:
320,192,44899,1,4,0:0:0:0:
448,192,45387,128,4,45752:0:0:0:0:
64,192,45752,128,4,46118:0:0:0:0:
320,192,46118,1,8,0:0:0:0:
192,192,46240,5,0,0:0:0:0:
448,192,46362,128,8,47338:0:1:0:0:
64,192,47338,5,4,0:0:0:0:
192,192,47582,1,4,0:0:0:0:
320,192,47826,1,8,0:0:0:0:
448,192,48069,1,8,0:0:0:0:
64,192,48313,1,8,0:1:0:0:
320,192,48313,1,4,0:0:0:0:
192,192,48557,1,4,0:0:0:0:
320,192,48801,1,0,0:0:0:0:
448,192,49045,1,8,0:0:0:0:
64,192,49289,1,4,0:0:0:0:
192,192,49411,1,0,0:0:0:0:
448,192,49655,1,4,0:0:0:0:
320,192,49777,1,8,0:0:0:0:
64,192,50021,1,12,0:0:0:0:
192,192,50143,1,0,0:0:0:0:
320,192,50265,1,8,0:1:0:0:
448,192,50265,1,0,0:0:0:0:
448,192,50630,1,8,0:0:0:0:
448,192,50996,1,12,0:0:0:0:
64,192,51240,1,4,0:0:0:0:
192,192,51484,1,4,0:0:0:0:
320,192,51728,1,8,0:0:0:0:
64,192,51972,1,8,0:0:0:0:
448,192,52216,1,8,0:1:0:0:
192,192,52460,1,4,0:0:0:0:
320,192,52704,1,4,0:0:0:0:
192,192,52826,1,4,0:0:0:0:
64,192,52948,1,12,0:0:0:0:
448,192,53191,1,4,0:0:0:0:
64,192,53435,1,4,0:0:0:0:
192,192,53557,1,4,0:0:0:0:
448,192,53801,1,4,0:0:0:0:
320,192,53923,1,12,0:0:0:0:
192,192,54167,1,8,0:1:0:0:
64,192,54167,1,0,0:0:0:0:
64,192,54533,1,8,0:0:0:0:
64,192,54899,1,12,0:0:0:0:
192,192,55143,1,4,0:0:0:0:
320,192,55143,1,0,0:0:0:0:
448,192,55387,1,4,0:0:0:0:
64,192,55630,1,8,0:0:0:0:
320,192,55874,1,12,0:0:0:0:
64,192,56118,1,8,0:1:0:0:
192,192,56118,1,4,0:0:0:0:
320,192,56362,1,4,0:0:0:0:
448,192,56606,1,4,0:0:0:0:
320,192,56850,1,12,0:0:0:0:
192,192,57094,1,4,0:0:0:0:
448,192,57094,1,0,0:0:0:0:
64,192,57338,1,0,0:0:0:0:
448,192,57582,1,8,0:0:0:0:
320,192,57826,1,8,0:0:0:0:
64,192,58069,1,8,0:1:0:0:
192,192,58069,1,4,0:0:0:0:
320,192,58313,1,0,0:0:0:0:
192,192,58557,1,12,0:0:0:0:
448,192,58801,1,8,0:0:0:0:
192,192,59045,1,4,0:0:0:0:
64,192,59045,1,4,0:0:0:0:
320,192,59208,1,0,0:0:0:0:
448,192,59370,1,0,0:0:0:0:
64,192,59533,1,12,0:0:0:0:
192,192,59695,1,0,0:0:0:0:
320,192,59858,1,0,0:0:0:0:
448,192,60021,1,4,0:0:0:0:
320,192,60183,1,0,0:0:0:0:
192,192,60346,1,0,0:0:0:0:
320,192,60508,1,8,0:1:0:0:
192,192,60671,1,0,0:0:0:0:
64,192,60834,1,0,0:0:0:0:
448,192,60996,1,4,0:0:0:0:
320,192,61159,1,0,0:0:0:0:
64,192,61322,1,0,0:0:0:0:
448,192,61484,1,8,0:1:0:0:
192,192,61647,1,0,0:0:0:0:
64,192,61809,1,0,0:0:0:0:
448,192,61972,1,4,0:0:0:0:
320,192,62135,1,0,0:0:0:0:
192,192,62297,1,0,0:0:0:0:
320,192,62460,1,4,0:0:0:0:
192,192,62622,1,0,0:0:0:0:
64,192,62785,1,0,0:0:0:0:
320,192,62948,1,4,0:0:0:0:
448,192,63069,1,0,0:0:0:0:
192,192,63191,1,4,0:0:0:0:
64,192,63313,1,0,0:0:0:0:
320,192,63435,1,4,0:0:0:0:
448,192,63557,1,0,0:0:0:0:
192,192,63679,1,4,0:0:0:0:
64,192,63801,1,0,0:0:0:0:
448,192,63923,1,4,0:0:0:0:
320,192,64045,1,0,0:0:0:0:
64,192,64167,1,4,0:0:0:0:
192,192,64289,1,4,0:0:0:0:
448,192,64411,1,4,0:0:0:0:
320,192,64533,1,4,0:0:0:0:
64,192,64655,1,4,0:0:0:0:
192,192,64777,1,4,0:0:0:0:
448,192,64899,1,4,0:0:0:0:
320,192,64899,128,0,65630:0:0:0:0:
64,192,65630,1,8,0:0:0:0:
448,192,65752,1,8,0:0:0:0:
192,192,65874,1,10,0:0:0:0:
320,192,66362,128,0,66850:0:0:0:0:
192,192,66850,1,4,0:1:0:0:
64,192,66850,1,0,0:0:0:0:
448,192,67338,1,10,0:0:0:0:
320,192,67338,1,8,0:0:0:0:
64,192,67582,1,12,0:0:0:0:
192,192,67826,1,8,0:1:0:0:
64,192,68069,1,0,0:0:0:0:
448,192,68313,1,0,0:0:0:0:
320,192,68435,1,0,0:0:0:0:
192,192,68557,1,8,0:0:0:0:
64,192,68679,1,0,0:0:0:0:
448,192,68801,1,6,0:0:0:0:
192,192,69045,1,4,0:0:0:0:
64,192,69167,1,4,0:0:0:0:
448,192,69411,1,4,0:0:0:0:
320,192,69533,1,12,0:0:0:0:
64,192,69777,1,8,0:1:0:0:
192,192,69777,1,0,0:0:0:0:
64,192,70143,1,0,0:0:0:0:
64,192,70508,1,12,0:0:0:0:
320,192,70752,1,4,0:0:0:0:
448,192,70752,1,0,0:0:0:0:
192,192,71240,1,10,0:0:0:0:
448,192,71240,1,0,0:0:0:0:
64,192,71484,1,4,0:0:0:0:
320,192,71728,1,8,0:1:0:0:
192,192,71972,1,0,0:0:0:0:
448,192,72216,1,0,0:0:0:0:
320,192,72338,1,0,0:0:0:0:
192,192,72460,1,8,0:0:0:0:
448,192,72582,1,0,0:0:0:0:
64,192,72704,1,6,0:0:0:0:
320,192,72948,1,4,0:0:0:0:
448,192,73069,1,4,0:0:0:0:
64,192,73313,1,4,0:0:0:0:
192,192,73435,1,12,0:0:0:0:
448,192,73679,1,8,0:1:0:0:
320,192,73679,1,0,0:0:0:0:
448,192,74045,1,8,0:0:0:0:
448,192,74411,1,12,0:0:0:0:
192,192,74655,1,4,0:0:0:0:
64,192,74655,1,0,0:0:0:0:
448,192,75143,1,10,0:0:0:0:
320,192,75143,1,10,0:0:0:0:
64,192,75387,1,12,0:0:0:0:
448,192,75630,1,8,0:1:0:0:
64,192,75874,1,0,0:0:0:0:
320,192,76118,1,0,0:0:0:0:
448,192,76240,1,0,0:0:0:0:
192,192,76362,1,8,0:0:0:0:
320,192,76484,1,0,0:0:0:0:
64,192,76606,1,6,0:0:0:0:
448,192,76850,1,4,0:0:0:0:
320,192,76972,1,4,0:0:0:0:
64,192,77216,1,4,0:0:0:0:
192,192,77338,1,12,0:0:0:0:
448,192,77582,1,8,0:0:0:0:
64,192,77582,1,8,0:0:0:0:
192,192,77744,1,8,0:0:0:0:
320,192,77907,1,8,0:0:0:0:
192,192,78069,1,10,0:0:0:0:
64,192,78069,1,8,0:0:0:0:
448,192,78232,1,12,0:0:0:0:
320,192,78395,1,8,0:0:0:0:
192,192,78557,1,12,0:0:0:0:
64,192,78557,128,4,79533:0:1:0:0:
192,192,79533,128,0,80508:0:0:0:0:
320,192,79899,1,8,0:0:0:0:
64,192,80021,1,2,0:0:0:0:
448,192,80265,1,8,0:0:0:0:
320,192,80508,128,10,81484:0:0:0:0:
64,192,80508,1,8,0:0:0:0:
448,192,81484,128,4,82460:0:0:0:0:
64,192,81484,1,4,0:0:0:0:
320,192,81972,1,8,0:0:0:0:
192,192,82216,1,8,0:0:0:0:
64,192,82460,1,4,0:0:0:0:
320,192,82460,1,4,0:0:0:0:
64,192,82866,1,8,0:0:0:0:
320,192,82948,1,8,0:1:0:0:
448,192,82948,1,8,0:0:0:0:
192,192,83191,1,12,0:0:0:0:
64,192,83435,1,12,0:0:0:0:
448,192,83679,1,12,0:0:0:0:
192,192,83923,1,8,0:0:0:0:
320,192,83923,1,8,0:1:0:0:
64,192,84045,1,0,0:0:0:0:
448,192,84167,1,12,0:0:0:0:
320,192,84289,1,0,0:0:0:0:
64,192,84411,1,4,0:0:0:0:
192,192,84411,1,0,0:0:0:0:
64,192,84817,1,8,0:0:0:0:
320,192,84899,1,12,0:0:0:0:
448,192,84899,1,8,0:1:0:0:
192,192,85143,1,12,0:0:0:0:
64,192,85265,1,0,0:0:0:0:
448,192,85387,1,12,0:0:0:0:
320,192,85508,1,0,0:0:0:0:
192,192,85630,1,8,0:0:0:0:
64,192,85874,1,8,0:1:0:0:
192,192,86118,1,8,0:0:0:0:
320,192,86362,1,12,0:0:0:0:
448,192,86484,1,0,0:0:0:0:
320,192,86606,1,8,0:0:0:0:
448,192,86728,1,0,0:0:0:0:
192,192,86850,1,12,0:0:0:0:
320,192,86972,1,0,0:0:0:0:
192,192,87094,1,12,0:0:0:0:
320,192,87216,1,0,0:0:0:0:
64,192,87338,1,4,0:0:0:0:
192,192,87460,1,0,0:0:0:0:
64,192,87582,1,12,0:0:0:0:
192,192,87704,1,0,0:0:0:0:
320,192,87826,1,8,0:1:0:0:
448,192,87948,1,0,0:0:0:0:
192,192,88069,1,8,0:0:0:0:
64,192,88191,1,0,0:0:0:0:
448,192,88313,1,12,0:0:0:0:
320,192,88435,1,0,0:0:0:0:
64,192,88557,1,8,0:0:0:0:
192,192,88679,1,0,0:0:0:0:
320,192,88801,1,8,0:0:0:0:
192,192,88923,1,0,0:0:0:0:
64,192,89045,1,12,0:0:0:0:
320,192,89167,1,0,0:0:0:0:
448,192,89289,1,12,0:0:0:0:
320,192,89411,1,0,0:0:0:0:
192,192,89533,1,8,0:0:0:0:
64,192,89655,1,0,0:0:0:0:
192,192,89777,1,8,0:1:0:0:
320,192,89899,1,0,0:0:0:0:
64,192,90021,1,8,0:0:0:0:
448,192,90143,1,0,0:0:0:0:
64,192,90265,1,4,0:0:0:0:
192,192,90265,1,0,0:0:0:0:
320,192,90671,1,8,0:0:0:0:
448,192,90752,1,8,0:1:0:0:
64,192,90752,1,0,0:0:0:0:
192,192,90996,1,8,0:0:0:0:
64,192,91240,1,12,0:0:0:0:
192,192,91322,1,0,0:0:0:0:
320,192,91403,1,8,0:0:0:0:
448,192,91484,1,12,0:0:0:0:
192,192,91728,1,8,0:1:0:0:
64,192,91728,1,0,0:0:0:0:
320,192,91850,1,0,0:0:0:0:
448,192,91972,1,8,0:0:0:0:
192,192,92094,1,0,0:0:0:0:
64,192,92216,1,12,0:0:0:0:
448,192,92216,1,0,0:0:0:0:
192,192,92704,1,14,0:0:0:0:
320,192,92704,1,14,0:0:0:0:
64,192,93679,1,14,0:0:0:0:
192,192,93679,1,0,0:0:0:0:
320,192,94167,1,14,0:0:0:0:
448,192,94167,1,14,0:0:0:0:
192,192,94330,1,0,0:0:0:0:
64,192,94492,1,0,0:0:0:0:
320,192,94655,1,0,0:0:0:0:
192,192,94817,1,0,0:0:0:0:
64,192,94980,1,0,0:0:0:0:
448,192,95143,1,12,0:0:0:0:
320,192,95305,1,0,0:0:0:0:
192,192,95468,1,0,0:0:0:0:
320,192,95630,1,0,0:0:0:0:
192,192,95793,1,0,0:0:0:0:
64,192,95956,1,0,0:0:0:0:
448,192,96118,1,6,0:0:0:0:
320,192,96281,1,0,0:0:0:0:
192,192,96443,1,0,0:0:0:0:
64,192,96606,1,4,0:0:0:0:
192,192,96769,1,4,0:0:0:0:
320,192,96931,1,4,0:0:0:0:
64,192,97094,1,12,0:0:0:0:
448,192,97094,1,8,0:1:0:0:
192,192,97419,1,12,0:0:0:0:
320,192,97419,1,0,0:0:0:0:
448,192,97744,1,12,0:0:0:0:
192,192,97744,1,0,0:0:0:0:
64,192,98069,1,12,0:0:0:0:
320,192,98069,128,0,99777:0:0:0:0:
192,192,99045,1,4,0:0:0:0:
64,192,99777,128,0,100021:0:0:0:0:
192,192,100021,128,4,103923:0:0:0:0:
448,192,100265,1,0,0:0:0:0:
320,192,100508,1,4,0:0:0:0:
