osu file format v14

[General]
AudioFilename: audio.mp3
AudioLeadIn: 0
PreviewTime: 82460
Countdown: 0
SampleSet: Soft
StackLeniency: 0.7
Mode: 3
LetterboxInBreaks: 0
SpecialStyle: 0
WidescreenStoryboard: 0

[Editor]
Bookmarks: 509,12216,16118,31728,47338,66850,82460,94167,103923
DistanceSpacing: 1
BeatDivisor: 4
GridSize: 4
TimelineZoom: 1

[Metadata]
Title:Hate You
TitleUnicode:Hate You
Artist:toby fox
ArtistUnicode:toby fox
Creator:Weber
Version:EZ
Source:Homestuck
Tags:Feferi Meenah Peixes Her Imperious Condescension Vol. Volume 9 Soundtrack OST andrew hussie radiation Ayyri
BeatmapID:1384898
BeatmapSetID:653271

[Difficulty]
HPDrainRate:7
CircleSize:4
OverallDifficulty:7
ApproachRate:5
SliderMultiplier:1.4
SliderTickRate:1

[Events]
//Background and Video events
0,0,"xd.png",0,0
//Break Periods
//Storyboard Layer 0 (Background)
//Storyboard Layer 1 (Fail)
//Storyboard Layer 2 (Pass)
//Storyboard Layer 3 (Foreground)
//Storyboard Sound Samples

[TimingPoints]
509,487.80487804878,4,2,1,25,1,0
100996,-100,4,2,1,20,0,0
101972,-100,4,2,1,15,0,0
102948,-100,4,2,1,10,0,0
103923,-100,4,2,1,5,0,0

[HitObjects]
320,192,21,5,2,0:0:0:0:
64,192,509,1,4,0:1:0:0:
448,192,996,1,10,0:0:0:0:
192,192,1728,1,0,0:0:0:0:
320,192,1972,128,0,2460:0:0:0:0:
64,192,2460,1,6,0:0:0:0:
448,192,2948,1,8,0:0:0:0:
192,192,3435,1,8,0:1:0:0:
320,192,3435,1,0,0:0:0:0:
64,192,4411,1,4,0:0:0:0:
448,192,4899,1,10,0:0:0:0:
192,192,5630,1,0,0:0:0:0:
448,192,5874,128,0,6362:0:0:0:0:
64,192,6362,1,6,0:0:0:0:
320,192,6850,1,10,0:0:0:0:
64,192,7338,1,8,0:1:0:0:
192,192,7338,1,0,0:0:0:0:
64,192,8313,1,4,0:0:0:0:
320,192,8801,1,10,0:0:0:0:
192,192,9533,1,0,0:0:0:0:
320,192,9777,128,0,10265:0:0:0:0:
64,192,10265,1,6,0:0:0:0:
448,192,10752,1,10,0:0:0:0:
192,192,11240,1,8,0:1:0:0:
320,192,11240,1,0,0:0:0:0:
64,192,11728,1,0,0:0:0:0:
192,192,12216,1,4,0:0:0:0:
448,192,12582,1,0,0:0:0:0:
64,192,12948,1,0,0:0:0:0:
192,192,13191,1,8,0:1:0:0:
320,192,13191,128,4,13679:0:0:0:0:
448,192,14167,1,4,0:0:0:0:
192,192,14533,1,4,0:0:0:0:
320,192,14899,1,8,0:0:0:0:
192,192,15143,1,8,0:1:0:0:
64,192,15143,128,4,15630:0:0:0:0:
192,192,16118,1,4,0:1:0:0:
448,192,16606,1,8,0:0:0:0:
64,192,17338,1,0,0:0:0:0:
320,192,17582,128,0,18069:0:0:0:0:
192,192,18069,1,6,0:0:0:0:
448,192,18557,1,10,0:0:0:0:
320,192,19045,1,8,0:1:0:0:
64,192,19045,1,0,0:0:0:0:
192,192,20021,1,4,0:0:0:0:
448,192,20508,1,10,0:0:0:0:
64,192,21240,1,0,0:0:0:0:
192,192,21972,1,6,0:0:0:0:
320,192,22460,1,10,0:0:0:0:
448,192,22948,1,8,0:1:0:0:
64,192,22948,1,0,0:0:0:0:
192,192,23923,1,4,0:0:0:0:
448,192,24411,1,10,0:0:0:0:
192,192,25143,1,0,0:0:0:0:
320,192,25387,128,0,25874:0:0:0:0:
64,192,25874,1,6,0:0:0:0:
448,192,26362,1,10,0:0:0:0:
320,192,26850,1,8,0:1:0:0:
192,192,26850,1,0,0:0:0:0:
64,192,27338,1,2,0:0:0:0:
192,192,27826,1,2,0:0:0:0:
320,192,28801,1,8,0:1:0:0:
448,192,29289,1,2,0:0:0:0:
192,192,29533,1,8,0:0:0:0:
320,192,29777,1,6,0:0:0:0:
64,192,30265,1,12,0:0:0:0:
192,192,30752,1,8,0:0:0:0:
448,192,31240,1,8,0:0:0:0:
320,192,31728,1,6,0:0:0:0:
64,192,32094,1,4,0:0:0:0:
192,192,32460,1,0,0:0:0:0:
448,192,32704,128,8,33191:0:1:0:0:
320,192,32704,1,4,0:0:0:0:
320,192,33679,1,4,0:0:0:0:
64,192,34045,1,4,0:0:0:0:
448,192,34411,1,4,0:0:0:0:
192,192,34655,128,8,35143:0:1:0:0:
320,192,34655,1,4,0:0:0:0:
448,192,35630,1,8,0:0:0:0:
64,192,35996,1,4,0:0:0:0:
320,192,36362,1,0,0:0:0:0:
192,192,36606,128,8,37094:0:1:0:0:
448,192,36606,1,4,0:0:0:0:
448,192,37582,1,4,0:0:0:0:
192,192,37948,1,4,0:0:0:0:
320,192,38313,1,4,0:0:0:0:
64,192,38557,128,8,39045:0:1:0:0:
448,192,38557,1,4,0:0:0:0:
320,192,39533,1,8,0:0:0:0:
192,192,39899,1,4,0:0:0:0:
448,192,40265,1,8,0:0:0:0:
64,192,40508,1,8,0:1:0:0:
192,192,40508,1,4,0:0:0:0:
320,192,40996,1,4,0:0:0:0:
448,192,41484,1,4,0:0:0:0:
192,192,41850,1,4,0:0:0:0:
320,192,42216,1,4,0:0:0:0:
64,192,42460,1,8,0:1:0:0:
448,192,42460,1,4,0:0:0:0:
192,192,42948,1,0,0:0:0:0:
320,192,43435,1,4,0:0:0:0:
64,192,43801,1,4,0:0:0:0:
448,192,44167,1,8,0:0:0:0:
192,192,44411,1,8,0:1:0:0:
64,192,44411,1,4,0:0:0:0:
320,192,44899,1,4,0:0:0:0:
64,192,45387,1,4,0:0:0:0:
192,192,45752,1,4,0:0:0:0:
448,192,46118,1,8,0:0:0:0:
320,192,46362,1,8,0:1:0:0:
192,192,46362,1,4,0:0:0:0:
448,192,46850,1,4,0:0:0:0:
64,192,47338,1,4,0:0:0:0:
192,192,47582,1,4,0:0:0:0:
320,192,47826,1,8,0:0:0:0:
448,192,48069,1,8,0:0:0:0:
64,192,48313,1,8,0:1:0:0:
192,192,48557,1,4,0:0:0:0:
320,192,48801,1,0,0:0:0:0:
448,192,49045,1,8,0:0:0:0:
64,192,49289,1,4,0:0:0:0:
320,192,50265,1,8,0:1:0:0:
192,192,50265,1,0,0:0:0:0:
64,192,51240,1,4,0:0:0:0:
320,192,51484,1,4,0:0:0:0:
192,192,51728,1,8,0:0:0:0:
448,192,51972,1,8,0:0:0:0:
64,192,52216,1,8,0:1:0:0:
192,192,52460,1,4,0:0:0:0:
448,192,52704,1,4,0:0:0:0:
320,192,52948,1,12,0:0:0:0:
192,192,53191,1,4,0:0:0:0:
320,192,54167,1,8,0:1:0:0:
448,192,54167,1,0,0:0:0:0:
64,192,55143,1,4,0:0:0:0:
192,192,55387,1,4,0:0:0:0:
320,192,55630,1,8,0:0:0:0:
448,192,55874,1,12,0:0:0:0:
64,192,56118,1,8,0:1:0:0:
320,192,56362,1,4,0:0:0:0:
192,192,56606,1,4,0:0:0:0:
448,192,56850,1,12,0:0:0:0:
64,192,57094,1,4,0:0:0:0:
192,192,57338,1,0,0:0:0:0:
320,192,57582,1,8,0:0:0:0:
448,192,57826,1,8,0:0:0:0:
64,192,58069,1,8,0:1:0:0:
320,192,58557,1,12,0:0:0:0:
192,192,59045,1,4,0:0:0:0:
64,192,59533,1,12,0:0:0:0:
448,192,60021,1,4,0:0:0:0:
64,192,60508,1,8,0:1:0:0:
320,192,60996,1,4,0:0:0:0:
192,192,61484,1,8,0:1:0:0:
448,192,61972,1,4,0:0:0:0:
64,192,62460,1,4,0:0:0:0:
192,192,62948,1,4,0:0:0:0:
448,192,63191,1,4,0:0:0:0:
64,192,63435,1,4,0:0:0:0:
320,192,63679,1,4,0:0:0:0:
192,192,63923,1,4,0:0:0:0:
64,192,64167,1,4,0:0:0:0:
320,192,64411,1,4,0:0:0:0:
448,192,64655,1,4,0:0:0:0:
192,192,64899,128,4,65874:0:0:0:0:
448,192,65630,1,8,0:0:0:0:
320,192,65874,1,10,0:0:0:0:
448,192,66362,1,0,0:0:0:0:
64,192,66850,1,4,0:1:0:0:
448,192,67338,1,10,0:0:0:0:
192,192,68069,1,0,0:0:0:0:
64,192,68801,1,6,0:0:0:0:
448,192,69289,1,8,0:0:0:0:
192,192,69777,1,8,0:1:0:0:
320,192,69777,1,0,0:0:0:0:
64,192,70752,1,4,0:0:0:0:
448,192,71240,1,10,0:0:0:0:
192,192,71972,1,0,0:0:0:0:
64,192,72704,1,6,0:0:0:0:
448,192,73191,1,10,0:0:0:0:
320,192,73679,1,8,0:1:0:0:
192,192,73679,1,0,0:0:0:0:
64,192,74655,1,4,0:0:0:0:
320,192,75143,1,10,0:0:0:0:
192,192,75874,1,0,0:0:0:0:
64,192,76606,1,6,0:0:0:0:
320,192,77094,1,10,0:0:0:0:
192,192,77582,1,8,0:0:0:0:
448,192,77582,128,8,78069:0:0:0:0:
64,192,78069,128,10,78557:0:0:0:0:
320,192,78557,1,12,0:0:0:0:
64,192,79533,1,0,0:0:0:0:
448,192,79899,1,8,0:0:0:0:
192,192,80265,1,8,0:0:0:0:
320,192,80508,1,10,0:0:0:0:
448,192,81484,1,4,0:0:0:0:
192,192,81972,1,8,0:0:0:0:
64,192,82460,1,4,0:0:0:0:
448,192,82948,1,8,0:1:0:0:
64,192,83679,1,12,0:0:0:0:
320,192,83923,1,8,0:0:0:0:
192,192,84167,1,12,0:0:0:0:
64,192,84411,1,4,0:0:0:0:
448,192,84899,1,12,0:0:0:0:
64,192,85387,1,12,0:0:0:0:
192,192,85874,1,8,0:1:0:0:
448,192,86362,1,12,0:0:0:0:
320,192,86606,1,8,0:0:0:0:
192,192,86850,1,12,0:0:0:0:
64,192,87338,1,4,0:0:0:0:
192,192,87582,1,12,0:0:0:0:
448,192,87826,1,8,0:1:0:0:
64,192,88313,1,12,0:0:0:0:
192,192,88557,1,8,0:0:0:0:
320,192,88801,1,8,0:0:0:0:
448,192,89289,1,12,0:0:0:0:
320,192,89533,1,8,0:0:0:0:
192,192,89777,1,8,0:1:0:0:
448,192,90021,1,8,0:0:0:0:
64,192,90265,1,4,0:0:0:0:
448,192,90752,1,8,0:1:0:0:
192,192,91484,1,12,0:0:0:0:
448,192,91728,1,8,0:1:0:0:
320,192,91972,1,8,0:0:0:0:
64,192,92216,1,12,0:0:0:0:
448,192,92704,1,14,0:0:0:0:
192,192,93679,1,14,0:0:0:0:
320,192,94167,128,14,95143:0:0:0:0:
64,192,94167,1,14,0:0:0:0:
64,192,95143,128,12,96118:0:0:0:0:
448,192,96118,128,6,98069:0:0:0:0:
320,192,97094,128,12,99777:0:0:0:0:
64,192,99777,128,0,100021:0:0:0:0:
192,192,100021,128,4,103923:0:0:0:0:
