osu file format v14

[General]
AudioFilename: Undertale OST_ 010 - Ghost Fight.mp3
AudioLeadIn: 0
PreviewTime: -1
Countdown: 1
SampleSet: Soft
StackLeniency: 0.7
Mode: 0
LetterboxInBreaks: 1
WidescreenStoryboard: 1

[Editor]
DistanceSpacing: 1
BeatDivisor: 4
GridSize: 8
TimelineZoom: 1

[Metadata]
Title:Ghost fight
TitleUnicode:Ghost fight
Artist:toby fox
ArtistUnicode:toby fox
Creator:Used Username
Version:Normal
Source:Undertale
Tags:Undertale tobyfox ghost fight
BeatmapID:812149
BeatmapSetID:370600

[Difficulty]
HPDrainRate:2
CircleSize:3
OverallDifficulty:2
ApproachRate:3
SliderMultiplier:2
SliderTickRate:1

[Events]
//Background and Video events
0,0,"Napstablook.600.1938985.jpg",0,0
//Break Periods
//Storyboard Layer 0 (Background)
//Storyboard Layer 1 (Fail)
//Storyboard Layer 2 (Pass)
//Storyboard Layer 3 (Foreground)
//Storyboard Sound Samples

[TimingPoints]
0,532.914285714285,4,2,1,100,1,0

[HitObjects]
256,192,8659,5,0,0:0:0:0:
336,128,8926,2,0,L|432:48,2,100
264,192,9725,2,4,L|168:256,1,100
128,160,10258,2,4,L|216:96,1,100
312,96,10791,2,8,L|416:144,1,100
408,240,11324,2,8,L|288:232,1,100
208,232,11857,2,4,L|88:184,1,100
168,104,12390,6,4,L|288:96,1,100
368,120,12923,1,0,0:0:0:0:
408,208,13189,1,0,0:0:0:0:
336,272,13456,2,4,L|200:280,1,100
136,264,13988,2,4,L|72:160,1,100
160,112,14521,2,0,L|272:80,1,100
352,104,15054,2,0,L|432:200,1,100
400,280,15587,6,4,L|288:288,1,100
280,192,16120,2,4,L|424:184,3,100
376,88,17186,2,8,L|248:96,1,100
176,104,17719,2,0,L|88:208,1,100,0|8,0:0|0:0,0:0:0:0:
112,280,18252,2,4,L|224:296,1,100
304,264,18785,2,4,L|384:160,1,100
312,96,19318,2,8,L|208:144,1,100
152,216,19851,5,0,0:0:0:0:
240,272,20117,1,4,0:0:0:0:
336,240,20383,1,4,0:0:0:0:
384,152,20650,1,0,0:0:0:0:
424,56,20916,2,0,L|280:72,1,100
232,96,21449,2,8,P|240:136|328:184,1,100
376,192,21982,2,8,P|368:240|304:256,1,100
224,272,22515,2,8,P|160:248|168:192,1,100
208,136,23048,6,8,P|264:112|288:152,1,100
344,216,23581,1,4,0:0:0:0:
392,128,23847,1,4,0:0:0:0:
304,72,24114,2,8,L|176:80,1,100
112,120,24647,2,0,L|96:232,1,100
144,304,25180,2,0,L|256:304,1,100
312,232,25713,1,4,0:0:0:0:
312,232,25979,5,4,0:0:0:0:
360,144,26246,2,8,L|264:80,1,100
192,136,26778,2,0,L|288:224,2,100
112,72,27578,1,4,0:0:0:0:
104,168,27844,2,4,L|112:288,1,100
208,264,28377,2,0,L|192:160,1,100
232,72,28910,6,8,P|280:128|312:96,3,100
384,88,29976,2,0,L|400:232,1,100
368,280,30509,2,0,L|224:288,1,100
184,232,31042,1,4,0:0:0:0:
168,136,31308,1,4,0:0:0:0:
256,88,31575,2,8,L|416:232,1,200
328,288,32374,6,0,L|224:288,1,100
144,232,32907,2,0,L|200:120,1,100
272,88,33440,1,4,0:0:0:0:
368,112,33706,2,4,L|320:312,1,200
160,104,34772,1,8,0:0:0:0:
360,256,35305,1,8,0:0:0:0:
384,56,35838,2,8,L|280:56,1,100
192,88,36371,2,8,L|112:176,1,100
120,264,36904,6,8,L|224:312,1,100
312,288,37437,2,4,P|408:184|368:136,1,200
200,112,38503,2,8,L|96:192,1,100
152,264,39035,2,8,L|272:280,1,100
352,256,39568,2,8,L|368:152,1,100
296,88,40101,2,8,L|184:128,1,100
248,208,40634,2,8,L|368:144,1,100
416,104,41167,6,8,L|424:232,1,100
408,304,41700,2,4,L|168:272,1,200
120,232,42499,1,4,0:0:0:0:
144,136,42766,2,0,L|256:80,1,100
336,88,43299,2,0,L|384:176,1,100
408,272,43832,2,0,L|288:304,1,100
264,208,44365,2,0,L|224:88,1,100
136,88,44898,5,4,0:0:0:0:
120,184,45164,1,4,0:0:0:0:
152,280,45430,2,8,L|288:280,1,100
352,264,45963,2,4,P|384:160|296:120,1,200
224,104,46763,1,4,0:0:0:0:
128,136,47029,2,8,L|80:272,1,100
184,280,47562,2,8,L|296:288,1,100
376,256,48095,6,8,L|384:144,1,100
312,80,48628,2,8,L|184:72,1,100
136,144,49161,1,0,0:0:0:0:
96,232,49427,1,0,0:0:0:0:
168,304,49694,1,0,0:0:0:0:
264,280,49960,1,0,0:0:0:0:
336,216,50227,2,4,B|288:136|448:136|328:40,2,200
