osu file format v14

[General]
AudioFilename: Undertale OST_ 010 - Ghost Fight.mp3
AudioLeadIn: 0
PreviewTime: -1
Countdown: 1
SampleSet: Soft
StackLeniency: 0.7
Mode: 0
LetterboxInBreaks: 1
WidescreenStoryboard: 0

[Editor]
DistanceSpacing: 1
BeatDivisor: 4
GridSize: 8
TimelineZoom: 1

[Metadata]
Title:Ghost fight
TitleUnicode:Ghost fight
Artist:toby fox
ArtistUnicode:toby fox
Creator:Used Username
Version:Hard
Source:Undertale
Tags:Undertale tobyfox ghost fight
BeatmapID:812147
BeatmapSetID:370600

[Difficulty]
HPDrainRate:4
CircleSize:4
OverallDifficulty:4
ApproachRate:7
SliderMultiplier:2.2
SliderTickRate:1

[Events]
//Background and Video events
0,0,"Napstablook.600.1938985.jpg",0,0
//Break Periods
//Storyboard Layer 0 (Background)
//Storyboard Layer 1 (Fail)
//Storyboard Layer 2 (Pass)
//Storyboard Layer 3 (Foreground)
//Storyboard Sound Samples

[TimingPoints]
0,532.914285714285,4,2,1,100,1,0

[HitObjects]
144,296,7860,6,0,L|96:184,1,110
88,128,8393,1,0,0:0:0:0:
176,104,8659,1,0,0:0:0:0:
264,120,8926,1,0,0:0:0:0:
352,136,9192,2,0,L|456:208,2,110
280,184,9992,1,4,0:0:0:0:
240,104,10258,6,0,L|128:128,1,110
96,200,10791,2,0,L|184:272,1,110
256,248,11324,2,0,L|344:160,1,110
360,104,11857,2,8,L|456:48,2,110
272,104,12656,1,4,0:0:0:0:
184,112,12923,2,0,L|72:104,1,110
88,192,13456,6,0,L|168:304,1,110
232,264,13988,2,0,L|336:184,1,110
352,128,14521,1,8,0:0:0:0:
424,72,14788,1,4,0:0:0:0:
416,160,15054,2,0,L|392:272,1,110
320,288,15587,2,0,L|192:288,1,110
144,272,16120,5,0,0:0:0:0:
120,184,16387,1,0,0:0:0:0:
168,88,16653,2,4,P|200:48|288:40,2,110
64,232,17452,2,8,P|48:304|64:352,1,110
184,248,17985,2,8,P|208:192|184:136,1,110
304,136,18518,2,0,L|304:256,2,110
280,56,19318,5,4,0:0:0:0:
368,72,19584,1,0,0:0:0:0:
432,136,19851,1,0,0:0:0:0:
416,224,20117,1,0,0:0:0:0:
336,264,20383,2,0,P|280:320|216:304,2,110
392,192,21183,1,4,0:0:0:0:
352,112,21449,6,8,P|320:64|240:48,1,110
264,152,21982,2,8,P|200:144|176:80,1,110
192,216,22515,2,8,P|152:144|200:128,1,110
64,48,23048,1,8,0:0:0:0:
72,136,23314,1,8,0:0:0:0:
96,224,23581,2,0,L|200:288,2,110
96,136,24380,5,4,0:0:0:0:
184,120,24647,1,0,0:0:0:0:
272,120,24913,1,0,0:0:0:0:
344,176,25180,2,0,P|400:192|440:272,2,110
328,88,25979,2,0,L|216:56,1,110
144,136,26512,2,8,P|168:192|216:152,1,110
336,208,27045,2,4,L|216:272,2,110
376,128,27844,5,0,0:0:0:0:
304,72,28111,1,0,0:0:0:0:
216,72,28377,1,0,0:0:0:0:
272,160,28644,1,4,0:0:0:0:
336,96,28910,2,8,L|408:192,1,110
360,256,29443,6,8,L|264:192,1,110
224,136,29976,2,8,L|120:72,1,110
56,96,30509,2,8,L|64:216,1,110
72,272,31042,1,4,0:0:0:0:
152,240,31308,2,0,L|248:160,1,110
304,136,31841,2,0,L|408:96,2,110
224,96,32640,6,0,L|104:56,1,110
88,144,33173,1,0,0:0:0:0:
72,232,33440,1,0,0:0:0:0:
88,320,33706,2,4,L|216:296,2,110
88,232,34506,2,0,P|88:152|128:96,1,110
200,112,35039,2,0,L|304:160,1,110
384,88,35572,2,0,P|424:136|424:216,1,110
312,240,36104,6,0,L|168:272,2,110
376,176,36904,1,0,0:0:0:0:
328,96,37170,1,0,0:0:0:0:
240,88,37437,2,0,L|128:104,2,110
328,80,38236,1,4,0:0:0:0:
408,120,38503,2,0,L|408:248,1,110
344,320,39035,2,0,L|208:304,1,110
192,240,39568,6,0,L|120:128,1,110
216,112,40101,2,0,L|328:88,1,110
392,96,40634,1,0,0:0:0:0:
424,184,40901,1,0,0:0:0:0:
384,264,41167,1,0,0:0:0:0:
296,288,41434,1,0,0:0:0:0:
208,280,41700,2,4,L|104:200,4,110
296,280,43032,5,0,0:0:0:0:
368,224,43299,1,0,0:0:0:0:
384,136,43565,1,0,0:0:0:0:
304,96,43832,2,0,L|176:112,1,110
128,136,44365,1,0,0:0:0:0:
96,216,44631,1,0,0:0:0:0:
160,280,44898,2,0,L|280:256,1,110
328,224,45430,6,0,L|392:128,1,110
328,72,45963,2,4,L|216:72,2,110
416,72,46763,1,0,0:0:0:0:
416,160,47029,2,0,L|344:248,1,110
272,256,47562,2,0,L|184:168,1,110
272,136,48095,2,0,L|376:80,1,110
424,144,48628,2,0,L|424:272,1,110
352,296,49161,5,0,0:0:0:0:
264,288,49427,1,0,0:0:0:0:
176,264,49694,1,0,0:0:0:0:
128,184,49960,1,0,0:0:0:0:
160,80,50227,2,0,L|384:80,1,220
488,40,51026,1,4,0:0:0:0:
472,144,51292,6,0,P|440:224|400:272,1,110
336,304,51825,2,0,P|296:264|288:168,1,110
176,192,52358,2,0,L|104:296,2,110
232,96,53158,1,0,0:0:0:0:
344,88,53424,2,0,L|472:80,1,110
432,176,53957,2,0,L|352:256,1,110
280,248,54490,2,0,P|216:272|152:264,1,110
104,184,55023,1,4,0:0:0:0:
