osu file format v14

[General]
AudioFilename: toby fox - UNDERTALE Soundtrack - 10 Ghost Fight.mp3
AudioLeadIn: 0
PreviewTime: 17175
Countdown: 0
SampleSet: Soft
StackLeniency: 0.7
Mode: 0
LetterboxInBreaks: 0
WidescreenStoryboard: 1

[Editor]
Bookmarks: 4375,11308,12908,20908
DistanceSpacing: 1.4
BeatDivisor: 6
GridSize: 4
TimelineZoom: 1

[Metadata]
Title:Ghost Fight
TitleUnicode:Ghost Fight
Artist:toby fox
ArtistUnicode:toby fox
Creator:-Kyu
Version:Normal
Source:Undertale
Tags:napstablook soundtrack Error- -Keitaro ChompyIsABottom ost original
BeatmapID:1165157
BeatmapSetID:453997

[Difficulty]
HPDrainRate:5
CircleSize:3
OverallDifficulty:5
ApproachRate:5
SliderMultiplier:1.20000000596047
SliderTickRate:1

[Events]
//Background and Video events
0,0,"Napstablook.jpg",0,0
//Break Periods
//Storyboard Layer 0 (Background)
//Storyboard Layer 1 (Fail)
//Storyboard Layer 2 (Pass)
//Storyboard Layer 3 (Foreground)
//Storyboard Layer 4 (Overlay)
//Storyboard Sound Samples

[TimingPoints]
33,533.333333333333,4,2,0,40,1,0
17099,-100,4,2,0,40,0,1
33632,-100,4,2,0,40,0,0
51232,-100,4,2,0,5,0,0

[Colours]
Combo1 : 38,219,234
Combo2 : 10,115,192

[HitObjects]
43,309,33,6,0,L|105:314,1,60.0000002980235,2|0,0:0|0:0,0:0:0:0:
178,278,566,2,0,L|237:273,1,60.0000002980235,8|0,0:0|0:0,0:0:0:0:
304,328,1099,2,0,P|336:352|387:352,2,90.0000004470352,2|2|2,0:0|0:0|0:0,0:0:0:0:
363,272,2166,6,0,L|367:212,1,60.0000002980235,2|0,0:0|0:0,0:0:0:0:
408,138,2699,2,0,L|403:78,1,60.0000002980235,8|0,0:0|0:0,0:0:0:0:
337,25,3232,2,0,P|300:25|255:52,2,90.0000004470352,2|2|2,0:0|0:0|0:0,0:0:0:0:
316,106,4299,6,0,L|311:165,1,60.0000002980235,2|0,0:0|0:0,0:0:0:0:
249,223,4832,1,8,0:0:0:0:
199,290,5099,1,0,0:0:0:0:
125,248,5366,2,0,L|132:158,2,90.0000004470352,2|2|2,0:0|0:0|0:0,0:0:0:0:
65,308,6432,6,0,P|84:325|132:331,1,60.0000002980235,2|0,0:0|0:0,0:0:0:0:
200,323,6966,1,8,0:0:0:0:
280,345,7232,1,0,0:0:0:0:
353,304,7499,2,0,L|345:212,1,90.0000004470353,2|2,0:0|0:0,0:0:0:0:
140,164,8566,5,2,0:0:0:0:
180,91,8832,1,0,0:0:0:0:
260,65,9099,2,0,P|298:57|333:63,1,60.0000002980235,8|0,0:0|0:0,0:0:0:0:
390,102,9632,2,0,P|404:62|389:11,2,90.0000004470353,2|2|2,0:0|0:0|0:0,0:0:0:0:
397,185,10699,5,2,0:0:0:0:
347,250,10966,1,0,0:0:0:0:
271,285,11232,2,0,P|233:293|198:287,1,60.0000002980235,8|0,0:0|0:0,0:0:0:0:
133,257,11766,2,0,P|124:300|139:343,2,90.0000004470352,2|2|2,0:0|0:0|0:0,0:0:0:0:
78,193,12832,6,0,L|82:133,1,60.0000002980235,2|0,0:0|0:0,0:0:0:0:
143,74,13366,2,0,L|202:79,1,60.0000002980235,8|0,0:0|0:0,0:0:0:0:
271,129,13899,2,0,L|367:134,2,90.0000004470352,2|2|2,0:0|0:0|0:0,0:0:0:0:
237,206,14966,6,0,L|232:265,1,60.0000002980235,2|0,0:0|0:0,0:0:0:0:
281,333,15499,2,0,P|309:340|339:339,1,60.0000002980235,8|0,0:0|0:0,0:0:0:0:
421,319,16032,2,0,P|450:317|479:325,2,60.0000002980235,2|0|2,0:0|0:0|0:0,0:0:0:0:
369,146,17099,6,0,B|310:133|310:133|236:148,1,120.000000596047,6|8,0:0|0:0,0:0:0:0:
174,176,17899,1,0,0:0:0:0:
106,226,18166,2,0,L|46:222,1,60.0000002980235,0|2,0:0|0:0,0:0:0:0:
1,152,18699,1,10,0:0:0:0:
38,76,18966,1,2,0:0:0:0:
121,71,19232,5,0,0:0:0:0:
197,35,19499,2,0,L|257:39,2,60.0000002980235,2|8|2,0:0|0:0|0:0,0:0:0:0:
212,116,20299,1,2,0:0:0:0:
152,176,20566,2,0,L|148:236,1,60.0000002980235,0|8,0:0|0:0,0:0:0:0:
203,299,21099,1,0,0:0:0:0:
265,242,21366,6,0,P|264:213|271:184,1,60.0000002980235,4|2,0:0|0:0,0:0:0:0:
336,129,21899,2,0,P|365:128|394:135,1,60.0000002980235,4|2,0:0|0:0,0:0:0:0:
477,117,22432,2,0,P|478:147|471:176,1,60.0000002980235,4|2,0:0|0:0,0:0:0:0:
492,257,22966,2,0,P|462:259|433:252,1,60.0000002980235,4|2,0:0|0:0,0:0:0:0:
351,272,23499,6,0,P|349:243|357:214,1,60.0000002980235,4|2,0:0|0:0,0:0:0:0:
394,135,24032,1,4,0:0:0:0:
341,68,24299,1,2,0:0:0:0:
259,87,24566,2,0,P|256:57|264:28,2,60.0000002980235,4|0|2,0:0|0:0|0:0,0:0:0:0:
218,160,25366,1,2,0:0:0:0:
134,168,25632,5,2,0:0:0:0:
118,250,25899,2,0,P|115:279|123:308,1,60.0000002980235,0|10,0:0|0:0,0:0:0:0:
182,367,26432,1,0,0:0:0:0:
265,354,26699,2,0,P|313:367|382:345,1,120.000000596047,2|0,0:0|0:0,0:0:0:0:
426,277,27499,1,2,0:0:0:0:
426,192,27766,5,2,0:0:0:0:
401,111,28032,2,0,L|405:51,2,60.0000002980235,0|10|0,0:0|0:0|0:0,0:0:0:0:
321,83,28832,2,0,L|313:202,1,120.000000596047,2|0,0:0|0:0,0:0:0:0:
348,278,29632,1,2,0:0:0:0:
388,351,29899,6,0,P|359:360|326:358,1,60.0000002980235,2|0,0:0|0:0,0:0:0:0:
247,339,30432,2,0,P|217:337|188:346,1,60.0000002980235,8|0,0:0|0:0,0:0:0:0:
112,382,30966,2,0,P|103:353|105:320,1,60.0000002980235,2|0,0:0|0:0,0:0:0:0:
113,240,31499,1,8,0:0:0:0:
89,159,31766,1,0,0:0:0:0:
141,93,32032,6,0,L|145:33,1,60.0000002980235,2|0,0:0|0:0,0:0:0:0:
229,16,32566,2,0,L|289:20,1,60.0000002980235,10|0,0:0|0:0,0:0:0:0:
361,61,33099,2,0,L|353:160,1,100.000000496706,2|2,0:0|0:0,0:0:0:0:
446,333,34166,6,0,P|398:360|333:359,1,120.000000596047,2|0,0:0|0:0,0:0:0:0:
265,314,34966,1,10,0:0:0:0:
202,258,35232,2,0,P|154:231|89:232,1,120.000000596047,2|0,0:0|0:0,0:0:0:0:
25,177,36032,1,10,0:0:0:0:
62,101,36299,2,0,L|66:41,2,60.0000002980235,0|0|0,0:0|0:0|0:0,0:0:0:0:
138,135,37099,1,0,0:0:0:0:
166,214,37366,2,0,B|179:259|166:299|166:299|220:284|268:302,1,180.00000089407,0|0,0:0|0:0,0:0:0:0:
314,361,38432,6,0,L|450:350,1,120.000000596047,2|0,0:0|0:0,0:0:0:0:
512,319,39232,1,10,0:0:0:0:
454,257,39499,2,0,L|318:268,1,120.000000596047,2|0,0:0|0:0,0:0:0:0:
257,301,40299,1,10,0:0:0:0:
203,236,40566,2,0,P|174:228|144:229,1,60.0000002980235,2|2,0:0|0:0,0:0:0:0:
62,247,41099,2,0,P|60:217|68:188,1,60.0000002980235,10|10,0:0|0:0,0:0:0:0:
113,118,41632,2,0,B|151:80|197:91|197:91|230:130|285:113,1,180.000000894071,2|0,0:0|0:0,0:0:0:0:
356,90,42699,6,0,P|414:85|466:115,1,120.000000596047,2|0,0:0|0:0,0:0:0:0:
496,193,43499,1,10,0:0:0:0:
444,259,43766,2,0,P|385:263|333:233,1,120.000000596047,2|0,0:0|0:0,0:0:0:0:
250,218,44566,1,10,0:0:0:0:
190,277,44832,2,0,L|130:281,1,60.0000002980235,0|0,0:0|0:0,0:0:0:0:
61,233,45366,2,0,L|57:173,1,60.0000002980235,0|0,0:0|0:0,0:0:0:0:
99,100,45899,2,0,B|138:105|163:104|163:104|208:88|208:88|284:92,1,180.000000894071,0|0,0:0|0:0,0:0:0:0:
360,96,46966,6,0,L|368:215,1,120.000000596047,2|0,0:0|0:0,0:0:0:0:
373,299,47766,1,10,0:0:0:0:
289,307,48032,2,0,L|170:315,1,120.000000596047,2|0,0:0|0:0,0:0:0:0:
85,323,48832,1,10,0:0:0:0:
55,244,49099,2,0,P|54:214|62:185,1,60.0000002980235,2|2,0:0|0:0,0:0:0:0:
111,116,49632,2,0,P|118:87|118:57,1,60.0000002980235,10|10,0:0|0:0,0:0:0:0:
199,34,50166,2,0,B|284:69|284:4|392:52,1,180.000000894071,2|0,0:0|0:0,0:0:0:0:
448,88,51232,1,4,0:0:0:0:
