osu file format v14

[General]
AudioFilename: audio.mp3
AudioLeadIn: 0
PreviewTime: 58202
Countdown: 0
SampleSet: Normal
StackLeniency: 0.7
Mode: 0
LetterboxInBreaks: 0
WidescreenStoryboard: 0

[Editor]
DistanceSpacing: 1.3
BeatDivisor: 4
GridSize: 4
TimelineZoom: 1.7

[Metadata]
Title:Finale
TitleUnicode:Finale
Artist:toby fox
ArtistUnicode:toby fox
Creator:Fatfan Kolek
Version:Hard
Source:UNDERTALE
Tags:flowey boss fight chiptune soundtrack radiation
BeatmapID:1415549
BeatmapSetID:667713

[Difficulty]
HPDrainRate:5
CircleSize:4
OverallDifficulty:6.5
ApproachRate:7.5
SliderMultiplier:1.2
SliderTickRate:1

[Events]
//Background and Video events
0,0,"wallhaven-280608.jpg",0,0
//Break Periods
//Storyboard Layer 0 (Background)
//Storyboard Layer 1 (Fail)
//Storyboard Layer 2 (Pass)
//Storyboard Layer 3 (Foreground)
//Storyboard Sound Samples

[TimingPoints]
113,315.789473684211,4,2,0,50,1,0
113,-200,4,2,0,50,0,0
9586,-366.333333333333,4,2,0,50,0,0
10060,-366.333333333333,4,2,0,5,0,0
10218,-200,4,2,0,50,0,0
19691,-366.333333333333,4,2,0,50,0,0
20165,-366.333333333333,4,2,0,5,0,0
20323,-100,4,2,0,50,0,0
25376,-100,4,2,0,50,0,0
35165,-200,4,1,0,50,0,0
35481,-100,4,2,0,50,0,0
40534,-200,4,2,0,50,0,0
60744,-80,4,1,0,50,0,1
103691,-80,4,1,0,40,0,1
104955,-80,4,1,0,30,0,1
105586,-100,4,1,0,30,0,1
106376,-100,4,1,0,50,0,0
107481,-100,4,1,0,35,0,0
108744,-100,4,1,0,20,0,0
110007,-80,4,1,0,5,0,0

[Colours]
Combo1 : 253,0,0
Combo2 : 0,128,0
Combo3 : 255,102,102
Combo4 : 0,64,0

[HitObjects]
86,53,113,5,4,0:2:0:0:
150,97,428,2,0,L|178:89,2,30,0|0|2,0:0|0:0|0:2,0:0:0:0:
94,152,1060,2,0,P|86:182|89:214,1,60,0|0,0:0|0:0,0:0:0:0:
134,273,1691,2,0,L|170:262,1,30,0|0,0:2|0:0,0:0:0:0:
200,253,2007,1,2,0:0:0:0:
263,298,2323,1,0,0:0:0:0:
295,227,2639,6,0,P|310:206|343:186,1,60,4|0,0:2|0:0,0:0:0:0:
376,178,3113,1,0,0:0:0:0:
414,175,3270,2,0,L|427:114,1,60,2|0,0:2|0:0,0:0:0:0:
444,39,3902,2,0,P|418:37|384:49,1,60,0|0,0:0|0:0,0:0:0:0:
320,90,4534,2,0,P|291:100|262:98,1,60,0|0,0:0|0:0,0:0:0:0:
194,59,5165,5,4,0:2:0:0:
130,103,5481,2,0,L|102:95,2,30,0|0|2,0:0|0:0|0:2,0:0:0:0:
186,158,6112,2,0,P|194:188|191:220,1,60,0|0,0:0|0:0,0:0:0:0:
155,285,6744,2,0,L|191:296,1,30,0|0,0:2|0:0,0:0:0:0:
221,302,7059,1,2,0:0:0:0:
287,260,7376,1,0,0:0:0:0:
364,269,7691,6,0,B|364:237|364:237|342:204,1,60,4|0,0:0|0:0,0:0:0:0:
327,180,8165,1,0,0:0:0:0:
304,149,8323,2,0,B|288:125|288:125|289:93,1,60,2|0,0:0|0:0,0:0:0:0:
325,24,8955,2,0,L|394:16,1,60,0|0,0:0|0:0,0:0:0:0:
460,10,9586,6,0,P|470:36|470:62,1,49.1355764335771,0|0,1:0|0:0,0:0:0:0:
458,132,10218,5,4,0:0:0:0:
394,176,10533,2,0,L|366:168,2,30,0|0|2,0:0|0:0|0:0,0:0:0:0:
450,231,11165,2,0,P|458:261|455:293,1,60,0|0,0:0|0:0,0:0:0:0:
410,352,11797,2,0,L|374:341,1,30,0|0,0:0|0:0,0:0:0:0:
344,332,12112,1,2,0:0:0:0:
281,377,12428,1,0,0:0:0:0:
249,306,12744,6,0,P|234:285|201:265,1,60,4|0,0:0|0:0,0:0:0:0:
168,257,13218,1,0,0:0:0:0:
130,254,13375,2,0,L|117:193,1,60,2|0,0:0|0:0,0:0:0:0:
100,118,14007,2,0,P|126:116|160:128,1,60,0|0,0:0|0:0,0:0:0:0:
224,169,14639,2,0,P|252:179|281:177,1,60,0|0,0:0|0:0,0:0:0:0:
345,132,15270,5,4,0:0:0:0:
410,173,15586,2,0,L|438:165,2,30,0|0|2,0:0|0:0|0:0,0:0:0:0:
355,229,16218,2,0,P|347:259|350:291,1,60,0|0,0:0|0:0,0:0:0:0:
381,358,16849,2,0,L|345:369,1,30,0|0,0:0|0:0,0:0:0:0:
315,379,17164,1,2,0:0:0:0:
253,331,17481,1,0,0:0:0:0:
176,342,17797,6,0,B|175:310|175:310|197:277,1,60,4|0,0:0|0:0,0:0:0:0:
216,257,18270,1,0,0:0:0:0:
240,226,18428,2,0,B|255:202|255:202|254:170,1,60,2|0,0:0|0:0,0:0:0:0:
219,100,19060,2,0,L|150:92,1,60,0|0,0:0|0:0,0:0:0:0:
84,89,19691,6,0,P|74:115|74:141,1,49.1355764335771,0|0,1:0|0:0,0:0:0:0:
91,212,20323,6,0,L|150:218,1,60,4|0,0:0|0:0,0:0:0:0:
228,228,20639,1,0,0:0:0:0:
286,286,20797,1,0,0:0:0:0:
286,286,20955,2,0,P|305:247|284:171,1,120,0|0,1:0|0:0,0:0:0:0:
200,45,21586,6,0,L|256:21,1,60,0|0,0:0|0:0,0:0:0:0:
328,50,21902,1,0,0:0:0:0:
401,24,22060,1,0,0:0:0:0:
401,24,22218,2,0,B|429:78|429:78|429:143,1,120,0|0,1:0|0:0,0:0:0:0:
403,291,22849,6,0,P|374:297|345:292,1,60,4|0,0:0|0:0,0:0:0:0:
278,249,23165,1,0,0:0:0:0:
234,313,23323,1,0,0:0:0:0:
234,313,23481,2,0,L|171:313,1,60,0|0,1:0|0:0,0:0:0:0:
95,314,23797,6,0,P|60:275|47:205,1,120,2|2,0:2|0:2,0:0:0:0:
80,57,24428,2,0,P|115:96|128:166,1,120,2|2,0:2|1:2,0:0:0:0:
95,314,25060,1,2,0:2:0:0:
128,160,25376,6,0,P|157:155|189:162,1,60,4|0,0:0|0:0,0:0:0:0:
246,211,25691,1,0,0:0:0:0:
308,164,25849,1,0,0:0:0:0:
308,164,26007,2,0,L|289:38,1,120,0|0,1:0|0:0,0:0:0:0:
444,21,26639,6,0,L|453:83,1,60,0|0,0:0|0:0,0:0:0:0:
463,158,26955,1,0,0:0:0:0:
431,229,27113,1,0,0:0:0:0:
431,229,27270,2,0,P|384:235|335:290,1,120,0|0,1:0|0:0,0:0:0:0:
195,356,27902,6,0,L|135:349,1,60,4|0,0:0|0:0,0:0:0:0:
57,339,28217,1,0,0:0:0:0:
85,265,28376,1,0,0:0:0:0:
85,265,28534,2,0,L|204:277,1,120,0|2,1:0|0:0,0:0:0:0:
352,227,29165,6,0,B|310:222|310:222|280:201|280:201|239:197,1,120,2|2,0:0|0:0,0:0:0:0:
88,155,29797,2,0,B|149:148|149:148|194:116|194:116|256:110,1,180,2|0,1:2|0:0,0:0:0:0:
334,103,30428,6,0,L|342:167,1,60,4|0,0:0|0:0,0:0:0:0:
323,238,30744,1,0,0:0:0:0:
259,295,30902,1,0,0:0:0:0:
259,295,31060,2,0,P|240:256|261:180,1,120,0|0,1:0|0:0,0:0:0:0:
311,37,31691,6,0,L|255:13,1,60,0|0,0:0|0:0,0:0:0:0:
184,50,32007,1,0,0:0:0:0:
111,24,32165,1,0,0:0:0:0:
111,24,32323,2,0,B|83:78|83:78|83:143,1,120,0|0,1:0|0:0,0:0:0:0:
109,291,32955,6,0,P|138:297|167:292,1,60,4|0,0:0|0:0,0:0:0:0:
234,249,33270,1,0,0:0:0:0:
278,313,33428,1,0,0:0:0:0:
278,313,33586,2,0,L|341:313,1,60,0|0,1:0|0:0,0:0:0:0:
417,314,33902,6,0,P|452:275|465:205,1,120,2|2,0:2|0:2,0:0:0:0:
432,57,34533,2,0,P|397:96|384:166,1,120,0|2,0:0|1:2,0:0:0:0:
417,314,35165,1,2,0:2:0:0:
384,160,35481,6,0,P|355:155|323:162,1,60,4|0,0:0|0:0,0:0:0:0:
266,211,35796,1,0,0:0:0:0:
204,164,35954,1,0,0:0:0:0:
204,164,36112,2,0,L|223:38,1,120,0|0,1:0|0:0,0:0:0:0:
68,21,36744,6,0,L|59:83,1,60,0|0,0:0|0:0,0:0:0:0:
49,158,37060,1,0,0:0:0:0:
81,229,37218,1,0,0:0:0:0:
81,229,37375,2,0,P|128:235|177:290,1,120,0|0,0:0|0:0,0:0:0:0:
317,356,38007,6,0,L|376:349,1,60,4|0,0:0|0:0,0:0:0:0:
455,339,38322,1,0,0:0:0:0:
427,265,38481,1,0,0:0:0:0:
427,265,38639,2,0,L|307:277,1,120,0|2,1:0|0:0,0:0:0:0:
160,227,39270,6,0,B|201:222|201:222|231:201|231:201|272:197,1,120,2|2,0:0|0:0,0:0:0:0:
424,155,39902,2,0,B|362:148|362:148|317:116|317:116|255:110,1,180,2|0,1:2|0:0,0:0:0:0:
215,108,40534,5,4,0:0:0:0:
141,134,40849,1,0,0:0:0:0:
100,200,41165,2,0,L|67:200,2,30,2|2|2,1:2|0:0|0:0,0:0:0:0:
134,219,41639,1,2,0:0:0:0:
151,254,41797,6,0,P|166:285|196:302,1,60,2|0,3:0|0:0,0:0:0:0:
263,313,42428,2,0,L|302:314,1,30,2|2,1:2|0:0,0:0:0:0:
328,297,42744,2,0,L|366:297,1,30,2|2,0:0|0:0,0:0:0:0:
391,277,43060,5,6,0:0:0:0:
345,213,43376,1,0,0:0:0:0:
390,149,43691,2,0,L|424:165,2,30,2|2|2,1:2|0:0|0:0,0:0:0:0:
353,134,44165,1,2,0:0:0:0:
317,117,44323,6,0,P|288:109|254:110,1,60,2|0,3:0|0:0,0:0:0:0:
187,142,44955,2,0,L|155:148,1,30,2|2,1:2|0:0,0:0:0:0:
138,181,45270,2,0,L|106:187,1,30,2|2,0:0|0:0,0:0:0:0:
70,194,45586,5,6,0:0:0:0:
54,270,45902,1,0,0:0:0:0:
113,320,46218,2,0,L|94:347,2,30,2|2|2,1:2|0:0|0:0,0:0:0:0:
139,290,46691,1,2,0:0:0:0:
174,273,46849,6,0,P|205:269|236:273,1,60,2|0,3:0|0:0,0:0:0:0:
306,300,47481,2,0,L|345:288,1,30,2|2,1:2|0:0,0:0:0:0:
356,258,47797,2,0,L|395:246,1,30,2|2,0:0|0:0,0:0:0:0:
422,237,48113,5,6,0:0:0:0:
453,166,48428,1,0,0:0:0:0:
456,88,48744,2,0,L|495:88,2,30,2|2|2,1:2|0:0|0:0,0:0:0:0:
416,88,49218,1,2,0:0:0:0:
378,96,49376,6,0,P|353:110|333:135,1,60,2|0,3:0|0:0,0:0:0:0:
330,212,50007,2,0,L|292:219,1,30,2|2,1:2|0:0,0:0:0:0:
270,242,50323,2,0,L|232:249,1,30,2|2,0:0|0:0,0:0:0:0:
215,276,50639,5,6,0:0:0:0:
141,250,50954,1,0,0:0:0:0:
100,184,51270,2,0,L|67:184,2,30,2|2|2,1:2|0:0|0:0,0:0:0:0:
134,165,51744,1,2,0:0:0:0:
151,130,51902,6,0,P|166:99|196:82,1,60,2|0,3:0|0:0,0:0:0:0:
263,70,52533,2,0,L|302:70,1,30,2|2,1:2|0:0,0:0:0:0:
328,87,52849,2,0,L|366:86,1,30,2|2,0:0|0:0,0:0:0:0:
391,107,53165,5,6,0:0:0:0:
345,171,53481,1,0,0:0:0:0:
390,235,53797,2,0,L|424:219,2,30,2|2|2,1:2|0:0|0:0,0:0:0:0:
353,250,54270,1,2,0:0:0:0:
317,267,54428,6,0,P|288:275|254:274,1,60,2|0,3:0|0:0,0:0:0:0:
187,242,55060,2,0,L|155:236,1,30,2|2,1:2|0:0,0:0:0:0:
138,203,55376,2,0,L|106:197,1,30,2|2,0:0|0:0,0:0:0:0:
70,190,55691,5,6,0:0:0:0:
54,114,56007,1,0,0:0:0:0:
113,64,56323,2,0,L|94:37,2,30,2|2|2,1:2|0:0|0:0,0:0:0:0:
139,94,56796,1,2,0:0:0:0:
174,111,56954,6,0,P|205:115|236:111,1,60,2|0,3:0|0:0,0:0:0:0:
306,84,57586,2,0,L|345:96,1,30,2|2,1:2|0:0,0:0:0:0:
356,126,57902,2,0,L|395:138,1,30,2|2,0:0|0:0,0:0:0:0:
422,147,58218,5,6,0:0:0:0:
480,211,58534,1,2,0:0:0:0:
480,211,58691,1,2,0:0:0:0:
480,211,58849,1,2,0:0:0:0:
475,288,59165,1,2,0:0:0:0:
406,325,59481,6,0,B|374:311|374:311|361:295|361:295|330:282,1,90,2|0,0:0|0:0,0:0:0:0:
290,288,60113,2,0,L|253:273,1,30,2|2,0:0|0:0,0:0:0:0:
225,288,60428,2,0,L|188:273,1,30,2|2,0:0|0:0,0:0:0:0:
106,239,60744,6,0,L|37:211,1,75,4|0,0:0|0:0,0:0:0:0:
27,112,61060,1,2,0:2:0:0:
84,32,61218,1,2,0:2:0:0:
84,32,61376,2,0,P|154:26|223:71,1,150,2|2,0:2|0:2,0:0:0:0:
246,160,61849,1,0,0:0:0:0:
330,111,62007,6,0,B|366:117|366:117|398:146,1,75,2|0,0:2|0:0,0:0:0:0:
449,224,62323,1,2,0:2:0:0:
389,301,62481,1,2,0:2:0:0:
389,301,62639,2,0,L|233:284,1,150,2|2,0:2|0:2,0:0:0:0:
45,300,63270,6,0,P|42:259|56:222,1,75,4|0,0:0|0:0,0:0:0:0:
136,176,63586,1,2,0:2:0:0:
82,94,63744,1,2,0:2:0:0:
82,94,63902,2,0,P|156:78|218:119,1,150,2|2,0:2|0:2,0:0:0:0:
258,203,64376,1,2,0:2:0:0:
328,135,64534,6,0,L|365:68,1,75,2|0,0:2|0:0,0:0:0:0:
461,69,64849,2,0,L|424:136,1,75,2|0,0:2|0:0,0:0:0:0:
379,221,65165,2,0,L|415:286,1,75,2|0,0:2|0:0,0:0:0:0:
512,287,65481,2,0,L|475:221,1,75,2|0,0:2|0:0,0:0:0:0:
424,134,65797,5,4,0:0:0:0:
424,134,65955,2,0,P|346:127|292:172,1,150,2|2,0:2|0:2,0:0:0:0:
282,266,66428,2,0,P|243:279|204:276,1,75,2|0,0:2|0:0,0:0:0:0:
118,240,66744,1,2,0:2:0:0:
85,47,67060,6,0,L|62:133,1,75,2|0,0:2|0:0,0:0:0:0:
156,155,67376,1,2,0:2:0:0:
172,58,67534,1,2,0:2:0:0:
172,58,67691,2,0,P|215:30|313:38,1,150,2|2,0:2|0:2,0:0:0:0:
378,106,68165,1,0,0:0:0:0:
344,197,68323,6,0,B|380:258|380:258|463:243,1,150,4|2,0:0|0:2,0:0:0:0:
482,148,68797,1,2,0:2:0:0:
482,148,68955,2,0,L|512:77,2,75,2|0|2,0:2|0:0|0:2,0:0:0:0:
393,321,69586,6,0,B|344:328|344:328|296:314|296:314|241:323,1,150,2|0,0:2|0:0,0:0:0:0:
150,344,70060,1,0,0:0:0:0:
81,275,70218,2,0,B|129:267|129:267|170:239|170:239|225:230,1,150,2|0,0:2|0:0,0:0:0:0:
416,239,70849,6,0,L|485:211,1,75,4|0,0:0|0:0,0:0:0:0:
485,112,71165,1,2,0:2:0:0:
428,32,71323,1,2,0:2:0:0:
428,32,71481,2,0,P|358:26|289:71,1,150,2|2,0:2|0:2,0:0:0:0:
266,160,71954,1,0,0:0:0:0:
182,111,72112,6,0,B|146:117|146:117|114:146,1,75,2|0,0:2|0:0,0:0:0:0:
63,224,72428,1,2,0:2:0:0:
123,301,72586,1,2,0:2:0:0:
123,301,72744,2,0,L|279:284,1,150,2|2,0:2|0:2,0:0:0:0:
467,300,73376,6,0,P|470:259|456:222,1,75,4|0,0:0|0:0,0:0:0:0:
376,176,73691,1,2,0:2:0:0:
430,94,73849,1,2,0:2:0:0:
430,94,74007,2,0,P|356:78|294:119,1,150,2|2,0:2|0:2,0:0:0:0:
254,203,74481,1,2,0:2:0:0:
184,135,74639,6,0,L|147:68,1,75,2|0,0:2|0:0,0:0:0:0:
51,69,74955,2,0,L|88:136,1,75,2|0,0:2|0:0,0:0:0:0:
133,221,75270,2,0,L|97:286,1,75,2|0,0:2|0:0,0:0:0:0:
0,287,75586,2,0,L|37:221,1,75,2|0,0:2|0:0,0:0:0:0:
88,134,75902,5,4,0:0:0:0:
88,134,76060,2,0,P|166:127|220:172,1,150,2|2,0:2|0:2,0:0:0:0:
230,266,76533,2,0,P|269:279|308:276,1,75,0|0,0:0|0:0,0:0:0:0:
394,240,76849,1,2,0:2:0:0:
427,47,77165,6,0,L|450:133,1,75,2|0,0:2|0:0,0:0:0:0:
356,155,77481,1,2,0:2:0:0:
340,58,77639,1,2,0:2:0:0:
340,58,77797,2,0,P|297:30|199:38,1,150,2|2,0:2|0:2,0:0:0:0:
134,106,78270,1,0,0:0:0:0:
168,197,78428,6,0,B|132:258|132:258|49:243,1,150,4|2,0:0|0:2,0:0:0:0:
30,148,78902,1,2,0:2:0:0:
30,148,79060,2,0,L|0:77,2,75,2|0|2,0:2|0:0|0:2,0:0:0:0:
106,328,79691,6,0,B|154:335|154:335|202:321|202:321|257:330,1,150,2|0,0:2|0:0,0:0:0:0:
349,354,80165,1,0,0:0:0:0:
407,275,80323,2,0,B|358:267|358:267|317:239|317:239|262:230,1,150,2|0,0:2|0:0,0:0:0:0:
82,166,80955,6,0,L|29:175,2,37.5,2|2|2,0:2|0:2|0:2,0:0:0:0:
163,111,81270,1,2,0:2:0:0:
163,111,81428,1,2,0:2:0:0:
163,111,81586,2,0,L|236:98,1,75,2|0,0:2|0:0,0:0:0:0:
304,27,81902,2,0,L|377:14,1,75,2|0,0:2|0:0,0:0:0:0:
456,73,82218,6,0,L|509:64,2,37.5,2|2|2,0:2|0:2|0:2,0:0:0:0:
375,128,82534,1,2,0:2:0:0:
375,128,82691,1,2,0:2:0:0:
375,128,82849,2,0,L|301:140,1,75,2|0,0:2|0:0,0:0:0:0:
234,212,83165,2,0,L|160:224,1,75,2|0,0:2|0:0,0:0:0:0:
89,292,83481,6,0,P|123:329|224:343,1,150,4|2,0:0|0:2,0:0:0:0:
302,295,83955,1,2,0:2:0:0:
398,310,84113,2,0,P|396:266|382:240,1,75,2|0,0:2|0:0,0:0:0:0:
289,205,84428,2,0,P|272:171|272:134,1,75,2|2,0:2|0:2,0:0:0:0:
311,44,84744,6,0,L|397:44,1,75,2|0,0:2|0:0,0:0:0:0:
460,107,85060,2,0,L|503:107,2,37.5,2|0|2,0:2|0:0|0:2,0:0:0:0:
371,150,85376,2,0,L|328:150,2,37.5,2|0|0,0:2|0:0|0:0,0:0:0:0:
454,200,85691,1,2,0:2:0:0:
449,296,85849,1,2,0:2:0:0:
449,296,86007,6,0,L|267:322,1,150,4|2,0:0|0:2,0:0:0:0:
203,330,86481,1,2,0:2:0:0:
140,255,86639,2,0,L|321:228,1,150,2|2,0:2|0:2,0:0:0:0:
399,72,87270,6,0,P|365:55|318:53,1,75,2|0,0:2|0:0,0:0:0:0:
236,85,87586,1,2,0:2:0:0:
142,56,87744,1,2,0:2:0:0:
142,56,87902,2,0,B|94:111|94:111|86:195,1,150,2|2,0:2|0:2,0:0:0:0:
79,285,88376,1,0,0:0:0:0:
158,342,88534,6,0,L|239:349,1,75,4|2,0:0|0:2,0:0:0:0:
322,309,88849,2,0,L|328:234,1,75,2|2,0:2|0:2,0:0:0:0:
287,145,89165,2,0,L|212:138,1,75,2|2,0:2|0:2,0:0:0:0:
126,186,89481,2,0,L|119:260,1,75,2|2,0:2|0:2,0:0:0:0:
158,342,89797,6,0,L|153:382,2,37.5,2|2|2,0:2|0:2|0:2,0:0:0:0:
200,262,90113,2,0,L|205:222,2,37.5,2|0|2,0:2|0:0|0:2,0:0:0:0:
253,337,90428,2,0,L|248:377,2,37.5,2|0|2,0:2|0:0|0:2,0:0:0:0:
295,257,90744,2,0,L|300:217,2,37.5,2|0|2,0:2|0:0|0:2,0:0:0:0:
352,333,91060,6,0,L|347:373,2,37.5,2|2|2,0:2|0:2|0:2,0:0:0:0:
391,242,91376,1,2,0:2:0:0:
391,242,91534,1,2,0:2:0:0:
391,242,91692,2,0,P|399:204|399:149,1,75,2|0,0:2|0:0,0:0:0:0:
336,89,92007,2,0,L|263:71,1,75,2|0,0:2|0:0,0:0:0:0:
167,47,92323,6,0,L|114:35,2,37.5,2|2|2,0:2|0:2|0:2,0:0:0:0:
189,142,92639,1,2,0:2:0:0:
189,142,92797,1,2,0:2:0:0:
189,142,92955,2,0,P|212:169|251:182,1,75,2|0,0:2|0:0,0:0:0:0:
341,153,93270,2,0,P|375:165|400:193,1,75,2|0,0:2|0:0,0:0:0:0:
411,291,93587,6,0,P|377:328|276:342,1,150,4|2,0:0|0:2,0:0:0:0:
200,288,94061,1,2,0:2:0:0:
103,303,94219,2,0,P|105:259|119:233,1,75,2|0,0:2|0:0,0:0:0:0:
214,208,94534,2,0,P|230:174|230:137,1,75,2|2,0:2|0:2,0:0:0:0:
201,44,94849,6,0,L|115:44,1,75,2|0,0:2|0:0,0:0:0:0:
52,107,95165,2,0,L|9:107,2,37.5,2|0|2,0:2|0:0|0:2,0:0:0:0:
141,150,95481,2,0,L|184:150,2,37.5,2|0|0,0:2|0:0|0:0,0:0:0:0:
58,200,95796,1,0,0:0:0:0:
63,296,95954,1,2,0:2:0:0:
63,296,96113,6,0,L|244:322,1,150,4|2,0:0|0:2,0:0:0:0:
309,330,96587,1,2,0:2:0:0:
372,255,96745,2,0,L|190:228,1,150,2|2,0:2|0:2,0:0:0:0:
113,72,97376,6,0,P|147:55|194:53,1,75,2|0,0:2|0:0,0:0:0:0:
276,85,97692,1,2,0:2:0:0:
370,56,97850,1,2,0:2:0:0:
370,56,98008,2,0,B|418:111|418:111|426:195,1,150,2|2,0:2|0:2,0:0:0:0:
433,285,98482,1,0,0:0:0:0:
354,342,98640,6,0,L|273:349,1,75,4|2,0:0|0:2,0:0:0:0:
190,309,98955,2,0,L|183:234,1,75,2|2,0:2|0:2,0:0:0:0:
225,145,99271,2,0,L|299:138,1,75,2|2,0:2|0:2,0:0:0:0:
386,186,99587,2,0,L|392:260,1,75,2|2,0:2|0:2,0:0:0:0:
354,342,99902,6,0,L|359:382,2,37.5,2|2|2,0:2|0:2|0:2,0:0:0:0:
312,262,100218,2,0,L|307:222,2,37.5,2|0|2,0:2|0:0|0:2,0:0:0:0:
259,337,100533,2,0,L|264:377,2,37.5,0|0|2,0:0|0:0|0:2,0:0:0:0:
217,257,100849,2,0,L|212:217,2,37.5,2|0|2,0:2|0:0|0:2,0:0:0:0:
129,321,101165,6,0,P|113:287|111:251,1,75,4|0,0:0|0:0,0:0:0:0:
149,169,101481,2,0,P|147:131|131:98,1,75,2|2,0:2|0:2,0:0:0:0:
67,30,101797,2,0,B|117:6|117:6|216:5,1,150,2|2,0:2|0:2,0:0:0:0:
290,56,102270,1,0,0:0:0:0:
387,61,102428,6,0,L|406:137,1,75,2|0,0:2|0:0,0:0:0:0:
427,226,102744,1,2,0:2:0:0:
359,296,102902,1,2,0:2:0:0:
359,296,103060,2,0,P|322:255|232:255,1,150,2|2,0:2|0:2,0:0:0:0:
55,171,103691,6,0,L|197:117,1,150,4|2,0:0|0:2,0:0:0:0:
287,84,104165,1,2,0:2:0:0:
357,151,104323,2,0,L|285:178,1,75,2|0,0:2|0:0,0:0:0:0:
238,262,104639,1,2,0:2:0:0:
321,312,104797,1,2,0:2:0:0:
321,312,104955,6,0,P|390:323|431:253,1,150,2|2,0:2|0:2,0:0:0:0:
506,126,105586,2,0,B|455:89|455:89|388:89,1,120,2|2,0:2|0:2,0:0:0:0:
263,168,106218,5,4,0:0:0:0:
256,192,106376,12,0,110007,0:0:0:0:
