osu file format v14

[General]
AudioFilename: audio.mp3
AudioLeadIn: 0
PreviewTime: 58202
Countdown: 0
SampleSet: Soft
StackLeniency: 0.7
Mode: 0
LetterboxInBreaks: 0
WidescreenStoryboard: 0

[Editor]
DistanceSpacing: 0.3
BeatDivisor: 4
GridSize: 4
TimelineZoom: 1.7

[Metadata]
Title:Finale
TitleUnicode:Finale
Artist:toby fox
ArtistUnicode:toby fox
Creator:Fatfan Kolek
Version:Another
Source:UNDERTALE
Tags:flowey boss fight chiptune soundtrack radiation
BeatmapID:1412760
BeatmapSetID:667713

[Difficulty]
HPDrainRate:6.5
CircleSize:3.5
OverallDifficulty:8.5
ApproachRate:9.3
SliderMultiplier:1.6
SliderTickRate:1

[Events]
//Background and Video events
0,0,"wallhaven-280608.jpg",0,0
//Break Periods
//Storyboard Layer 0 (Background)
//Storyboard Layer 1 (Fail)
//Storyboard Layer 2 (Pass)
//Storyboard Layer 3 (Foreground)
//Storyboard Sound Samples

[TimingPoints]
113,315.789473684211,4,2,0,50,1,0
2955,-200,4,2,0,50,0,0
9586,-366.333333333333,4,2,0,50,0,0
10060,-366.333333333333,4,2,0,5,0,0
10218,-366.333333333333,4,2,0,50,0,0
10534,-200,4,2,0,50,0,0
19691,-366.333333333333,4,2,0,50,0,0
20165,-366.333333333333,4,2,0,5,0,0
20323,-100,4,2,0,50,0,0
25060,-100,4,1,0,50,0,0
25376,-100,4,2,0,50,0,0
35165,-100,4,1,0,50,0,0
35481,-100,4,2,0,50,0,0
46218,-133.333333333333,4,2,0,50,0,0
60744,-80,4,1,0,50,0,1
103691,-80,4,1,0,40,0,1
104955,-80,4,1,0,30,0,1
105586,-100,4,1,0,30,0,1
106376,-100,4,1,0,50,0,0
107481,-100,4,1,0,35,0,0
108744,-100,4,1,0,20,0,0
110007,-80,4,1,0,5,0,0

[Colours]
Combo1 : 253,0,0
Combo2 : 0,128,0
Combo3 : 255,102,102
Combo4 : 0,64,0

[HitObjects]
99,197,113,5,4,0:2:0:0:
260,144,428,1,0,0:0:0:0:
278,216,586,1,0,0:0:0:0:
296,290,744,1,2,0:2:0:0:
324,301,1060,1,0,0:0:0:0:
349,310,1376,5,0,0:0:0:0:
296,290,1691,1,0,0:2:0:0:
278,216,1849,1,0,0:0:0:0:
260,144,2007,1,2,0:0:0:0:
233,134,2323,1,0,0:0:0:0:
339,61,2639,5,4,0:2:0:0:
469,48,2955,2,0,P|468:71|462:96,1,40,0|0,0:0|0:0,0:0:0:0:
412,151,3270,1,2,0:2:0:0:
469,323,3586,5,0,0:0:0:0:
440,283,3902,1,0,0:0:0:0:
486,298,4218,1,0,0:0:0:0:
440,313,4534,1,0,0:0:0:0:
469,274,4849,1,0,0:0:0:0:
413,187,5165,5,4,0:2:0:0:
252,240,5480,1,0,0:0:0:0:
234,168,5638,1,0,0:0:0:0:
216,94,5796,1,2,0:2:0:0:
188,83,6112,1,0,0:0:0:0:
163,74,6428,5,0,0:0:0:0:
216,94,6743,1,0,0:2:0:0:
234,168,6901,1,0,0:0:0:0:
252,240,7059,1,2,0:0:0:0:
279,250,7375,1,0,0:0:0:0:
173,323,7691,5,4,0:0:0:0:
43,336,8007,2,0,P|44:313|50:288,1,40,0|0,0:0|0:0,0:0:0:0:
96,224,8322,1,0,0:0:0:0:
218,82,8639,5,0,0:0:0:0:
224,109,8955,1,0,0:0:0:0:
230,136,9271,1,0,0:0:0:0:
234,162,9586,2,0,L|246:235,1,65.5141019114361,0|0,1:0|0:0,0:0:0:0:
259,301,10218,5,4,0:0:0:0:
320,177,10534,2,0,L|327:134,1,40,0|0,0:0|0:0,0:0:0:0:
345,51,10849,1,2,0:0:0:0:
372,252,11165,1,0,0:0:0:0:
421,136,11481,5,0,0:0:0:0:
254,63,11797,2,0,P|234:57|211:56,1,40,0|0,0:0|0:0,0:0:0:0:
135,71,12112,1,2,0:0:0:0:
188,247,12428,1,0,0:0:0:0:
41,217,12744,5,4,0:0:0:0:
217,133,13060,2,0,L|206:178,1,40,0|0,0:0|0:0,0:0:0:0:
188,247,13376,1,2,0:0:0:0:
330,135,13691,5,0,0:0:0:0:
414,46,14007,1,0,0:0:0:0:
398,164,14323,1,0,0:0:0:0:
342,59,14639,1,0,0:0:0:0:
449,113,14954,1,0,0:0:0:0:
254,87,15270,5,4,0:0:0:0:
192,207,15586,2,0,L|185:250,1,40,0|0,0:0|0:0,0:0:0:0:
167,333,15901,1,2,0:0:0:0:
140,132,16217,1,0,0:0:0:0:
91,248,16533,5,0,0:0:0:0:
258,321,16849,2,0,P|278:327|301:328,1,40,0|0,0:0|0:0,0:0:0:0:
377,313,17164,1,2,0:0:0:0:
324,137,17480,1,0,0:0:0:0:
471,167,17796,5,4,0:0:0:0:
295,251,18112,2,0,L|306:206,1,40,0|0,0:0|0:0,0:0:0:0:
324,137,18428,1,2,0:0:0:0:
190,44,18744,5,0,0:0:0:0:
151,56,19060,1,0,0:0:0:0:
118,80,19375,1,0,0:0:0:0:
96,110,19691,2,0,P|81:141|76:181,1,65.5141019114361,0|0,1:0|0:0,0:0:0:0:
91,249,20323,6,0,L|173:260,1,80,4|0,0:0|0:0,0:0:0:0:
374,289,20639,1,0,0:0:0:0:
374,289,20797,1,0,0:0:0:0:
420,173,20955,2,0,P|402:137|369:114,1,80,0|0,1:0|0:0,0:0:0:0:
249,207,21270,2,0,P|288:212|325:198,1,80,0|0,0:0|0:0,0:0:0:0:
324,36,21586,5,0,0:0:0:0:
324,36,21902,1,0,0:0:0:0:
157,72,22060,1,0,0:0:0:0:
180,217,22218,2,0,B|196:122|196:122|157:72,1,160,0|0,1:0|0:0,0:0:0:0:
50,51,22691,1,0,0:0:0:0:
106,157,22849,6,0,L|85:275,1,120,4|0,0:0|0:0,0:0:0:0:
79,318,23165,1,0,0:0:0:0:
180,217,23323,1,0,0:0:0:0:
414,282,23481,1,0,1:0:0:0:
414,282,23639,1,0,0:0:0:0:
334,235,23797,6,0,B|319:283|319:283|332:328,1,80,2|0,0:2|0:0,0:0:0:0:
156,149,24113,2,0,B|139:101|139:101|102:72,1,80,2|0,0:2|0:0,0:0:0:0:
350,114,24428,2,0,B|391:142|391:142|438:144,1,80,2|0,0:2|0:0,0:0:0:0:
214,257,24744,2,0,B|163:257|163:257|124:284,1,80,2|0,1:2|0:0,0:0:0:0:
235,69,25060,2,0,B|275:38|275:38|290:-5,1,80,2|0,0:2|0:0,0:0:0:0:
264,198,25376,6,0,B|223:228|223:228|208:272,1,80,4|0,0:0|0:0,0:0:0:0:
196,345,25691,1,0,0:0:0:0:
384,301,25849,1,0,0:0:0:0:
384,301,26007,2,0,P|402:242|384:188,1,120,0|0,1:0|0:0,0:0:0:0:
356,156,26323,1,0,0:0:0:0:
485,213,26481,1,0,0:0:0:0:
390,47,26639,6,0,B|350:40|350:40|287:54,1,80,0|0,0:0|0:0,0:0:0:0:
142,177,26955,2,0,L|198:163,1,40,0|0,0:0|0:0,0:0:0:0:
256,147,27113,1,0,0:0:0:0:
118,62,27270,2,0,P|46:103|22:174,1,160,0|0,1:0|0:0,0:0:0:0:
53,262,27744,1,0,0:0:0:0:
262,319,27902,6,0,L|237:230,1,80,4|0,0:0|0:0,0:0:0:0:
173,351,28218,1,0,0:0:0:0:
367,361,28376,1,0,0:0:0:0:
434,192,28534,1,0,1:0:0:0:
434,192,28691,1,0,0:0:0:0:
343,91,28849,6,0,B|328:76|304:79|304:79|294:95|297:116,1,80,2|0,0:0|0:0,0:0:0:0:
272,218,29165,2,0,B|274:238|264:254|264:254|240:257|226:243,1,80,2|0,0:0|0:0,0:0:0:0:
156,119,29481,2,0,B|153:98|163:82|163:82|187:79|201:93,1,80,2|0,0:0|0:0,0:0:0:0:
337,307,29797,2,0,B|379:350|452:340|452:340|482:292|473:230,1,240,2|0,1:2|0:0,0:0:0:0:
421,135,30428,6,0,L|339:124,1,80,4|0,0:0|0:0,0:0:0:0:
138,95,30744,1,0,0:0:0:0:
138,95,30902,1,0,0:0:0:0:
92,211,31060,2,0,P|109:246|142:269,1,80,0|0,1:0|0:0,0:0:0:0:
263,177,31376,2,0,P|224:172|187:186,1,80,0|0,0:0|0:0,0:0:0:0:
188,348,31691,5,0,0:0:0:0:
188,348,32007,1,0,0:0:0:0:
355,312,32165,1,0,0:0:0:0:
331,166,32323,2,0,B|316:262|316:262|355:312,1,160,0|0,1:0|0:0,0:0:0:0:
462,333,32796,1,0,0:0:0:0:
406,227,32954,6,0,L|426:108,1,120,4|0,0:0|0:0,0:0:0:0:
433,66,33270,1,0,0:0:0:0:
331,166,33428,1,0,0:0:0:0:
98,102,33586,1,0,1:0:0:0:
98,102,33744,1,0,0:0:0:0:
178,149,33902,6,0,B|192:100|192:100|179:55,1,80,2|0,0:2|0:0,0:0:0:0:
356,235,34218,2,0,B|372:282|372:282|409:311,1,80,2|0,0:2|0:0,0:0:0:0:
162,270,34533,2,0,B|120:241|120:241|73:239,1,80,0|0,0:0|0:0,0:0:0:0:
298,127,34849,2,0,B|348:126|348:126|387:99,1,80,2|0,1:2|0:0,0:0:0:0:
277,315,35165,2,0,B|236:345|236:345|221:389,1,80,2|0,0:2|0:0,0:0:0:0:
248,186,35481,6,0,B|288:155|288:155|303:111,1,80,4|0,0:0|0:0,0:0:0:0:
316,39,35796,1,0,0:0:0:0:
128,83,35954,1,0,0:0:0:0:
128,83,36112,2,0,P|110:142|128:196,1,120,0|0,1:0|0:0,0:0:0:0:
156,228,36428,1,0,0:0:0:0:
27,171,36586,1,0,0:0:0:0:
122,337,36744,6,0,B|162:344|162:344|225:330,1,80,0|0,0:0|0:0,0:0:0:0:
370,207,37060,2,0,L|314:221,1,40,0|0,0:0|0:0,0:0:0:0:
256,237,37218,1,0,0:0:0:0:
394,322,37375,2,0,P|466:281|490:210,1,160,0|0,0:0|0:0,0:0:0:0:
459,122,37849,1,0,0:0:0:0:
250,65,38007,6,0,L|274:153,1,80,4|0,0:0|0:0,0:0:0:0:
339,33,38323,1,0,0:0:0:0:
145,23,38481,1,0,0:0:0:0:
78,192,38639,1,0,1:0:0:0:
78,192,38796,1,0,0:0:0:0:
169,293,38955,6,0,B|183:307|207:304|207:304|217:288|214:267,1,80,2|0,0:0|0:0,0:0:0:0:
240,166,39270,2,0,B|237:145|247:129|247:129|271:126|285:140,1,80,2|0,0:0|0:0,0:0:0:0:
356,265,39586,2,0,B|358:285|348:301|348:301|324:304|310:290,1,80,2|0,0:0|0:0,0:0:0:0:
175,77,39902,2,0,B|132:33|59:43|59:43|29:91|38:153,1,240,2|0,1:2|0:0,0:0:0:0:
60,248,40534,5,4,0:0:0:0:
292,148,40849,1,0,0:0:0:0:
175,77,41165,1,2,1:2:0:0:
161,114,41323,1,2,0:0:0:0:
157,154,41481,1,2,0:0:0:0:
164,193,41639,1,2,0:0:0:0:
181,230,41797,5,2,3:0:0:0:
377,324,42113,1,0,0:0:0:0:
181,230,42428,1,2,1:2:0:0:
164,193,42586,1,2,0:0:0:0:
157,154,42744,1,2,0:0:0:0:
161,114,42902,1,2,0:0:0:0:
175,77,43060,5,6,0:0:0:0:
412,45,43376,1,0,0:0:0:0:
412,190,43691,1,2,1:2:0:0:
326,72,43849,1,2,0:0:0:0:
461,116,44007,1,2,0:0:0:0:
326,160,44165,1,2,0:0:0:0:
412,45,44323,5,2,3:0:0:0:
342,262,44639,1,0,0:0:0:0:
412,45,44955,1,2,1:2:0:0:
326,160,45113,1,2,0:0:0:0:
461,116,45271,1,2,0:0:0:0:
326,72,45429,1,2,0:0:0:0:
412,190,45587,5,6,0:0:0:0:
191,286,45902,1,0,0:0:0:0:
289,79,46218,2,0,L|225:60,1,60.0000022888184,2|2,1:2|0:0,0:0:0:0:
47,146,46534,2,0,L|111:165,1,60.0000022888184,2|2,0:0|0:0,0:0:0:0:
191,286,46849,5,2,3:0:0:0:
412,190,47165,1,0,0:0:0:0:
104,163,47481,2,0,L|47:146,1,60.0000022888184,2|2,1:2|0:0,0:0:0:0:
231,61,47797,2,0,L|289:79,1,60.0000022888184,2|2,0:0|0:0,0:0:0:0:
105,26,48113,5,6,0:0:0:0:
401,117,48428,1,0,0:0:0:0:
122,331,48744,2,0,L|139:273,1,60.0000022888184,2|2,1:2|0:0,0:0:0:0:
105,26,49060,2,0,L|87:83,1,60.0000022888184,2|2,0:0|0:0,0:0:0:0:
30,279,49376,5,2,3:0:0:0:
323,336,49691,1,0,0:0:0:0:
87,83,50007,2,0,L|105:26,1,60.0000022888184,2|2,1:2|0:0,0:0:0:0:
139,273,50323,2,0,L|122:331,1,60.0000022888184,2|2,0:0|0:0,0:0:0:0:
452,136,50639,5,6,0:0:0:0:
220,236,50954,1,0,0:0:0:0:
337,307,51270,1,2,1:2:0:0:
351,270,51428,1,2,0:0:0:0:
355,230,51586,1,2,0:0:0:0:
348,191,51744,1,2,0:0:0:0:
331,154,51902,5,2,3:0:0:0:
135,60,52218,1,0,0:0:0:0:
331,154,52533,1,2,1:2:0:0:
348,191,52691,1,2,0:0:0:0:
355,230,52849,1,2,0:0:0:0:
351,270,53007,1,2,0:0:0:0:
337,307,53165,5,6,0:0:0:0:
100,339,53481,1,0,0:0:0:0:
100,194,53796,1,2,1:2:0:0:
186,312,53954,1,2,0:0:0:0:
51,268,54112,1,2,0:0:0:0:
186,224,54270,1,2,0:0:0:0:
100,339,54428,5,2,3:0:0:0:
170,122,54744,1,0,0:0:0:0:
100,339,55060,1,2,1:2:0:0:
186,224,55218,1,2,0:0:0:0:
51,268,55376,1,2,0:0:0:0:
186,312,55534,1,2,0:0:0:0:
100,194,55692,5,6,0:0:0:0:
321,98,56007,1,0,0:0:0:0:
223,305,56323,2,0,L|287:324,1,60.0000022888184,2|2,1:2|0:0,0:0:0:0:
465,238,56639,2,0,L|401:219,1,60.0000022888184,2|2,0:0|0:0,0:0:0:0:
321,98,56954,5,2,3:0:0:0:
100,194,57270,1,0,0:0:0:0:
407,220,57586,2,0,L|465:238,1,60.0000022888184,2|2,1:2|0:0,0:0:0:0:
280,322,57902,2,0,L|223:305,1,60.0000022888184,2|2,0:0|0:0,0:0:0:0:
407,358,58218,5,6,0:0:0:0:
337,261,58534,1,2,0:0:0:0:
337,261,58691,1,2,0:0:0:0:
337,261,58849,1,2,0:0:0:0:
212,217,59165,1,2,0:0:0:0:
191,68,59481,6,0,B|156:123|156:123|106:150|106:150|77:200,1,180.000006866455,2|0,0:0|0:0,0:0:0:0:
99,318,60113,2,0,L|130:267,1,60.0000022888184,2|2,0:0|0:0,0:0:0:0:
219,203,60428,2,0,L|250:152,1,60.0000022888184,2|2,0:0|0:0,0:0:0:0:
398,26,60744,6,0,L|329:135,1,100,4|0,0:0|0:0,0:0:0:0:
430,312,61060,1,2,0:2:0:0:
465,175,61218,1,2,0:2:0:0:
341,345,61376,6,0,B|291:360|291:360|229:352,1,100,2|0,0:2|0:0,0:0:0:0:
111,99,61691,2,0,B|161:84|161:84|208:90,1,100,2|0,0:2|0:0,0:0:0:0:
326,153,62007,5,2,0:2:0:0:
199,267,62165,1,0,0:0:0:0:
199,267,62244,1,0,0:0:0:0:
199,267,62323,2,0,L|168:161,1,100,2|2,0:2|0:2,0:0:0:0:
381,77,62639,6,0,B|429:64|429:64|456:22,1,100,2|0,0:2|0:0,0:0:0:0:
170,171,62955,2,0,B|122:184|122:184|95:226,1,100,2|0,0:2|0:0,0:0:0:0:
315,345,63270,6,0,L|365:331,1,50,4|0,0:0|0:0,0:0:0:0:
448,310,63428,1,0,0:0:0:0:
486,152,63586,1,2,0:2:0:0:
329,193,63744,1,2,0:2:0:0:
426,21,63902,6,0,B|392:61|392:61|400:122,1,100,2|0,0:2|0:0,0:0:0:0:
419,222,64218,1,2,0:2:0:0:
419,222,64376,1,2,0:2:0:0:
176,63,64534,5,2,0:2:0:0:
252,336,64691,1,0,0:0:0:0:
146,135,64849,1,2,0:2:0:0:
282,264,65006,1,0,0:0:0:0:
120,281,65165,5,2,0:2:0:0:
293,110,65323,1,0,0:0:0:0:
87,198,65481,1,2,0:2:0:0:
329,193,65639,1,0,0:0:0:0:
393,346,65797,5,4,0:0:0:0:
493,260,65955,1,2,0:2:0:0:
493,260,66034,1,0,0:0:0:0:
493,260,66113,2,0,L|459:158,1,100,2|2,0:2|0:2,0:0:0:0:
243,81,66428,6,0,L|258:128,1,50,2|0,0:2|0:0,0:0:0:0:
285,199,66586,1,0,0:0:0:0:
393,346,66744,2,0,B|414:304|414:304|381:206,1,150,2|0,0:2|0:0,0:0:0:0:
346,116,67060,5,2,0:2:0:0:
95,146,67218,1,0,0:0:0:0:
207,335,67376,1,2,0:2:0:0:
240,188,67534,1,2,0:2:0:0:
38,313,67691,6,0,B|75:345|75:345|137:345,1,100,2|0,0:2|0:0,0:0:0:0:
423,164,68007,2,0,B|386:132|386:132|334:132,1,100,2|0,0:2|0:0,0:0:0:0:
288,351,68323,5,4,0:0:0:0:
210,210,68481,1,0,0:0:0:0:
192,312,68639,1,2,0:2:0:0:
306,249,68797,1,2,0:2:0:0:
294,363,68955,5,2,0:2:0:0:
203,197,69113,1,0,0:0:0:0:
181,317,69271,1,2,0:2:0:0:
316,243,69429,1,0,0:0:0:0:
114,155,69586,5,2,0:2:0:0:
199,185,69744,1,0,0:0:0:0:
122,42,69902,1,0,0:0:0:0:
265,94,70060,1,0,0:0:0:0:
103,161,70218,5,2,0:2:0:0:
203,197,70376,1,0,0:0:0:0:
113,30,70534,1,0,0:0:0:0:
281,91,70692,1,0,0:0:0:0:
114,358,70849,6,0,L|182:248,1,100,4|0,0:0|0:0,0:0:0:0:
82,72,71165,1,2,0:2:0:0:
47,209,71323,1,2,0:2:0:0:
171,39,71481,6,0,B|221:24|221:24|283:32,1,100,2|0,0:2|0:0,0:0:0:0:
401,285,71797,2,0,B|351:300|351:300|304:294,1,100,2|0,0:2|0:0,0:0:0:0:
186,231,72113,5,2,0:2:0:0:
313,117,72270,1,0,0:0:0:0:
313,117,72349,1,0,0:0:0:0:
313,117,72428,2,0,L|344:223,1,100,2|2,0:2|0:2,0:0:0:0:
131,307,72744,6,0,B|83:320|83:320|56:362,1,100,2|0,0:2|0:0,0:0:0:0:
342,213,73060,2,0,B|390:200|390:200|417:158,1,100,2|0,0:2|0:0,0:0:0:0:
197,39,73376,6,0,L|147:53,1,50,4|0,0:0|0:0,0:0:0:0:
64,74,73533,1,0,0:0:0:0:
26,232,73691,1,2,0:2:0:0:
183,191,73849,1,2,0:2:0:0:
86,363,74007,6,0,B|120:323|120:323|112:262,1,100,2|0,0:2|0:0,0:0:0:0:
93,162,74323,1,2,0:2:0:0:
93,162,74481,1,2,0:2:0:0:
336,321,74639,5,2,0:2:0:0:
260,48,74796,1,0,0:0:0:0:
366,249,74954,1,2,0:2:0:0:
230,120,75113,1,0,0:0:0:0:
392,103,75270,5,2,0:2:0:0:
219,274,75428,1,0,0:0:0:0:
425,186,75586,1,2,0:2:0:0:
183,191,75744,1,0,0:0:0:0:
119,38,75902,5,4,0:0:0:0:
19,124,76060,1,2,0:2:0:0:
19,124,76139,1,0,0:0:0:0:
19,124,76218,2,0,L|53:226,1,100,2|2,0:2|0:2,0:0:0:0:
269,303,76534,6,0,L|253:256,1,50,2|0,0:2|0:0,0:0:0:0:
227,185,76691,1,0,0:0:0:0:
119,38,76849,2,0,B|97:79|97:79|130:177,1,150,2|0,0:2|0:0,0:0:0:0:
166,268,77165,5,2,0:2:0:0:
417,238,77323,1,0,0:0:0:0:
305,49,77481,1,2,0:2:0:0:
272,196,77639,1,2,0:2:0:0:
474,71,77797,6,0,B|437:39|437:39|375:39,1,100,2|0,0:2|0:0,0:0:0:0:
89,220,78112,2,0,B|126:252|126:252|177:252,1,100,0|0,0:0|0:0,0:0:0:0:
224,33,78428,5,4,0:0:0:0:
302,174,78586,1,0,0:0:0:0:
320,72,78744,1,2,0:2:0:0:
206,135,78902,1,2,0:2:0:0:
218,21,79060,5,2,0:2:0:0:
309,187,79218,1,0,0:0:0:0:
331,67,79376,1,2,0:2:0:0:
196,141,79534,1,0,0:0:0:0:
398,229,79691,5,2,0:2:0:0:
313,199,79849,1,0,0:0:0:0:
390,342,80007,1,0,0:0:0:0:
247,290,80165,1,0,0:0:0:0:
409,223,80323,5,2,0:2:0:0:
309,187,80481,1,0,0:0:0:0:
399,354,80639,1,0,0:0:0:0:
231,293,80797,1,0,0:0:0:0:
381,134,80955,5,2,0:2:0:0:
365,105,81034,1,2,0:2:0:0:
385,81,81113,1,2,0:2:0:0:
415,93,81191,1,2,0:2:0:0:
413,125,81270,1,2,0:2:0:0:
333,274,81428,1,2,0:2:0:0:
245,40,81586,6,0,B|151:22|151:22|96:53,1,150,2|0,0:2|0:0,0:0:0:0:
56,127,81902,2,0,B|114:138|114:138|148:118,1,100,2|0,0:2|0:0,0:0:0:0:
226,251,82218,5,2,0:2:0:0:
249,292,82297,1,2,0:2:0:0:
220,327,82376,1,2,0:2:0:0:
178,309,82454,1,0,0:0:0:0:
181,264,82533,1,0,0:0:0:0:
277,116,82691,1,2,0:2:0:0:
436,231,82849,6,0,B|394:168|394:168|328:217,1,150,2|0,0:2|0:0,0:0:0:0:
338,302,83165,2,0,B|364:341|364:341|405:310,1,100,2|0,0:2|0:0,0:0:0:0:
156,335,83481,5,4,0:0:0:0:
256,264,83639,1,0,0:0:0:0:
256,264,83718,1,0,0:0:0:0:
256,264,83797,1,2,0:2:0:0:
45,207,83955,1,2,0:2:0:0:
384,133,84113,6,0,L|396:34,1,100,2|0,0:2|0:0,0:0:0:0:
176,120,84428,1,2,0:2:0:0:
259,20,84586,1,2,0:2:0:0:
289,179,84744,6,0,P|320:216|374:234,1,100,2|0,0:2|0:0,0:0:0:0:
465,205,84981,1,2,0:2:0:0:
464,204,85060,2,0,L|453:304,1,100,2|2,0:2|0:2,0:0:0:0:
356,327,85297,1,2,0:2:0:0:
356,327,85376,2,0,B|304:317|304:317|247:328,1,100,2|0,0:2|0:0,0:0:0:0:
155,352,85613,1,2,0:2:0:0:
155,352,85691,2,0,P|111:319|98:270,1,100,2|2,0:2|0:2,0:0:0:0:
154,199,85928,1,0,0:0:0:0:
154,199,86007,6,0,L|153:85,1,100,4|0,0:0|0:0,0:0:0:0:
67,39,86323,1,2,0:2:0:0:
268,73,86481,1,2,0:2:0:0:
154,199,86639,6,0,B|193:250|193:250|288:250,1,150,2|0,0:2|0:0,0:0:0:0:
330,183,86955,2,0,B|305:151|305:151|246:151,1,100,2|0,0:2|0:0,0:0:0:0:
426,74,87270,5,2,0:2:0:0:
330,183,87428,1,0,0:0:0:0:
506,239,87586,1,2,0:2:0:0:
416,160,87744,1,2,0:2:0:0:
241,320,87902,6,0,P|193:332|142:316,1,100,2|0,0:2|0:0,0:0:0:0:
58,92,88218,2,0,P|106:80|157:96,1,100,2|0,0:2|0:0,0:0:0:0:
353,241,88534,5,4,0:0:0:0:
272,71,88691,1,2,0:2:0:0:
435,160,88849,1,2,0:2:0:0:
252,184,89007,1,2,0:2:0:0:
402,36,89165,5,2,0:2:0:0:
235,193,89323,1,2,0:2:0:0:
460,164,89481,1,2,0:2:0:0:
261,54,89639,1,2,0:2:0:0:
357,264,89797,5,2,0:2:0:0:
322,299,89875,1,2,0:2:0:0:
276,317,89954,1,2,0:2:0:0:
226,313,90033,1,2,0:2:0:0:
183,288,90112,1,2,0:2:0:0:
155,248,90191,1,0,0:0:0:0:
147,199,90270,1,2,0:2:0:0:
160,151,90349,1,0,0:0:0:0:
193,114,90428,6,0,L|257:115,1,50,2|0,0:2|0:0,0:0:0:0:
391,56,90586,2,0,L|341:55,1,50,2|0,0:2|0:0,0:0:0:0:
237,224,90744,2,0,L|300:224,1,50,2|0,0:2|0:0,0:0:0:0:
434,165,90902,2,0,L|384:164,1,50,2|0,0:2|0:0,0:0:0:0:
131,250,91060,5,2,0:2:0:0:
147,279,91139,1,2,0:2:0:0:
127,303,91218,1,2,0:2:0:0:
97,291,91296,1,2,0:2:0:0:
99,259,91375,1,2,0:2:0:0:
179,110,91533,1,2,0:2:0:0:
267,344,91691,6,0,B|361:362|361:362|416:331,1,150,2|0,0:2|0:0,0:0:0:0:
456,257,92007,2,0,B|398:246|398:246|364:266,1,100,2|0,0:2|0:0,0:0:0:0:
286,133,92323,5,2,0:2:0:0:
263,92,92402,1,2,0:2:0:0:
292,57,92481,1,2,0:2:0:0:
334,75,92559,1,2,0:2:0:0:
331,120,92638,1,2,0:2:0:0:
235,268,92796,1,2,0:2:0:0:
76,153,92954,6,0,B|118:216|118:216|184:167,1,150,2|0,0:2|0:0,0:0:0:0:
174,82,93270,2,0,B|148:43|148:43|107:74,1,100,2|0,0:2|0:0,0:0:0:0:
356,49,93586,5,4,0:0:0:0:
256,120,93744,1,0,0:0:0:0:
256,120,93823,1,0,0:0:0:0:
256,120,93902,1,2,0:2:0:0:
467,177,94060,1,2,0:2:0:0:
128,251,94218,6,0,L|116:350,1,100,2|0,0:2|0:0,0:0:0:0:
336,264,94533,1,2,0:2:0:0:
253,364,94691,1,2,0:2:0:0:
223,205,94849,6,0,P|192:168|138:150,1,100,2|0,0:2|0:0,0:0:0:0:
47,179,95086,1,2,0:2:0:0:
47,179,95165,2,0,L|58:79,1,100,2|2,0:2|0:2,0:0:0:0:
156,57,95402,1,2,0:2:0:0:
156,57,95481,2,0,B|208:67|208:67|265:56,1,100,2|0,0:2|0:0,0:0:0:0:
357,32,95718,1,2,0:2:0:0:
357,32,95797,2,0,P|401:65|414:114,1,100,2|2,0:2|0:2,0:0:0:0:
358,185,96033,1,0,0:0:0:0:
358,185,96112,6,0,L|359:299,1,100,0|0,0:0|0:0,0:0:0:0:
445,345,96428,1,2,0:2:0:0:
244,311,96586,1,2,0:2:0:0:
358,185,96744,6,0,B|319:134|319:134|224:134,1,150,2|0,0:2|0:0,0:0:0:0:
182,201,97060,2,0,B|207:233|207:233|266:233,1,100,2|0,0:2|0:0,0:0:0:0:
86,310,97375,5,0,0:0:0:0:
182,201,97533,1,0,0:0:0:0:
6,145,97691,1,2,0:2:0:0:
96,224,97849,1,2,0:2:0:0:
271,64,98007,6,0,P|319:52|370:68,1,100,2|0,0:2|0:0,0:0:0:0:
454,292,98323,2,0,P|406:304|355:288,1,100,2|0,0:2|0:0,0:0:0:0:
159,143,98639,5,4,0:0:0:0:
240,313,98796,1,2,0:2:0:0:
77,224,98954,1,2,0:2:0:0:
260,200,99112,1,0,0:0:0:0:
110,348,99270,5,2,0:2:0:0:
277,191,99428,1,2,0:2:0:0:
52,220,99586,1,2,0:2:0:0:
251,330,99744,1,2,0:2:0:0:
155,120,99902,5,2,0:2:0:0:
189,84,99980,1,2,0:2:0:0:
235,66,100059,1,2,0:2:0:0:
285,70,100138,1,2,0:2:0:0:
328,95,100217,1,2,0:2:0:0:
356,135,100296,1,0,0:0:0:0:
364,184,100375,1,2,0:2:0:0:
351,232,100454,1,0,0:0:0:0:
318,269,100534,6,0,L|255:269,1,50,2|0,0:2|0:0,0:0:0:0:
121,328,100691,2,0,L|170:328,1,50,2|0,0:2|0:0,0:0:0:0:
275,160,100849,2,0,L|211:159,1,50,2|0,0:2|0:0,0:0:0:0:
78,219,101007,2,0,L|127:219,1,50,2|0,0:2|0:0,0:0:0:0:
227,48,101165,5,4,0:0:0:0:
109,27,101323,1,0,0:0:0:0:
109,27,101402,1,0,0:0:0:0:
109,27,101481,1,2,0:2:0:0:
78,219,101639,1,2,0:2:0:0:
18,140,101797,6,0,P|86:118|154:162,1,150,2|0,0:2|0:0,0:0:0:0:
222,258,102113,2,0,B|212:211|212:211|236:161,1,100,2|0,0:2|0:0,0:0:0:0:
359,30,102428,5,2,0:2:0:0:
408,225,102586,1,0,0:0:0:0:
234,164,102744,1,2,0:2:0:0:
234,164,102902,1,2,0:2:0:0:
247,280,103060,6,0,B|291:254|291:254|312:193,1,100,2|0,0:2|0:0,0:0:0:0:
394,28,103376,2,0,B|350:54|350:54|335:101,1,100,2|0,0:2|0:0,0:0:0:0:
315,345,103691,6,0,L|365:331,1,50,4|0,0:0|0:0,0:0:0:0:
448,310,103849,1,0,0:0:0:0:
486,152,104007,1,2,0:2:0:0:
440,338,104165,1,2,0:2:0:0:
416,85,104323,6,0,B|294:56,1,100,2|0,0:2|0:0,0:0:0:0:
218,32,104639,1,2,0:2:0:0:
218,32,104797,1,2,0:2:0:0:
47,69,104955,6,0,P|93:75|139:105,1,100,2|0,0:2|0:0,0:0:0:0:
286,145,105270,2,0,P|240:151|194:181,1,100,2|0,0:2|0:0,0:0:0:0:
67,214,105586,6,0,P|102:218|138:241,1,80,2|0,0:2|0:0,0:0:0:0:
252,297,105902,2,0,P|216:301|180:324,1,80,2|0,0:2|0:0,0:0:0:0:
79,348,106218,5,4,0:0:0:0:
256,192,106376,12,0,110007,0:0:0:0:
