osu file format v14

[General]
AudioFilename: audio.mp3
AudioLeadIn: 0
PreviewTime: 58202
Countdown: 0
SampleSet: Normal
StackLeniency: 0.7
Mode: 0
LetterboxInBreaks: 0
WidescreenStoryboard: 0

[Editor]
DistanceSpacing: 1
BeatDivisor: 4
GridSize: 4
TimelineZoom: 1.7

[Metadata]
Title:Finale
TitleUnicode:Finale
Artist:toby fox
ArtistUnicode:toby fox
Creator:Fatfan Kolek
Version:Normal
Source:UNDERTALE
Tags:flowey boss fight chiptune soundtrack radiation
BeatmapID:1415674
BeatmapSetID:667713

[Difficulty]
HPDrainRate:3.5
CircleSize:3
OverallDifficulty:4
ApproachRate:4.5
SliderMultiplier:1
SliderTickRate:1

[Events]
//Background and Video events
0,0,"wallhaven-280608.jpg",0,0
//Break Periods
//Storyboard Layer 0 (Background)
//Storyboard Layer 1 (Fail)
//Storyboard Layer 2 (Pass)
//Storyboard Layer 3 (Foreground)
//Storyboard Sound Samples

[TimingPoints]
113,315.789473684211,4,2,0,50,1,0
113,-133.333333333333,4,2,0,50,0,0
10218,-133.333333333333,4,2,0,50,0,0
20323,-100,4,2,0,50,0,0
25376,-100,4,2,0,50,0,0
35481,-100,4,2,0,50,0,0
40534,-133.333333333333,4,2,0,50,0,0
60744,-80,4,1,0,50,0,1
103691,-80,4,1,0,40,0,1
104955,-80,4,1,0,30,0,1
106376,-80,4,1,0,50,0,0
107481,-80,4,1,0,35,0,0
108744,-80,4,1,0,20,0,0
110007,-80,4,1,0,5,0,0

[Colours]
Combo1 : 253,0,0
Combo2 : 0,128,0
Combo3 : 255,102,102
Combo4 : 0,64,0

[HitObjects]
287,52,113,6,0,P|324:62|351:91,2,75.0000028610231,4|0|2,0:2|0:0|0:2,0:0:0:0:
212,46,1060,1,0,0:0:0:0:
137,53,1376,2,0,B|70:87|70:87|45:164,1,150.000005722046,0|2,0:0|0:0,0:0:0:0:
29,231,2323,1,0,0:0:0:0:
29,231,2639,6,0,P|83:198|170:225,1,150.000005722046,4|2,0:2|0:2,0:0:0:0:
205,280,3586,1,0,0:0:0:0:
271,315,3902,2,0,L|349:285,1,75.0000028610231,0|0,0:0|0:0,0:0:0:0:
345,212,4534,2,0,L|423:182,1,75.0000028610231,0|0,0:0|0:0,0:0:0:0:
433,112,5165,6,0,P|468:109|504:89,2,75.0000028610231,4|0|2,0:2|0:0|0:2,0:0:0:0:
363,82,6113,1,0,0:0:0:0:
304,35,6428,2,0,B|235:65|235:65|201:139,1,150.000005722046,0|2,0:0|0:0,0:0:0:0:
231,202,7376,1,0,0:0:0:0:
284,254,7691,6,0,P|236:297|151:301,1,150.000005722046,4|2,0:0|0:0,0:0:0:0:
94,255,8639,1,0,0:0:0:0:
48,194,8955,2,0,L|49:118,1,75.0000028610231,0|0,0:0|0:0,0:0:0:0:
50,43,9586,1,0,1:0:0:0:
199,28,10218,6,0,B|249:37|249:37|288:66|288:66|339:76,1,150.000005722046,4|2,0:0|0:0,0:0:0:0:
409,97,11165,1,0,0:0:0:0:
463,148,11481,2,0,P|479:188|475:231,1,75.0000028610231,0|0,0:0|0:0,0:0:0:0:
434,281,12113,2,0,L|349:266,1,75.0000028610231,2|0,0:0|0:0,0:0:0:0:
317,206,12744,6,0,P|257:176|182:212,1,150.000005722046,4|2,0:0|0:0,0:0:0:0:
152,274,13691,1,0,0:0:0:0:
152,274,14007,2,0,P|113:281|70:274,1,75.0000028610231,0|0,0:0|0:0,0:0:0:0:
20,228,14639,2,0,P|14:188|22:153,1,75.0000028610231,0|0,0:0|0:0,0:0:0:0:
58,89,15270,6,0,B|102:61|102:61|207:61,1,150.000005722046,4|2,0:0|0:0,0:0:0:0:
263,97,16218,1,0,0:0:0:0:
308,156,16534,2,0,P|344:142|373:114,1,75.0000028610231,0|0,0:0|0:0,0:0:0:0:
414,57,17165,2,0,P|445:83|472:117,1,75.0000028610231,2|0,0:0|0:0,0:0:0:0:
478,183,17797,6,0,P|464:240|380:263,1,150.000005722046,4|2,0:0|0:0,0:0:0:0:
325,217,18744,1,0,0:0:0:0:
353,147,19060,2,0,B|384:125|384:125|422:130,1,75.0000028610231,0|0,0:0|0:0,0:0:0:0:
478,183,19691,1,0,1:0:0:0:
354,340,20323,6,0,P|280:309|201:309,1,150,4|0,0:0|0:0,0:0:0:0:
166,331,20955,2,0,B|125:296|125:296|106:238,1,100,0|0,1:0|0:0,0:0:0:0:
81,157,21586,2,0,P|137:134|144:51,1,150,0|0,0:0|0:0,0:0:0:0:
117,10,22218,2,0,L|229:18,1,100,0|0,1:0|0:0,0:0:0:0:
289,86,22849,5,4,0:0:0:0:
325,179,23165,2,0,P|344:191|377:195,2,50,0|0|0,0:0|0:0|1:0,0:0:0:0:
225,166,23797,2,0,L|196:267,1,100,2|2,0:2|0:2,0:0:0:0:
263,337,24428,2,0,P|310:352|363:349,1,100,2|2,0:2|1:2,0:0:0:0:
453,312,25060,1,2,0:2:0:0:
436,221,25376,6,0,B|392:243|392:243|287:243,1,150,4|0,0:0|0:0,0:0:0:0:
255,207,26007,2,0,L|154:207,1,100,0|0,1:0|0:0,0:0:0:0:
58,178,26639,2,0,P|103:119|180:111,1,150,0|0,0:0|0:0,0:0:0:0:
221,124,27270,2,0,L|257:17,1,100,0|0,1:0|0:0,0:0:0:0:
353,23,27902,5,4,0:0:0:0:
431,85,28218,2,0,L|483:85,2,50,0|0|0,0:0|0:0|1:0,0:0:0:0:
346,138,28849,2,0,P|360:186|400:223,1,100,2|2,0:0|0:0,0:0:0:0:
475,280,29481,1,2,0:0:0:0:
387,328,29797,2,0,P|344:307|232:313,1,150,2|0,1:2|0:0,0:0:0:0:
198,329,30428,6,0,B|118:278|118:278|109:220,1,150,4|0,0:0|0:0,0:0:0:0:
102,173,31060,2,0,L|89:69,1,100,0|0,1:0|0:0,0:0:0:0:
174,20,31691,2,0,B|262:44|262:44|304:94,1,150,0|0,0:0|0:0,0:0:0:0:
327,130,32323,2,0,P|364:158|424:163,1,100,0|0,1:0|0:0,0:0:0:0:
481,240,32955,5,4,0:0:0:0:
400,298,33270,2,0,P|406:323|417:347,2,50,0|0|0,0:0|0:0|1:0,0:0:0:0:
324,231,33902,2,0,L|213:241,1,100,2|2,0:2|0:2,0:0:0:0:
124,252,34534,1,2,0:2:0:0:
63,331,34849,2,0,B|29:296|29:296|26:244,1,100,2|2,1:2|0:2,0:0:0:0:
51,147,35481,6,0,P|90:98|182:81,1,150,4|0,0:0|0:0,0:0:0:0:
215,105,36113,2,0,B|202:155|202:155|166:190,1,100,0|0,1:0|0:0,0:0:0:0:
167,288,36744,2,0,P|233:255|318:252,1,150,0|0,0:0|0:0,0:0:0:0:
358,248,37376,2,0,P|330:199|321:146,1,100,0|0,1:0|0:0,0:0:0:0:
397,91,38007,5,4,0:0:0:0:
303,54,38323,2,0,P|284:37|260:27,2,50,0|0|0,0:0|0:0|1:0,0:0:0:0:
321,156,38955,2,0,P|277:183|224:188,1,100,2|2,0:0|0:0,0:0:0:0:
130,173,39586,2,0,P|103:201|95:219,1,50,2|0,0:0|0:0,0:0:0:0:
95,260,39902,2,0,B|107:331|107:331|194:340,1,150,2|0,1:2|0:0,0:0:0:0:
223,342,40534,6,0,L|304:346,2,75.0000028610231,4|0|2,0:0|0:0|1:2,0:0:0:0:
336,248,41797,2,0,L|417:252,2,75.0000028610231,2|0|2,3:0|0:0|1:2,0:0:0:0:
233,138,43060,6,0,L|152:142,2,75.0000028610231,6|0|2,0:0|0:0|1:2,0:0:0:0:
116,44,44323,2,0,L|35:48,2,75.0000028610231,2|0|2,3:0|0:0|1:2,0:0:0:0:
265,31,45586,6,0,P|299:44|332:79,1,75.0000028610231,6|0,0:0|0:0,0:0:0:0:
349,142,46218,1,2,1:2:0:0:
429,268,46849,2,0,P|397:285|346:291,1,75.0000028610231,2|0,3:0|0:0,0:0:0:0:
284,284,47481,1,2,1:2:0:0:
177,177,48113,6,0,L|159:262,1,75.0000028610231,6|0,0:0|0:0,0:0:0:0:
145,323,48745,1,2,1:2:0:0:
33,223,49376,2,0,L|51:138,1,75.0000028610231,2|0,3:0|0:0,0:0:0:0:
65,77,50008,1,2,1:2:0:0:
210,43,50639,6,0,P|238:28|285:26,2,75.0000028610231,6|0|2,0:0|0:0|1:2,0:0:0:0:
327,136,51902,2,0,P|358:134|402:152,2,75.0000028610231,2|0|2,3:0|0:0|1:2,0:0:0:0:
205,223,53165,6,0,B|166:223|166:223|120:241,2,75.0000028610231,6|0|2,0:0|0:0|1:2,0:0:0:0:
317,322,54428,2,0,B|281:338|281:338|247:374,2,75.0000028610231,2|0|2,3:0|0:0|1:2,0:0:0:0:
437,233,55691,6,0,P|444:211|444:151,1,75.0000028610231,6|0,0:0|0:0,0:0:0:0:
437,84,56323,1,2,1:2:0:0:
296,32,56955,2,0,P|289:54|289:114,1,75.0000028610231,2|0,3:0|0:0,0:0:0:0:
296,181,57587,1,2,1:2:0:0:
256,192,58218,12,2,59481,0:0:0:0:
222,273,60744,6,0,P|189:279|159:274,1,62.5,4|0,0:0|0:0,0:0:0:0:
101,253,61060,2,0,L|93:188,1,62.5,2|2,0:2|0:2,0:0:0:0:
86,128,61376,2,0,B|108:89|108:89|193:64,1,125,2|2,0:2|0:2,0:0:0:0:
295,7,62007,2,0,L|303:72,1,62.5,2|0,0:2|0:0,0:0:0:0:
307,131,62323,2,0,P|316:185|386:229,1,125,2|2,0:2|0:2,0:0:0:0:
487,184,62955,1,2,0:2:0:0:
485,308,63270,6,0,L|286:327,1,187.5,4|2,0:0|0:2,0:0:0:0:
235,331,63902,1,2,0:2:0:0:
116,291,64218,2,0,L|107:217,1,62.5,2|2,0:2|0:2,0:0:0:0:
113,166,64534,2,0,P|121:116|84:51,2,125,2|2|2,0:2|0:2|0:2,0:0:0:0:
220,229,65481,1,2,0:2:0:0:
264,112,65797,6,0,L|335:101,1,62.5,4|2,0:0|0:2,0:0:0:0:
388,95,66113,2,0,B|438:136|438:136|439:199,1,125,2|2,0:2|0:2,0:0:0:0:
439,321,66744,1,2,0:2:0:0:
353,229,67060,2,0,P|276:222|231:311,1,187.5,2|2,0:2|0:2,0:0:0:0:
251,369,67691,2,0,B|187:370|187:370|137:332,1,125,2|2,0:2|0:2,0:0:0:0:
51,242,68323,5,4,0:0:0:0:
48,116,68639,2,0,L|173:137,1,125,2|2,0:2|0:2,0:0:0:0:
261,50,69270,2,0,L|323:60,1,62.5,2|0,0:2|0:0,0:0:0:0:
385,68,69586,2,0,B|385:128|385:128|411:181|411:181|412:250,1,187.5,2|0,0:2|0:0,0:0:0:0:
435,307,70218,2,0,P|390:243|270:233,1,187.5,2|0,0:2|0:0,0:0:0:0:
233,257,70849,6,0,L|162:257,1,62.5,4|0,0:0|0:0,0:0:0:0:
122,216,71165,2,0,P|140:178|145:151,1,62.5,2|2,0:2|0:2,0:0:0:0:
152,95,71481,2,0,B|214:99|214:99|256:149,1,125,2|2,0:2|0:2,0:0:0:0:
351,225,72112,2,0,L|351:289,1,62.5,2|0,0:2|0:0,0:0:0:0:
324,344,72428,2,0,P|302:288|251:250,1,125,2|2,0:2|0:2,0:0:0:0:
133,207,73060,1,2,0:2:0:0:
54,109,73375,6,0,L|253:90,1,187.5,0|2,0:0|0:2,0:0:0:0:
303,83,74007,1,2,0:2:0:0:
424,111,74323,2,0,L|433:185,1,62.5,2|2,0:2|0:2,0:0:0:0:
412,233,74639,2,0,P|404:283|441:348,2,125,2|2|2,0:2|0:2|0:2,0:0:0:0:
303,170,75586,1,2,0:2:0:0:
244,280,75902,6,0,L|173:291,1,62.5,4|2,0:0|0:2,0:0:0:0:
120,301,76218,2,0,B|70:260|70:260|69:197,1,125,2|2,0:2|0:2,0:0:0:0:
64,74,76849,1,2,0:2:0:0:
158,156,77165,2,0,P|235:163|280:74,1,187.5,2|2,0:2|0:2,0:0:0:0:
262,14,77797,2,0,B|326:13|326:13|376:51,1,125,2|2,0:2|0:2,0:0:0:0:
459,142,78428,5,4,0:0:0:0:
460,267,78744,2,0,L|335:246,1,125,2|2,0:2|0:2,0:0:0:0:
224,302,79376,2,0,L|161:291,1,62.5,2|0,0:2|0:0,0:0:0:0:
100,284,79691,2,0,B|100:224|100:224|74:171|74:171|73:102,1,187.5,2|0,0:2|0:0,0:0:0:0:
54,42,80323,2,0,P|99:106|219:116,1,187.5,2|0,0:2|0:0,0:0:0:0:
255,89,80955,6,0,B|316:77|316:77|381:102,1,125,2|2,0:2|0:2,0:0:0:0:
440,202,81586,2,0,L|456:266,2,62.5,2|0|2,0:2|0:0|0:2,0:0:0:0:
315,184,82218,2,0,B|260:215|260:215|227:283,1,125,2|2,0:2|0:2,0:0:0:0:
111,301,82849,2,0,L|86:363,2,62.5,2|0|2,0:2|0:0|0:2,0:0:0:0:
29,205,83481,6,0,P|87:127|173:111,1,187.5,4|2,0:0|0:2,0:0:0:0:
229,135,84113,1,2,0:2:0:0:
338,194,84428,1,2,0:2:0:0:
378,75,84744,2,0,P|435:55|477:7,2,125,2|2|2,0:2|0:2|0:2,0:0:0:0:
255,51,85691,1,2,0:2:0:0:
134,85,86007,6,0,B|124:180|124:180|179:253,1,187.5,4|2,0:0|0:2,0:0:0:0:
216,304,86639,2,0,P|261:260|325:238,1,125,2|2,0:2|0:2,0:0:0:0:
434,285,87270,1,2,0:2:0:0:
432,159,87586,2,0,L|364:159,1,62.5,2|2,0:2|0:2,0:0:0:0:
306,158,87902,2,0,P|249:143|205:72,1,125,2|2,0:2|0:2,0:0:0:0:
102,27,88534,6,0,B|81:123|81:123|104:212,1,187.5,4|2,0:0|0:2,0:0:0:0:
107,271,89165,2,0,P|165:264|219:214,1,125,2|2,0:2|0:2,0:0:0:0:
225,97,89797,2,0,B|300:97|300:97|350:118,1,125,2|2,0:2|0:2,0:0:0:0:
391,232,90428,2,0,B|391:307|391:307|370:357,1,125,2|2,0:2|0:2,0:0:0:0:
257,295,91060,6,0,B|196:307|196:307|131:282,1,125,2|2,0:2|0:2,0:0:0:0:
72,182,91691,2,0,L|56:118,2,62.5,2|0|2,0:2|0:0|0:2,0:0:0:0:
197,200,92323,2,0,B|252:169|252:169|285:101,1,125,2|2,0:2|0:2,0:0:0:0:
401,83,92954,2,0,L|426:21,2,62.5,2|0|2,0:2|0:0|0:2,0:0:0:0:
483,179,93586,6,0,P|425:257|339:273,1,187.5,4|2,0:0|0:2,0:0:0:0:
283,249,94218,1,2,0:2:0:0:
174,190,94533,1,2,0:2:0:0:
134,309,94849,6,0,P|77:329|35:377,2,125,2|2|2,0:2|0:2|0:2,0:0:0:0:
257,333,95796,1,0,0:0:0:0:
380,290,96112,6,0,B|390:195|390:195|335:122,1,187.5,0|2,0:0|0:2,0:0:0:0:
289,78,96744,2,0,P|244:122|180:144,1,125,2|2,0:2|0:2,0:0:0:0:
69,98,97375,1,0,0:0:0:0:
76,222,97691,2,0,L|144:222,1,62.5,2|2,0:2|0:2,0:0:0:0:
201,224,98007,2,0,P|258:239|302:310,1,125,2|2,0:2|0:2,0:0:0:0:
417,325,98639,6,0,B|438:229|438:229|415:140,1,187.5,4|2,0:0|0:2,0:0:0:0:
398,82,99270,2,0,P|340:89|286:139,1,125,2|2,0:2|0:2,0:0:0:0:
328,250,99902,2,0,B|253:250|253:250|203:229,1,125,2|2,0:2|0:2,0:0:0:0:
98,168,100533,2,0,B|98:93|98:93|119:43,1,125,0|2,0:0|0:2,0:0:0:0:
241,25,101165,6,0,P|296:27|391:116,1,187.5,4|2,0:0|0:2,0:0:0:0:
419,167,101797,2,0,L|419:236,1,62.5,2|0,0:2|0:0,0:0:0:0:
418,292,102113,1,2,0:2:0:0:
313,224,102428,2,0,P|272:172|158:178,1,187.5,2|2,0:2|0:2,0:0:0:0:
113,220,103060,2,0,L|155:278,1,62.5,2|0,0:2|0:0,0:0:0:0:
182,324,103376,1,2,0:2:0:0:
300,361,103691,6,0,P|344:341|384:266,1,125,4|2,0:0|0:2,0:0:0:0:
408,154,104323,2,0,L|275:118,1,125,2|2,0:2|0:2,0:0:0:0:
216,224,104955,2,0,L|83:188,1,125,2|2,0:2|0:2,0:0:0:0:
51,74,105586,2,0,B|98:47|98:47|175:47,1,125,2|2,0:2|0:2,0:0:0:0:
294,49,106218,5,4,0:0:0:0:
256,192,106376,12,0,110007,0:0:0:0:
