osu file format v14

[General]
AudioFilename: audio.mp3
AudioLeadIn: 0
PreviewTime: 58202
Countdown: 0
SampleSet: Soft
StackLeniency: 0.7
Mode: 0
LetterboxInBreaks: 0
WidescreenStoryboard: 0

[Editor]
DistanceSpacing: 1.3
BeatDivisor: 4
GridSize: 4
TimelineZoom: 1.7

[Metadata]
Title:Finale
TitleUnicode:Finale
Artist:toby fox
ArtistUnicode:toby fox
Creator:Fatfan Kolek
Version:Insane
Source:UNDERTALE
Tags:flowey boss fight chiptune soundtrack radiation
BeatmapID:1414041
BeatmapSetID:667713

[Difficulty]
HPDrainRate:5.5
CircleSize:4
OverallDifficulty:7.5
ApproachRate:8.7
SliderMultiplier:1.4
SliderTickRate:1

[Events]
//Background and Video events
0,0,"wallhaven-280608.jpg",0,0
//Break Periods
//Storyboard Layer 0 (Background)
//Storyboard Layer 1 (Fail)
//Storyboard Layer 2 (Pass)
//Storyboard Layer 3 (Foreground)
//Storyboard Sound Samples

[TimingPoints]
113,315.789473684211,4,2,0,50,1,0
113,-200,4,2,0,50,0,0
9586,-366.333333333333,4,2,0,50,0,0
10060,-366.333333333333,4,2,0,5,0,0
10218,-200,4,2,0,50,0,0
19691,-366.333333333333,4,2,0,50,0,0
20165,-366.333333333333,4,2,0,5,0,0
20323,-100,4,2,0,50,0,0
25060,-200,4,1,0,50,0,0
25376,-100,4,2,0,50,0,0
35165,-200,4,1,0,50,0,0
35481,-100,4,2,0,50,0,0
40534,-200,4,2,0,50,0,0
60744,-80,4,1,0,50,0,1
103691,-80,4,1,0,40,0,1
104955,-80,4,1,0,30,0,1
105586,-100,4,1,0,30,0,1
106376,-100,4,1,0,50,0,0
107481,-100,4,1,0,35,0,0
108744,-100,4,1,0,20,0,0
110007,-80,4,1,0,5,0,0

[Colours]
Combo1 : 253,0,0
Combo2 : 0,128,0
Combo3 : 255,102,102
Combo4 : 0,64,0

[HitObjects]
256,69,113,5,4,0:2:0:0:
331,111,428,2,0,L|370:103,2,35,0|0|2,0:0|0:0|0:2,0:0:0:0:
206,137,1060,1,0,0:0:0:0:
175,220,1376,5,0,0:0:0:0:
115,158,1691,2,0,L|76:166,2,35,0|0|2,0:2|0:0|0:0,0:0:0:0:
267,202,2323,1,0,0:0:0:0:
145,315,2639,5,4,0:2:0:0:
240,359,2955,2,0,L|274:351,1,35,0|0,0:0|0:0,0:0:0:0:
315,338,3270,1,2,0:2:0:0:
448,304,3586,6,0,L|466:234,1,70,0|0,0:0|0:0,0:0:0:0:
409,74,4218,2,0,L|391:141,1,70,0|0,0:0|0:0,0:0:0:0:
371,236,4849,1,0,0:0:0:0:
256,315,5165,5,4,0:2:0:0:
181,273,5481,2,0,L|142:281,2,35,0|0|2,0:0|0:0|0:2,0:0:0:0:
306,247,6112,1,0,0:0:0:0:
337,164,6428,5,0,0:0:0:0:
397,226,6744,2,0,L|436:218,2,35,0|0|2,0:2|0:0|0:0,0:0:0:0:
245,182,7375,1,0,0:0:0:0:
367,69,7691,5,4,0:0:0:0:
272,25,8007,2,0,L|238:33,1,35,0|0,0:0|0:0,0:0:0:0:
197,46,8322,1,0,0:0:0:0:
120,146,8639,6,0,L|100:217,1,70,0|0,0:0|0:0,0:0:0:0:
69,321,9270,1,0,0:0:0:0:
156,282,9586,6,0,P|182:281|213:289,1,57.3248391725066,0|0,1:0|0:0,0:0:0:0:
281,331,10218,5,4,0:0:0:0:
402,360,10534,1,0,0:0:0:0:
398,327,10691,1,0,0:0:0:0:
396,298,10849,1,2,0:0:0:0:
384,188,11165,1,0,0:0:0:0:
297,252,11481,5,0,0:0:0:0:
176,281,11797,1,0,0:0:0:0:
180,248,11954,1,0,0:0:0:0:
182,219,12112,1,2,0:0:0:0:
194,109,12428,1,0,0:0:0:0:
297,179,12744,5,4,0:0:0:0:
418,208,13060,1,0,0:0:0:0:
414,175,13217,1,0,0:0:0:0:
412,146,13375,1,2,0:0:0:0:
396,28,13691,5,0,0:0:0:0:
343,108,14007,1,0,0:0:0:0:
274,86,14323,1,0,0:0:0:0:
248,131,14639,1,0,0:0:0:0:
215,124,14955,1,0,0:0:0:0:
114,195,15270,5,4,0:0:0:0:
88,338,15586,1,0,0:0:0:0:
121,334,15743,1,0,0:0:0:0:
150,332,15901,1,2,0:0:0:0:
260,320,16217,1,0,0:0:0:0:
196,233,16533,5,0,0:0:0:0:
167,112,16849,1,0,0:0:0:0:
200,116,17006,1,0,0:0:0:0:
229,118,17164,1,2,0:0:0:0:
339,130,17480,1,0,0:0:0:0:
269,233,17796,5,4,0:0:0:0:
240,354,18112,1,0,0:0:0:0:
273,350,18269,1,0,0:0:0:0:
302,348,18427,1,0,0:0:0:0:
379,280,18744,6,0,L|448:272,1,70,0|0,0:0|0:0,0:0:0:0:
505,191,19376,1,0,0:0:0:0:
446,134,19691,6,0,P|417:132|390:141,1,57.3248391725066,0|0,1:0|0:0,0:0:0:0:
322,213,20323,6,0,L|286:142,1,70,4|0,0:0|0:0,0:0:0:0:
176,95,20639,1,0,0:0:0:0:
176,95,20797,1,0,0:0:0:0:
98,151,20955,2,0,P|125:176|157:187,1,70,0|0,1:0|0:0,0:0:0:0:
249,43,21270,2,0,P|222:18|190:7,1,70,0|0,0:0|0:0,0:0:0:0:
63,39,21586,5,0,0:0:0:0:
19,221,21902,1,0,0:0:0:0:
19,221,22060,1,0,0:0:0:0:
40,309,22218,2,0,L|111:323,1,70,0|0,1:0|0:0,0:0:0:0:
190,221,22534,2,0,L|121:234,1,70,0|0,0:0|0:0,0:0:0:0:
220,316,22849,6,0,L|291:330,1,70,4|0,0:0|0:0,0:0:0:0:
379,339,23165,1,0,0:0:0:0:
456,290,23323,1,0,0:0:0:0:
456,290,23481,1,0,1:0:0:0:
326,155,23797,6,0,L|306:87,1,70,2|0,0:2|0:0,0:0:0:0:
169,4,24113,2,0,P|164:38|175:71,1,70,2|0,0:2|0:0,0:0:0:0:
287,238,24428,2,0,L|219:257,1,70,2|0,0:2|0:0,0:0:0:0:
81,190,24744,2,0,P|103:163|135:149,1,70,2|0,1:2|0:0,0:0:0:0:
217,142,25060,6,0,L|247:158,1,35,2|0,0:2|0:0,0:0:0:0:
407,185,25376,6,0,L|341:148,1,70,4|0,0:0|0:0,0:0:0:0:
247,158,25691,1,0,0:0:0:0:
275,254,25849,1,0,0:0:0:0:
120,288,26007,2,0,B|86:280|86:280|61:254,1,70,0|0,1:0|0:0,0:0:0:0:
219,331,26323,2,0,B|252:338|252:338|277:364,1,70,0|0,0:0|0:0,0:0:0:0:
128,210,26639,6,0,L|164:144,1,70,0|0,0:0|0:0,0:0:0:0:
206,68,26955,1,0,0:0:0:0:
290,101,27113,1,0,0:0:0:0:
424,71,27270,2,0,P|431:106|426:139,1,70,0|0,1:0|0:0,0:0:0:0:
335,254,27586,2,0,P|328:219|333:186,1,70,0|0,0:0|0:0,0:0:0:0:
486,206,27902,6,0,L|401:222,1,70,4|0,0:0|0:0,0:0:0:0:
408,310,28218,1,0,0:0:0:0:
324,347,28376,1,0,0:0:0:0:
324,347,28534,1,0,1:0:0:0:
136,315,28849,6,0,L|72:275,1,70,2|0,0:0|0:0,0:0:0:0:
65,130,29165,2,0,L|131:94,1,70,2|0,0:0|0:0,0:0:0:0:
263,167,29481,2,0,L|261:243,1,70,2|0,0:0|0:0,0:0:0:0:
155,197,29797,2,0,B|226:80|226:80|303:57,1,210,2|0,1:2|0:0,0:0:0:0:
322,171,30428,6,0,L|282:241,1,70,4|0,0:0|0:0,0:0:0:0:
176,289,30744,1,0,0:0:0:0:
176,289,30902,1,0,0:0:0:0:
98,233,31060,2,0,P|125:208|157:197,1,70,0|0,1:0|0:0,0:0:0:0:
249,341,31376,2,0,P|222:366|190:377,1,70,0|0,0:0|0:0,0:0:0:0:
63,345,31691,5,0,0:0:0:0:
19,163,32007,1,0,0:0:0:0:
19,163,32165,1,0,0:0:0:0:
40,75,32323,2,0,L|111:61,1,70,0|0,1:0|0:0,0:0:0:0:
190,163,32639,2,0,L|121:150,1,70,0|0,0:0|0:0,0:0:0:0:
220,68,32955,6,0,L|291:54,1,70,4|0,0:0|0:0,0:0:0:0:
379,45,33270,1,0,0:0:0:0:
456,94,33428,1,0,0:0:0:0:
456,94,33586,1,0,1:0:0:0:
326,229,33902,6,0,L|306:297,1,70,2|0,0:2|0:0,0:0:0:0:
169,380,34218,2,0,P|164:346|175:313,1,70,2|0,0:2|0:0,0:0:0:0:
287,146,34533,2,0,L|219:127,1,70,0|0,0:0|0:0,0:0:0:0:
81,194,34849,2,0,P|103:221|135:235,1,70,2|0,1:2|0:0,0:0:0:0:
217,242,35165,6,0,L|247:226,1,35,2|0,0:2|0:0,0:0:0:0:
407,199,35481,6,0,L|341:236,1,70,4|0,0:0|0:0,0:0:0:0:
247,226,35796,1,0,0:0:0:0:
275,130,35954,1,0,0:0:0:0:
120,96,36112,2,0,B|86:104|86:104|61:130,1,70,0|0,1:0|0:0,0:0:0:0:
219,53,36428,2,0,B|252:46|252:46|277:20,1,70,0|0,0:0|0:0,0:0:0:0:
128,174,36744,6,0,L|164:240,1,70,0|0,0:0|0:0,0:0:0:0:
206,316,37060,1,0,0:0:0:0:
290,283,37218,1,0,0:0:0:0:
424,313,37376,2,0,P|431:278|426:245,1,70,0|0,1:0|0:0,0:0:0:0:
335,130,37691,2,0,P|328:165|333:198,1,70,0|0,0:0|0:0,0:0:0:0:
486,178,38007,6,0,L|401:162,1,70,4|0,0:0|0:0,0:0:0:0:
408,74,38323,1,0,0:0:0:0:
324,37,38481,1,0,0:0:0:0:
324,37,38639,1,0,1:0:0:0:
136,69,38955,6,0,L|72:109,1,70,2|0,0:0|0:0,0:0:0:0:
65,254,39270,2,0,L|131:290,1,70,2|0,0:0|0:0,0:0:0:0:
263,217,39586,2,0,L|261:141,1,70,2|0,0:0|0:0,0:0:0:0:
155,187,39902,2,0,B|226:304|226:304|303:327,1,210,2|0,1:2|0:0,0:0:0:0:
369,349,40534,6,0,L|437:367,1,70,4|0,0:0|0:0,0:0:0:0:
481,242,41165,2,0,L|446:232,1,35,2|2,1:2|0:0,0:0:0:0:
408,161,41481,2,0,L|373:151,1,35,2|2,0:0|0:0,0:0:0:0:
298,130,41797,6,0,L|230:112,1,70,2|0,3:0|0:0,0:0:0:0:
186,237,42428,2,0,L|220:246,1,35,2|2,1:2|0:0,0:0:0:0:
259,318,42744,2,0,L|293:327,1,35,2|2,0:0|0:0,0:0:0:0:
383,305,43060,5,6,0:0:0:0:
458,213,43376,1,0,0:0:0:0:
350,132,43691,2,0,L|344:95,2,35,2|2|2,1:2|0:0|0:0,0:0:0:0:
364,219,44165,1,2,0:0:0:0:
306,294,44323,5,2,3:0:0:0:
214,219,44639,1,0,0:0:0:0:
133,327,44954,2,0,L|96:333,2,35,2|2|2,1:2|0:0|0:0,0:0:0:0:
220,313,45428,1,2,0:0:0:0:
312,335,45586,5,6,0:0:0:0:
414,234,45902,1,0,0:0:0:0:
304,117,46218,1,2,1:2:0:0:
307,148,46375,1,0,0:0:0:0:
311,179,46533,1,0,0:0:0:0:
315,210,46691,1,2,0:0:0:0:
319,242,46849,5,2,3:0:0:0:
455,269,47165,1,0,0:0:0:0:
401,81,47481,1,2,1:2:0:0:
380,63,47639,1,2,0:0:0:0:
356,50,47797,1,2,0:0:0:0:
328,43,47955,1,2,0:0:0:0:
301,43,48112,5,0,0:0:0:0:
155,47,48428,1,0,0:0:0:0:
49,161,48744,2,0,L|58:198,1,35,2|2,1:2|0:0,0:0:0:0:
78,278,49060,1,2,0:0:0:0:
84,302,49218,1,2,0:0:0:0:
91,325,49376,5,2,3:0:0:0:
226,360,49692,1,0,0:0:0:0:
185,197,50007,2,0,L|176:160,1,35,2|2,1:2|0:0,0:0:0:0:
156,80,50323,1,2,0:0:0:0:
150,56,50481,1,2,0:0:0:0:
143,35,50639,6,0,L|75:17,1,70,6|0,0:0|0:0,0:0:0:0:
31,142,51270,2,0,L|66:152,1,35,2|2,1:2|0:0,0:0:0:0:
104,223,51586,2,0,L|139:233,1,35,2|2,0:0|0:0,0:0:0:0:
214,254,51902,6,0,L|282:272,1,70,2|0,3:0|0:0,0:0:0:0:
326,147,52533,2,0,L|292:138,1,35,2|2,1:2|0:0,0:0:0:0:
253,66,52849,2,0,L|219:57,1,35,2|2,0:0|0:0,0:0:0:0:
129,79,53165,5,6,0:0:0:0:
54,171,53481,1,0,0:0:0:0:
162,252,53797,2,0,L|168:289,2,35,2|2|2,1:2|0:0|0:0,0:0:0:0:
148,165,54270,1,2,0:0:0:0:
206,90,54428,5,2,3:0:0:0:
298,165,54744,1,0,0:0:0:0:
379,57,55060,2,0,L|416:51,2,35,2|2|2,1:2|0:0|0:0,0:0:0:0:
292,71,55533,1,2,0:0:0:0:
200,49,55691,5,6,0:0:0:0:
98,150,56007,1,0,0:0:0:0:
208,267,56323,1,2,1:2:0:0:
205,236,56480,1,0,0:0:0:0:
201,205,56638,1,0,0:0:0:0:
197,174,56796,1,2,0:0:0:0:
193,142,56954,5,2,3:0:0:0:
57,115,57270,1,0,0:0:0:0:
110,302,57586,1,2,1:2:0:0:
131,320,57744,1,2,0:0:0:0:
155,333,57902,1,2,0:0:0:0:
183,340,58060,1,2,0:0:0:0:
211,341,58217,5,0,0:0:0:0:
334,239,58534,2,0,L|373:233,1,35,2|2,0:0|0:0,0:0:0:0:
475,223,58849,1,2,0:0:0:0:
475,223,59165,1,2,0:0:0:0:
411,138,59481,6,0,B|393:109|393:109|364:93|364:93|344:61,1,105,2|0,0:0|0:0,0:0:0:0:
261,28,60113,2,0,L|222:42,1,35,2|2,0:0|0:0,0:0:0:0:
180,110,60428,2,0,L|141:124,1,35,2|2,0:0|0:0,0:0:0:0:
83,231,60744,6,0,L|173:199,1,87.5,4|0,0:0|0:0,0:0:0:0:
281,158,61060,1,2,0:2:0:0:
281,158,61218,1,2,0:2:0:0:
372,246,61376,6,0,P|337:272|293:280,1,87.5,2|0,0:2|0:0,0:0:0:0:
361,123,61691,2,0,P|396:97|440:89,1,87.5,2|0,0:2|0:0,0:0:0:0:
443,198,62007,5,2,0:2:0:0:
445,315,62165,2,0,P|460:340|479:355,2,43.75,0|0|2,0:0|0:0|0:2,0:0:0:0:
443,198,62481,1,2,0:2:0:0:
438,88,62639,6,0,B|374:72|374:72|324:85|324:85|267:71,1,175,2|2,0:2|0:2,0:0:0:0:
184,47,63113,1,0,0:0:0:0:
116,158,63270,6,0,L|201:179,1,87.5,4|0,0:0|0:0,0:0:0:0:
299,208,63586,1,2,0:2:0:0:
299,208,63744,1,2,0:2:0:0:
250,347,63902,6,0,P|251:305|229:262,1,87.5,2|0,0:2|0:0,0:0:0:0:
116,158,64218,1,2,0:2:0:0:
133,249,64376,1,2,0:2:0:0:
39,263,64534,6,0,B|56:306|56:306|90:335,2,87.5,2|0|2,0:2|0:0|0:2,0:0:0:0:
198,189,65007,1,0,0:0:0:0:
293,175,65165,6,0,B|276:132|276:132|242:103,2,87.5,2|0|2,0:2|0:0|0:2,0:0:0:0:
133,249,65639,1,0,0:0:0:0:
64,165,65797,5,4,0:0:0:0:
103,59,65955,1,2,0:2:0:0:
103,59,66034,1,0,0:0:0:0:
103,59,66113,2,0,P|61:48|20:59,1,87.5,2|2,0:2|0:2,0:0:0:0:
206,108,66428,6,0,P|248:119|289:108,1,87.5,2|0,0:2|0:0,0:0:0:0:
424,52,66744,2,0,L|408:150,1,87.5,2|0,0:2|0:0,0:0:0:0:
310,286,67060,6,0,L|326:188,1,87.5,2|0,0:2|0:0,0:0:0:0:
409,138,67376,1,2,0:2:0:0:
436,267,67534,1,2,0:2:0:0:
345,362,67691,6,0,P|302:369|247:345,1,87.5,2|0,0:2|0:0,0:0:0:0:
239,231,68007,2,0,P|197:217|154:224,1,87.5,2|0,0:2|0:0,0:0:0:0:
44,306,68323,6,0,L|29:219,1,87.5,4|0,0:0|0:0,0:0:0:0:
11,115,68639,1,2,0:2:0:0:
104,153,68797,1,2,0:2:0:0:
58,285,68955,6,0,L|43:198,1,87.5,2|0,0:2|0:0,0:0:0:0:
25,94,69271,1,2,0:2:0:0:
118,132,69429,1,0,0:0:0:0:
208,43,69586,6,0,B|172:17|172:17|128:17,2,87.5,2|0|0,0:2|0:0|0:0,0:0:0:0:
319,76,70060,1,0,0:0:0:0:
430,43,70218,6,0,B|466:17|466:17|510:17,2,87.5,2|0|0,0:2|0:0|0:0,0:0:0:0:
319,76,70692,1,0,0:0:0:0:
429,153,70849,6,0,L|339:185,1,87.5,4|0,0:0|0:0,0:0:0:0:
231,226,71165,1,2,0:2:0:0:
231,226,71323,1,2,0:2:0:0:
140,138,71481,6,0,P|175:112|219:104,1,87.5,2|0,0:2|0:0,0:0:0:0:
151,261,71797,2,0,P|116:287|72:295,1,87.5,2|0,0:2|0:0,0:0:0:0:
69,186,72112,5,2,0:2:0:0:
67,69,72270,2,0,P|52:44|33:29,2,43.75,0|0|2,0:0|0:0|0:2,0:0:0:0:
69,186,72586,1,2,0:2:0:0:
74,296,72744,6,0,B|137:311|137:311|187:298|187:298|244:312,1,175,2|2,0:2|0:2,0:0:0:0:
328,337,73218,1,0,0:0:0:0:
396,226,73376,6,0,L|311:205,1,87.5,4|0,0:0|0:0,0:0:0:0:
213,176,73691,1,2,0:2:0:0:
213,176,73849,1,2,0:2:0:0:
262,37,74007,6,0,P|261:79|283:122,1,87.5,2|0,0:2|0:0,0:0:0:0:
396,226,74323,1,2,0:2:0:0:
379,135,74481,1,2,0:2:0:0:
473,121,74639,6,0,B|456:78|456:78|422:49,2,87.5,2|0|2,0:2|0:0|0:2,0:0:0:0:
314,195,75112,1,0,0:0:0:0:
219,209,75270,6,0,B|236:252|236:252|270:281,2,87.5,2|0|2,0:2|0:0|0:2,0:0:0:0:
379,135,75744,1,0,0:0:0:0:
448,219,75902,5,4,0:0:0:0:
409,325,76060,1,2,0:2:0:0:
409,325,76139,1,0,0:0:0:0:
409,325,76218,2,0,P|451:336|492:325,1,87.5,2|2,0:2|0:2,0:0:0:0:
306,276,76533,6,0,P|264:265|223:276,1,87.5,0|0,0:0|0:0,0:0:0:0:
88,332,76849,2,0,L|104:234,1,87.5,2|0,0:2|0:0,0:0:0:0:
202,98,77165,6,0,L|186:196,1,87.5,2|0,0:2|0:0,0:0:0:0:
103,246,77481,1,2,0:2:0:0:
76,117,77639,1,2,0:2:0:0:
167,22,77797,6,0,P|210:15|265:39,1,87.5,2|0,0:2|0:0,0:0:0:0:
273,153,78112,2,0,P|315:167|358:160,1,87.5,0|0,0:0|0:0,0:0:0:0:
468,78,78428,6,0,L|483:165,1,87.5,4|0,0:0|0:0,0:0:0:0:
501,269,78744,1,2,0:2:0:0:
408,231,78902,1,2,0:2:0:0:
454,99,79060,6,0,L|469:186,1,87.5,2|0,0:2|0:0,0:0:0:0:
487,290,79376,1,2,0:2:0:0:
394,252,79534,1,0,0:0:0:0:
304,341,79691,6,0,B|340:367|340:367|384:367,2,87.5,2|0|0,0:2|0:0|0:0,0:0:0:0:
193,308,80165,1,0,0:0:0:0:
82,341,80323,6,0,B|46:367|46:367|2:367,2,87.5,2|0|0,0:2|0:0|0:0,0:0:0:0:
193,308,80797,1,0,0:0:0:0:
194,183,80955,6,0,L|195:139,2,43.75,2|2|2,0:2|0:2|0:2,0:0:0:0:
193,308,81270,2,0,P|153:279|104:266,1,87.5,2|2,0:2|0:2,0:0:0:0:
80,109,81586,2,0,P|125:88|160:52,1,87.5,2|0,0:2|0:0,0:0:0:0:
298,138,81902,2,0,P|292:187|306:236,1,87.5,2|0,0:2|0:0,0:0:0:0:
352,311,82218,5,2,0:2:0:0:
376,315,82297,1,2,0:2:0:0:
400,319,82376,1,2,0:2:0:0:
496,334,82533,1,0,0:0:0:0:
407,214,82691,1,2,0:2:0:0:
407,214,82849,6,0,B|496:204,1,87.5,2|0,0:2|0:0,0:0:0:0:
486,75,83165,2,0,B|399:65,1,87.5,2|0,0:2|0:0,0:0:0:0:
298,138,83481,5,4,0:0:0:0:
132,141,83639,2,0,L|86:141,2,43.75,0|0|2,0:0|0:0|0:2,0:0:0:0:
213,74,83955,1,2,0:2:0:0:
258,251,84113,6,0,B|214:259|214:259|167:251,1,87.5,2|0,0:2|0:0,0:0:0:0:
216,160,84428,1,2,0:2:0:0:
216,160,84586,1,2,0:2:0:0:
354,206,84744,6,0,P|365:251|356:293,1,87.5,2|0,0:2|0:0,0:0:0:0:
345,323,84981,1,2,0:2:0:0:
345,323,85060,1,2,0:2:0:0:
236,341,85218,2,0,L|184:341,2,43.75,2|2|2,0:2|0:2|0:2,0:0:0:0:
171,251,85534,2,0,L|121:251,2,43.75,0|2|2,0:0|0:2|0:2,0:0:0:0:
104,161,85849,1,2,0:2:0:0:
104,161,85928,1,0,0:0:0:0:
104,161,86007,6,0,P|94:118|104:76,1,87.5,4|0,0:0|0:0,0:0:0:0:
205,23,86323,1,2,0:2:0:0:
271,125,86481,1,2,0:2:0:0:
271,125,86639,6,0,L|364:113,1,87.5,2|0,0:2|0:0,0:0:0:0:
471,39,86955,2,0,L|384:27,1,87.5,2|0,0:2|0:0,0:0:0:0:
458,142,87270,6,0,P|477:181|478:231,1,87.5,2|0,0:2|0:0,0:0:0:0:
316,265,87586,1,2,0:2:0:0:
316,265,87744,1,2,0:2:0:0:
495,321,87902,6,0,P|451:317|407:293,1,87.5,2|0,0:2|0:0,0:0:0:0:
316,265,88218,2,0,P|340:229|383:203,1,87.5,2|0,0:2|0:0,0:0:0:0:
339,353,88534,5,4,0:0:0:0:
233,319,88691,1,2,0:2:0:0:
125,349,88849,2,0,L|34:328,1,87.5,2|2,0:2|0:2,0:0:0:0:
26,198,89165,5,2,0:2:0:0:
185,238,89322,1,2,0:2:0:0:
100,264,89481,2,0,B|107:234|107:234|106:213|106:213|113:175,1,87.5,2|2,0:2|0:2,0:0:0:0:
86,40,89797,5,2,0:2:0:0:
116,28,89875,1,2,0:2:0:0:
149,28,89954,1,2,0:2:0:0:
180,39,90033,1,2,0:2:0:0:
205,61,90113,2,0,L|191:153,1,87.5,2|2,0:2|0:2,0:0:0:0:
212,308,90428,5,2,0:2:0:0:
242,320,90506,1,0,0:0:0:0:
275,320,90585,1,0,0:0:0:0:
306,309,90664,1,0,0:0:0:0:
331,287,90744,2,0,L|317:195,1,87.5,2|2,0:2|0:2,0:0:0:0:
298,80,91060,6,0,L|291:33,2,43.75,2|2|2,0:2|0:2|0:2,0:0:0:0:
388,124,91376,2,0,P|428:153|477:166,1,87.5,2|2,0:2|0:2,0:0:0:0:
403,240,91691,2,0,P|358:261|323:297,1,87.5,2|0,0:2|0:0,0:0:0:0:
284,196,92007,2,0,P|290:147|276:98,1,87.5,2|0,0:2|0:0,0:0:0:0:
160,73,92323,5,2,0:2:0:0:
136,69,92402,1,2,0:2:0:0:
112,65,92481,1,2,0:2:0:0:
16,50,92638,1,2,0:2:0:0:
105,170,92797,1,2,0:2:0:0:
108,175,92955,6,0,B|19:185,1,87.5,2|0,0:2|0:0,0:0:0:0:
26,309,93270,2,0,B|113:319,1,87.5,2|0,0:2|0:0,0:0:0:0:
214,246,93586,5,4,0:0:0:0:
380,243,93744,2,0,L|426:243,2,43.75,0|0|2,0:0|0:0|0:2,0:0:0:0:
299,310,94060,1,2,0:2:0:0:
254,133,94218,6,0,B|298:125|298:125|345:133,1,87.5,2|0,0:2|0:0,0:0:0:0:
296,224,94533,1,2,0:2:0:0:
296,224,94691,1,2,0:2:0:0:
158,178,94849,6,0,P|147:133|156:91,1,87.5,2|0,0:2|0:0,0:0:0:0:
167,61,95086,1,2,0:2:0:0:
167,61,95165,1,2,0:2:0:0:
276,43,95323,2,0,L|328:43,2,43.75,2|2|2,0:2|0:2|0:2,0:0:0:0:
341,133,95639,2,0,L|391:133,2,43.75,0|2|2,0:0|0:2|0:2,0:0:0:0:
408,223,95954,1,2,0:2:0:0:
408,223,96033,1,0,0:0:0:0:
408,223,96112,6,0,P|418:266|408:308,1,87.5,0|0,0:0|0:0,0:0:0:0:
307,361,96428,1,2,0:2:0:0:
241,259,96586,1,2,0:2:0:0:
241,259,96744,6,0,L|148:271,1,87.5,2|0,0:2|0:0,0:0:0:0:
41,345,97060,2,0,L|128:357,1,87.5,2|0,0:2|0:0,0:0:0:0:
54,242,97376,6,0,P|35:203|34:153,1,87.5,2|0,0:2|0:0,0:0:0:0:
196,119,97691,1,2,0:2:0:0:
196,119,97849,1,2,0:2:0:0:
17,63,98007,6,0,P|61:67|105:91,1,87.5,2|0,0:2|0:0,0:0:0:0:
196,119,98323,2,0,P|172:155|129:181,1,87.5,2|0,0:2|0:0,0:0:0:0:
173,31,98639,5,4,0:0:0:0:
279,65,98796,1,2,0:2:0:0:
387,35,98955,2,0,L|478:56,1,87.5,2|2,0:2|0:2,0:0:0:0:
486,186,99270,5,2,0:2:0:0:
327,146,99427,1,2,0:2:0:0:
412,120,99586,2,0,B|405:150|405:150|406:171|406:171|399:209,1,87.5,2|2,0:2|0:2,0:0:0:0:
426,344,99902,5,2,0:2:0:0:
396,356,99980,1,2,0:2:0:0:
363,356,100059,1,2,0:2:0:0:
332,345,100138,1,2,0:2:0:0:
307,323,100218,2,0,L|321:231,1,87.5,2|2,0:2|0:2,0:0:0:0:
300,76,100533,5,0,0:0:0:0:
270,64,100613,1,0,0:0:0:0:
237,64,100690,1,0,0:0:0:0:
206,75,100769,1,0,0:0:0:0:
181,97,100849,2,0,L|195:189,1,87.5,2|2,0:2|0:2,0:0:0:0:
224,305,101165,5,4,0:0:0:0:
103,264,101323,2,0,L|49:261,2,43.75,0|0|2,0:0|0:0|0:2,0:0:0:0:
224,305,101639,1,2,0:2:0:0:
320,160,101797,6,0,P|287:188|271:230,1,87.5,2|0,0:2|0:0,0:0:0:0:
429,157,102113,2,0,P|421:114|392:79,1,87.5,2|0,0:2|0:0,0:0:0:0:
377,251,102428,6,0,P|417:265|462:258,1,87.5,2|0,0:2|0:0,0:0:0:0:
512,185,102744,1,2,0:2:0:0:
512,185,102902,1,2,0:2:0:0:
393,79,103060,6,0,L|312:48,1,87.5,2|0,0:2|0:0,0:0:0:0:
136,48,103376,2,0,L|220:81,1,87.5,2|0,0:2|0:0,0:0:0:0:
302,151,103691,5,4,0:0:0:0:
405,187,103849,1,0,0:0:0:0:
274,176,104007,2,0,P|231:183|186:210,1,87.5,2|2,0:2|0:2,0:0:0:0:
349,251,104323,5,2,0:2:0:0:
246,287,104481,1,0,0:0:0:0:
377,276,104639,2,0,P|420:283|465:310,1,87.5,2|2,0:2|0:2,0:0:0:0:
311,348,104955,6,0,L|223:370,1,87.5,2|0,0:2|0:0,0:0:0:0:
98,311,105270,2,0,L|186:289,1,87.5,2|0,0:2|0:0,0:0:0:0:
285,343,105586,6,0,L|218:360,1,70,2|0,0:2|0:0,0:0:0:0:
123,315,105902,2,0,L|190:298,1,70,2|0,0:2|0:0,0:0:0:0:
260,340,106218,5,4,0:0:0:0:
256,192,106376,12,0,110007,0:0:0:0:
