osu file format v14

[General]
AudioFilename: audio.mp3
AudioLeadIn: 0
PreviewTime: 58202
Countdown: 0
SampleSet: Soft
StackLeniency: 0.7
Mode: 0
LetterboxInBreaks: 0
WidescreenStoryboard: 0

[Editor]
DistanceSpacing: 0.6
BeatDivisor: 4
GridSize: 4
TimelineZoom: 2.899999

[Metadata]
Title:Finale
TitleUnicode:Finale
Artist:toby fox
ArtistUnicode:toby fox
Creator:Fatfan Kolek
Version:Expert
Source:UNDERTALE
Tags:flowey boss fight chiptune soundtrack radiation
BeatmapID:1431949
BeatmapSetID:667713

[Difficulty]
HPDrainRate:6
CircleSize:4
OverallDifficulty:8
ApproachRate:9
SliderMultiplier:1.6
SliderTickRate:1

[Events]
//Background and Video events
0,0,"wallhaven-280608.jpg",0,0
//Break Periods
//Storyboard Layer 0 (Background)
//Storyboard Layer 1 (Fail)
//Storyboard Layer 2 (Pass)
//Storyboard Layer 3 (Foreground)
//Storyboard Sound Samples

[TimingPoints]
113,315.789473684211,4,2,0,50,1,0
9586,-366.333333333333,4,2,0,50,0,0
10060,-366.333333333333,4,2,0,5,0,0
10218,-366.333333333333,4,2,0,50,0,0
10534,-200,4,2,0,50,0,0
19691,-366.333333333333,4,2,0,50,0,0
20165,-366.333333333333,4,2,0,5,0,0
20323,-100,4,2,0,50,0,0
25060,-200,4,1,0,50,0,0
25376,-100,4,2,0,50,0,0
35165,-200,4,1,0,50,0,0
35481,-100,4,2,0,50,0,0
43691,-200,4,2,0,50,0,0
60744,-80,4,1,0,50,0,1
103691,-80,4,1,0,40,0,1
104955,-80,4,1,0,30,0,1
105586,-100,4,1,0,30,0,1
106376,-100,4,1,0,50,0,0
107481,-100,4,1,0,35,0,0
108744,-100,4,1,0,20,0,0
110007,-80,4,1,0,5,0,0

[Colours]
Combo1 : 253,0,0
Combo2 : 0,128,0
Combo3 : 255,102,102
Combo4 : 0,64,0

[HitObjects]
86,151,113,5,4,0:2:0:0:
136,42,428,1,0,0:0:0:0:
161,48,586,1,0,0:0:0:0:
186,54,744,1,2,0:2:0:0:
369,98,1060,1,0,0:0:0:0:
336,226,1376,5,0,0:0:0:0:
290,115,1691,1,0,0:2:0:0:
265,121,1849,1,0,0:0:0:0:
240,127,2007,1,2,0:0:0:0:
57,171,2323,1,0,0:0:0:0:
91,301,2639,5,4,0:2:0:0:
137,190,2954,1,0,0:0:0:0:
162,196,3112,1,0,0:0:0:0:
187,202,3270,1,2,0:2:0:0:
370,246,3586,1,0,0:0:0:0:
341,116,3902,5,0,0:0:0:0:
375,104,4218,1,0,0:0:0:0:
411,108,4534,1,0,0:0:0:0:
438,135,4849,1,0,0:0:0:0:
426,233,5165,5,4,0:2:0:0:
376,342,5481,1,0,0:0:0:0:
351,336,5639,1,0,0:0:0:0:
326,330,5797,1,2,0:2:0:0:
143,286,6113,1,0,0:0:0:0:
176,158,6429,5,0,0:0:0:0:
222,269,6744,1,0,0:2:0:0:
247,263,6902,1,0,0:0:0:0:
272,257,7060,1,2,0:0:0:0:
455,213,7376,1,0,0:0:0:0:
421,83,7692,5,4,0:0:0:0:
375,194,8007,1,0,0:0:0:0:
350,188,8165,1,0,0:0:0:0:
325,182,8323,1,2,0:0:0:0:
142,138,8639,1,0,0:0:0:0:
171,268,8955,5,0,0:0:0:0:
181,298,9271,1,0,0:0:0:0:
190,330,9586,6,0,P|162:349|125:354,1,65.5141019114361,0|0,1:0|0:0,0:0:0:0:
52,328,10218,5,4,0:0:0:0:
75,172,10534,2,0,L|82:129,1,40,0|0,0:0|0:0,0:0:0:0:
95,61,10849,1,2,0:0:0:0:
206,25,11165,1,0,0:0:0:0:
399,65,11481,5,0,0:0:0:0:
376,221,11797,2,0,L|369:264,1,40,0|0,0:0|0:0,0:0:0:0:
356,332,12112,1,2,0:0:0:0:
245,368,12428,1,0,0:0:0:0:
122,218,12744,5,4,0:0:0:0:
248,114,13060,2,0,P|270:120|293:138,1,40,0|0,0:0|0:0,0:0:0:0:
328,186,13376,1,2,0:0:0:0:
379,303,13691,1,0,0:0:0:0:
241,277,14007,5,0,0:0:0:0:
245,315,14322,1,0,0:0:0:0:
270,341,14638,1,0,0:0:0:0:
303,353,14954,1,0,0:0:0:0:
460,328,15270,5,4,0:0:0:0:
437,172,15586,2,0,L|430:129,1,40,0|0,0:0|0:0,0:0:0:0:
417,61,15901,1,2,0:0:0:0:
306,25,16217,1,0,0:0:0:0:
113,65,16533,5,0,0:0:0:0:
136,221,16849,2,0,L|143:264,1,40,0|0,0:0|0:0,0:0:0:0:
156,332,17164,1,2,0:0:0:0:
267,368,17480,1,0,0:0:0:0:
390,218,17796,5,4,0:0:0:0:
264,114,18112,2,0,P|241:120|218:138,1,40,0|0,0:0|0:0,0:0:0:0:
184,186,18428,1,2,0:0:0:0:
133,303,18744,1,0,0:0:0:0:
253,354,19060,5,0,0:0:0:0:
283,361,19375,1,0,0:0:0:0:
313,366,19691,6,0,P|345:359|373:341,1,65.5141019114361,0|0,1:0|0:0,0:0:0:0:
430,273,20323,6,0,L|412:183,1,80,4|0,0:0|0:0,0:0:0:0:
272,97,20639,1,0,0:0:0:0:
307,203,20797,1,0,0:0:0:0:
303,17,20955,2,0,P|261:12|217:33,1,80,0|0,1:0|0:0,0:0:0:0:
132,188,21270,2,0,P|171:193|208:179,1,80,0|0,0:0|0:0,0:0:0:0:
272,97,21586,5,0,0:0:0:0:
21,161,21902,1,0,0:0:0:0:
0,283,22060,1,0,0:0:0:0:
173,347,22218,2,0,L|163:268,1,80,0|0,1:0|0:0,0:0:0:0:
272,97,22534,2,0,L|262:176,1,80,0|0,0:0|0:0,0:0:0:0:
343,352,22849,6,0,P|384:353|418:333,1,80,4|0,0:0|0:0,0:0:0:0:
467,185,23165,1,0,0:0:0:0:
358,256,23323,1,0,0:0:0:0:
311,75,23481,1,0,1:0:0:0:
377,164,23639,1,0,0:0:0:0:
254,313,23797,6,0,L|165:321,1,80,2|0,0:2|0:0,0:0:0:0:
22,206,24113,2,0,P|58:187|98:184,1,80,2|0,0:2|0:0,0:0:0:0:
329,236,24428,2,0,L|321:147,1,80,2|0,0:2|0:0,0:0:0:0:
189,31,24744,2,0,P|170:67|167:107,1,80,2|0,1:2|0:0,0:0:0:0:
194,200,25060,6,0,L|233:233,1,40,2|0,0:2|0:0,0:0:0:0:
289,281,25376,6,0,L|351:334,1,80,4|0,0:0|0:0,0:0:0:0:
512,246,25691,1,0,0:0:0:0:
409,256,25849,1,0,0:0:0:0:
262,131,26007,2,0,P|281:96|316:76,1,80,0|0,1:0|0:0,0:0:0:0:
491,43,26323,2,0,L|460:125,1,80,0|0,0:0|0:0,0:0:0:0:
409,256,26639,5,0,0:0:0:0:
166,128,26955,1,0,0:0:0:0:
228,242,27113,1,0,0:0:0:0:
59,335,27270,2,0,L|87:260,1,80,0|0,1:0|0:0,0:0:0:0:
133,44,27586,2,0,P|97:66|80:99,1,80,0|0,0:0|0:0,0:0:0:0:
168,305,27902,6,0,B|203:325|203:325|251:325,1,80,4|0,0:0|0:0,0:0:0:0:
422,257,28218,1,0,0:0:0:0:
352,354,28376,1,0,0:0:0:0:
295,208,28534,2,0,P|269:178|261:137,1,80,0|0,1:0|0:0,0:0:0:0:
337,11,28849,2,0,P|363:41|371:82,1,80,2|0,0:0|0:0,0:0:0:0:
295,208,29165,6,0,L|190:226,1,80,2|0,0:0|0:0,0:0:0:0:
404,266,29481,2,0,L|509:248,1,80,2|0,0:0|0:0,0:0:0:0:
455,20,29797,2,0,L|212:61,1,240,2|0,1:2|0:0,0:0:0:0:
82,111,30428,6,0,L|100:201,1,80,4|0,0:0|0:0,0:0:0:0:
240,287,30744,1,0,0:0:0:0:
205,181,30902,1,0,0:0:0:0:
209,367,31060,2,0,P|251:372|295:351,1,80,0|0,1:0|0:0,0:0:0:0:
380,196,31376,2,0,P|341:191|304:205,1,80,0|0,0:0|0:0,0:0:0:0:
240,287,31691,5,0,0:0:0:0:
491,227,32007,1,0,0:0:0:0:
512,105,32165,1,0,0:0:0:0:
339,37,32323,2,0,L|349:116,1,80,0|0,1:0|0:0,0:0:0:0:
240,287,32639,2,0,L|250:208,1,80,0|0,0:0|0:0,0:0:0:0:
169,32,32955,6,0,P|128:31|93:50,1,80,4|0,0:0|0:0,0:0:0:0:
45,199,33270,1,0,0:0:0:0:
154,128,33428,1,0,0:0:0:0:
201,309,33586,1,0,1:0:0:0:
135,220,33744,1,0,0:0:0:0:
258,71,33902,6,0,L|347:63,1,80,2|0,0:2|0:0,0:0:0:0:
490,178,34218,2,0,P|454:197|414:200,1,80,2|0,0:2|0:0,0:0:0:0:
183,148,34533,2,0,L|191:237,1,80,0|0,0:0|0:0,0:0:0:0:
323,353,34849,2,0,P|342:317|345:277,1,80,2|0,1:2|0:0,0:0:0:0:
318,184,35165,6,0,L|279:151,1,40,2|0,0:2|0:0,0:0:0:0:
223,103,35481,6,0,L|160:49,1,80,4|0,0:0|0:0,0:0:0:0:
0,138,35796,1,0,0:0:0:0:
103,128,35954,1,0,0:0:0:0:
250,253,36112,2,0,P|230:287|195:307,1,80,0|0,1:0|0:0,0:0:0:0:
21,341,36428,2,0,L|52:259,1,80,0|0,0:0|0:0,0:0:0:0:
103,128,36744,5,0,0:0:0:0:
346,256,37060,1,0,0:0:0:0:
284,142,37218,1,0,0:0:0:0:
453,49,37376,2,0,L|424:123,1,80,0|0,1:0|0:0,0:0:0:0:
379,340,37691,2,0,P|415:318|432:285,1,80,0|0,0:0|0:0,0:0:0:0:
344,79,38007,6,0,B|309:59|309:59|261:59,1,80,4|0,0:0|0:0,0:0:0:0:
90,127,38323,1,0,0:0:0:0:
160,30,38481,1,0,0:0:0:0:
217,176,38639,2,0,P|243:206|251:247,1,80,0|0,1:0|0:0,0:0:0:0:
175,373,38955,2,0,P|149:343|141:302,1,80,2|0,0:0|0:0,0:0:0:0:
217,176,39270,6,0,L|322:158,1,80,2|0,0:0|0:0,0:0:0:0:
108,118,39586,2,0,L|3:136,1,80,2|0,0:0|0:0,0:0:0:0:
57,364,39902,2,0,L|300:323,1,240,2|0,1:2|0:0,0:0:0:0:
420,289,40534,5,4,0:0:0:0:
462,203,40849,1,0,0:0:0:0:
270,165,41165,1,2,1:2:0:0:
356,207,41323,1,2,0:0:0:0:
270,165,41480,1,0,0:0:0:0:
356,207,41638,1,0,0:0:0:0:
276,257,41797,5,2,3:0:0:0:
300,350,42112,1,0,0:0:0:0:
104,347,42428,1,2,1:2:0:0:
197,324,42586,1,2,0:0:0:0:
104,347,42743,1,0,0:0:0:0:
197,324,42901,1,0,0:0:0:0:
122,247,43060,5,6,0:0:0:0:
80,161,43375,1,0,0:0:0:0:
181,57,43691,2,0,L|226:57,1,40,2|2,1:2|0:0,0:0:0:0:
223,134,44007,2,0,L|268:134,1,40,2|2,0:0|0:0,0:0:0:0:
404,177,44323,5,2,3:0:0:0:
446,263,44638,1,0,0:0:0:0:
345,367,44955,2,0,L|300:367,1,40,2|2,1:2|0:0,0:0:0:0:
303,290,45270,2,0,L|258:290,1,40,2|2,0:0|0:0,0:0:0:0:
108,207,45586,5,6,0:0:0:0:
41,288,45901,1,0,0:0:0:0:
73,118,46218,1,2,1:2:0:0:
107,106,46375,1,0,0:0:0:0:
143,110,46533,1,0,0:0:0:0:
170,137,46691,1,2,0:0:0:0:
108,207,46849,5,2,3:0:0:0:
171,288,47164,1,0,0:0:0:0:
191,165,47481,1,2,1:2:0:0:
218,192,47639,1,2,0:0:0:0:
254,196,47797,1,2,0:0:0:0:
288,184,47954,1,2,0:0:0:0:
255,90,48113,5,6,0:0:0:0:
404,136,48428,1,0,0:0:0:0:
312,258,48744,1,2,1:2:0:0:
312,258,48902,1,2,0:0:0:0:
410,232,49060,1,2,0:0:0:0:
410,232,49218,1,2,0:0:0:0:
376,334,49376,5,2,3:0:0:0:
227,288,49691,1,0,0:0:0:0:
281,145,50007,2,0,L|321:145,1,40,2|2,1:2|0:0,0:0:0:0:
223,64,50323,2,0,L|175:64,1,40,2|2,0:0|0:0,0:0:0:0:
92,95,50639,5,6,0:0:0:0:
50,181,50954,1,0,0:0:0:0:
242,219,51270,1,2,1:2:0:0:
156,177,51428,1,2,0:0:0:0:
242,219,51585,1,0,0:0:0:0:
156,177,51743,1,0,0:0:0:0:
236,127,51902,5,2,3:0:0:0:
212,34,52217,1,0,0:0:0:0:
408,37,52533,1,2,1:2:0:0:
315,60,52691,1,2,0:0:0:0:
408,37,52848,1,0,0:0:0:0:
315,60,53006,1,0,0:0:0:0:
386,135,53165,5,6,0:0:0:0:
428,221,53480,1,0,0:0:0:0:
327,325,53797,2,0,L|282:325,1,40,2|2,1:2|0:0,0:0:0:0:
285,248,54112,2,0,L|240:248,1,40,2|2,0:0|0:0,0:0:0:0:
108,207,54428,5,2,3:0:0:0:
66,121,54743,1,0,0:0:0:0:
167,17,55060,2,0,L|212:17,1,40,2|2,1:2|0:0,0:0:0:0:
209,94,55376,2,0,L|254:94,1,40,2|2,0:0|0:0,0:0:0:0:
404,177,55691,5,6,0:0:0:0:
471,96,56006,1,0,0:0:0:0:
439,266,56323,1,2,1:2:0:0:
405,278,56480,1,0,0:0:0:0:
369,274,56638,1,0,0:0:0:0:
342,247,56796,1,2,0:0:0:0:
404,177,56954,5,2,3:0:0:0:
341,96,57269,1,0,0:0:0:0:
321,219,57586,1,2,1:2:0:0:
294,192,57744,1,2,0:0:0:0:
258,188,57902,1,2,0:0:0:0:
224,200,58059,1,2,0:0:0:0:
257,294,58218,5,6,0:0:0:0:
153,274,58534,1,2,0:0:0:0:
153,274,58691,1,2,0:0:0:0:
153,274,58849,1,2,0:0:0:0:
122,166,59165,1,2,0:0:0:0:
18,146,59481,6,0,B|38:113|38:113|71:95|71:95|94:58,1,120,2|0,0:0|0:0,0:0:0:0:
182,48,60113,2,0,L|203:11,1,40,2|2,0:0|0:0,0:0:0:0:
200,132,60428,2,0,L|180:166,1,40,2|2,0:0|0:0,0:0:0:0:
308,65,60744,6,0,P|356:65|398:97,1,100,4|0,0:0|0:0,0:0:0:0:
429,184,61060,1,2,0:2:0:0:
302,314,61218,1,2,0:2:0:0:
478,313,61376,6,0,B|426:302|426:302|375:266,1,100,2|0,0:2|0:0,0:0:0:0:
246,159,61691,2,0,B|297:169|297:169|335:196,1,100,2|0,0:2|0:0,0:0:0:0:
375,360,62007,5,2,0:2:0:0:
188,260,62165,1,0,0:0:0:0:
188,260,62244,1,0,0:0:0:0:
188,260,62323,2,0,L|157:154,1,100,2|2,0:2|0:2,0:0:0:0:
311,86,62639,6,0,B|359:73|359:73|386:31,1,100,2|0,0:2|0:0,0:0:0:0:
159,164,62955,2,0,B|111:177|111:177|84:219,1,100,2|0,0:2|0:0,0:0:0:0:
378,192,63270,6,0,L|434:176,1,50,4|0,0:0|0:0,0:0:0:0:
496,155,63428,1,0,0:0:0:0:
412,294,63586,1,2,0:2:0:0:
412,294,63744,1,2,0:2:0:0:
249,96,63902,6,0,P|257:146|285:185,1,100,2|0,0:2|0:0,0:0:0:0:
382,98,64218,1,2,0:2:0:0:
199,33,64376,1,2,0:2:0:0:
101,54,64534,6,0,L|198:32,1,100,2|0,0:2|0:0,0:0:0:0:
155,252,64849,1,2,0:2:0:0:
12,152,65006,1,0,0:0:0:0:
93,77,65165,6,0,L|190:55,1,100,2|0,0:2|0:0,0:0:0:0:
147,275,65480,1,0,0:0:0:0:
4,175,65639,1,0,0:0:0:0:
98,343,65797,5,4,0:0:0:0:
248,253,65955,1,2,0:2:0:0:
248,253,66034,1,0,0:0:0:0:
248,253,66113,2,0,P|202:224|182:183,1,100,2|2,0:2|0:2,0:0:0:0:
315,32,66428,6,0,P|265:30|222:54,1,100,2|0,0:2|0:0,0:0:0:0:
393,222,66744,2,0,P|419:180|419:130,1,100,2|0,0:2|0:0,0:0:0:0:
248,253,67060,5,2,0:2:0:0:
301,144,67218,1,0,0:0:0:0:
342,321,67376,1,2,0:2:0:0:
183,354,67534,1,2,0:2:0:0:
370,315,67691,6,0,L|469:335,1,100,2|0,0:2|0:0,0:0:0:0:
263,218,68007,2,0,L|164:238,1,100,2|0,0:2|0:0,0:0:0:0:
307,122,68323,6,0,L|356:132,1,50,4|0,0:0|0:0,0:0:0:0:
431,152,68481,1,0,0:0:0:0:
356,228,68639,1,2,0:2:0:0:
356,228,68797,1,2,0:2:0:0:
193,105,68955,6,0,P|210:58|247:23,2,100,2|0|2,0:2|0:0|0:2,0:0:0:0:
212,201,69428,1,0,0:0:0:0:
15,183,69586,6,0,L|116:169,1,100,2|0,0:2|0:0,0:0:0:0:
280,143,69902,1,0,0:0:0:0:
114,169,70060,1,0,0:0:0:0:
310,255,70218,5,2,0:2:0:0:
370,98,70376,1,0,0:0:0:0:
187,222,70534,5,0,0:0:0:0:
292,352,70692,1,0,0:0:0:0:
204,319,70849,6,0,P|156:319|114:287,1,100,4|0,0:0|0:0,0:0:0:0:
83,200,71165,1,2,0:2:0:0:
210,70,71323,1,2,0:2:0:0:
34,71,71481,6,0,B|86:82|86:82|137:118,1,100,2|0,0:2|0:0,0:0:0:0:
266,225,71797,2,0,B|215:215|215:215|177:188,1,100,2|0,0:2|0:0,0:0:0:0:
137,24,72112,5,2,0:2:0:0:
324,124,72270,1,0,0:0:0:0:
324,124,72349,1,0,0:0:0:0:
324,124,72428,2,0,L|355:230,1,100,2|2,0:2|0:2,0:0:0:0:
201,298,72744,6,0,B|153:311|153:311|126:353,1,100,2|0,0:2|0:0,0:0:0:0:
353,220,73060,2,0,B|401:207|401:207|428:165,1,100,2|0,0:2|0:0,0:0:0:0:
134,192,73376,6,0,L|78:208,1,50,4|0,0:0|0:0,0:0:0:0:
16,229,73533,1,0,0:0:0:0:
100,90,73691,1,2,0:2:0:0:
100,90,73849,1,2,0:2:0:0:
263,288,74007,6,0,P|255:238|227:199,1,100,2|0,0:2|0:0,0:0:0:0:
130,286,74323,1,2,0:2:0:0:
313,351,74481,1,2,0:2:0:0:
411,330,74639,6,0,L|314:352,1,100,2|0,0:2|0:0,0:0:0:0:
357,132,74954,1,2,0:2:0:0:
500,232,75113,1,0,0:0:0:0:
419,307,75270,6,0,L|322:329,1,100,2|0,0:2|0:0,0:0:0:0:
365,109,75585,5,0,0:0:0:0:
508,209,75744,1,0,0:0:0:0:
414,41,75902,5,4,0:0:0:0:
264,131,76060,1,2,0:2:0:0:
264,131,76139,1,0,0:0:0:0:
264,131,76218,2,0,P|310:160|330:201,1,100,2|2,0:2|0:2,0:0:0:0:
197,352,76533,6,0,P|247:354|290:330,1,100,0|0,0:0|0:0,0:0:0:0:
119,162,76849,2,0,P|93:204|93:254,1,100,2|0,0:2|0:0,0:0:0:0:
264,131,77165,5,2,0:2:0:0:
211,240,77323,1,0,0:0:0:0:
170,63,77481,1,2,0:2:0:0:
329,30,77639,1,2,0:2:0:0:
142,69,77797,6,0,L|43:49,1,100,2|0,0:2|0:0,0:0:0:0:
249,166,78112,2,0,L|348:146,1,100,0|0,0:0|0:0,0:0:0:0:
205,262,78428,6,0,L|155:251,1,50,4|0,0:0|0:0,0:0:0:0:
81,232,78586,1,0,0:0:0:0:
156,156,78744,1,2,0:2:0:0:
156,156,78902,1,2,0:2:0:0:
319,279,79060,6,0,P|302:326|265:361,2,100,2|0|2,0:2|0:0|0:2,0:0:0:0:
300,183,79533,1,0,0:0:0:0:
497,201,79691,6,0,L|396:215,1,100,2|0,0:2|0:0,0:0:0:0:
232,241,80007,1,0,0:0:0:0:
398,215,80165,1,0,0:0:0:0:
202,129,80323,5,2,0:2:0:0:
142,286,80481,1,0,0:0:0:0:
325,162,80639,5,0,0:0:0:0:
220,32,80797,1,0,0:0:0:0:
232,241,80955,5,2,0:2:0:0:
256,240,81033,1,2,0:2:0:0:
281,245,81112,1,2,0:2:0:0:
304,255,81191,1,2,0:2:0:0:
324,269,81270,1,2,0:2:0:0:
389,358,81428,1,2,0:2:0:0:
240,346,81586,6,0,B|201:338|201:338|181:325|181:325|137:316,1,100,2|0,0:2|0:0,0:0:0:0:
40,168,81902,2,0,B|78:175|78:175|98:188|98:188|142:197,1,100,2|0,0:2|0:0,0:0:0:0:
291,150,82218,5,2,0:2:0:0:
266,150,82296,1,0,0:0:0:0:
241,145,82375,1,0,0:0:0:0:
218,135,82454,1,0,0:0:0:0:
198,121,82533,1,0,0:0:0:0:
134,33,82691,1,2,0:2:0:0:
281,53,82849,6,0,L|378:33,1,100,2|0,0:2|0:0,0:0:0:0:
491,152,83165,2,0,L|394:132,1,100,2|0,0:2|0:0,0:0:0:0:
281,53,83481,5,4,0:0:0:0:
316,202,83639,1,0,0:0:0:0:
316,202,83718,1,0,0:0:0:0:
316,202,83797,2,0,L|326:250,1,50,2|0,0:2|0:0,0:0:0:0:
344,329,83955,1,2,0:2:0:0:
219,221,84113,6,0,L|198:120,1,100,2|0,0:2|0:0,0:0:0:0:
182,36,84428,1,2,0:2:0:0:
34,201,84586,1,2,0:2:0:0:
56,93,84744,6,0,B|100:124|100:124|125:169,1,100,2|0,0:2|0:0,0:0:0:0:
128,192,84981,1,2,0:2:0:0:
126,220,85060,1,2,0:2:0:0:
37,327,85218,1,2,0:2:0:0:
37,327,85297,1,2,0:2:0:0:
37,327,85376,6,0,P|84:310|142:309,1,100,2|0,0:2|0:0,0:0:0:0:
223,341,85613,1,2,0:2:0:0:
223,341,85691,2,0,L|223:283,1,50,2|0,0:2|0:0,0:0:0:0:
276,142,85849,2,0,L|276:191,1,50,2|0,0:2|0:0,0:0:0:0:
330,346,86007,6,0,P|361:290|453:286,1,150,4|0,0:0|0:0,0:0:0:0:
471,301,86323,1,2,0:2:0:0:
499,166,86481,1,2,0:2:0:0:
400,146,86639,6,0,L|499:166,1,100,2|0,0:2|0:0,0:0:0:0:
408,36,86955,2,0,L|309:55,1,100,2|0,0:2|0:0,0:0:0:0:
214,79,87270,5,2,0:2:0:0:
214,79,87428,1,0,0:0:0:0:
50,166,87586,2,0,P|99:174|117:179,1,50,2|0,0:2|0:0,0:0:0:0:
175,190,87744,1,2,0:2:0:0:
226,324,87902,6,0,P|178:336|129:325,1,100,2|0,0:2|0:0,0:0:0:0:
285,155,88218,2,0,P|333:143|384:159,1,100,2|0,0:2|0:0,0:0:0:0:
445,310,88534,5,4,0:0:0:0:
329,239,88691,1,2,0:2:0:0:
457,134,88849,2,0,L|469:32,1,100,2|2,0:2|0:2,0:0:0:0:
423,331,89165,5,2,0:2:0:0:
307,260,89322,1,2,0:2:0:0:
435,155,89481,2,0,L|447:53,1,100,2|2,0:2|0:2,0:0:0:0:
400,349,89797,5,2,0:2:0:0:
376,351,89876,1,2,0:2:0:0:
351,354,89955,1,2,0:2:0:0:
326,357,90034,1,2,0:2:0:0:
301,360,90113,1,2,0:2:0:0:
251,358,90191,1,0,0:0:0:0:
209,331,90270,1,2,0:2:0:0:
187,288,90349,1,0,0:0:0:0:
189,238,90428,6,0,L|243:233,3,50,2|0|2|0,0:2|0:0|0:2|0:0,0:0:0:0:
324,215,90744,2,0,L|373:209,3,50,2|0|2|0,0:2|0:0|0:2|0:0,0:0:0:0:
280,143,91060,5,2,0:2:0:0:
256,144,91138,1,2,0:2:0:0:
231,139,91217,1,2,0:2:0:0:
208,129,91296,1,2,0:2:0:0:
188,115,91375,1,2,0:2:0:0:
123,26,91533,1,2,0:2:0:0:
272,38,91691,6,0,B|311:46|311:46|331:59|331:59|375:68,1,100,2|0,0:2|0:0,0:0:0:0:
472,216,92007,2,0,B|434:209|434:209|414:196|414:196|370:187,1,100,2|0,0:2|0:0,0:0:0:0:
221,234,92323,5,2,0:2:0:0:
246,234,92401,1,2,0:2:0:0:
271,239,92480,1,2,0:2:0:0:
294,249,92559,1,2,0:2:0:0:
314,263,92638,1,2,0:2:0:0:
378,351,92796,1,2,0:2:0:0:
231,331,92955,6,0,L|134:351,1,100,2|0,0:2|0:0,0:0:0:0:
21,232,93270,2,0,L|118:252,1,100,2|0,0:2|0:0,0:0:0:0:
231,331,93586,5,4,0:0:0:0:
196,182,93744,1,0,0:0:0:0:
196,182,93823,1,0,0:0:0:0:
196,182,93902,2,0,L|186:134,1,50,2|0,0:2|0:0,0:0:0:0:
168,55,94060,1,2,0:2:0:0:
293,163,94218,6,0,L|314:264,1,100,2|0,0:2|0:0,0:0:0:0:
330,348,94533,1,2,0:2:0:0:
478,183,94691,1,2,0:2:0:0:
456,291,94849,6,0,B|412:260|412:260|387:215,1,100,2|0,0:2|0:0,0:0:0:0:
384,192,95086,1,2,0:2:0:0:
386,164,95165,1,2,0:2:0:0:
475,57,95323,1,2,0:2:0:0:
475,57,95402,1,2,0:2:0:0:
475,57,95481,6,0,P|428:74|370:75,1,100,2|0,0:2|0:0,0:0:0:0:
289,43,95718,1,2,0:2:0:0:
289,43,95797,2,0,L|289:101,1,50,2|0,0:2|0:0,0:0:0:0:
236,242,95955,2,0,L|236:193,1,50,2|0,0:2|0:0,0:0:0:0:
182,38,96112,6,0,P|151:94|59:98,1,150,0|0,0:0|0:0,0:0:0:0:
41,83,96428,1,2,0:2:0:0:
13,218,96586,1,2,0:2:0:0:
112,238,96744,6,0,L|13:218,1,100,2|0,0:2|0:0,0:0:0:0:
104,348,97060,2,0,L|203:329,1,100,2|0,0:2|0:0,0:0:0:0:
298,305,97375,5,0,0:0:0:0:
298,305,97533,1,0,0:0:0:0:
462,218,97691,2,0,P|413:210|395:205,1,50,2|0,0:2|0:0,0:0:0:0:
337,194,97849,1,2,0:2:0:0:
286,60,98007,6,0,P|334:48|383:59,1,100,2|0,0:2|0:0,0:0:0:0:
227,229,98323,2,0,P|179:241|128:225,1,100,2|0,0:2|0:0,0:0:0:0:
67,74,98639,5,4,0:0:0:0:
183,145,98796,1,2,0:2:0:0:
55,250,98955,2,0,L|43:352,1,100,2|2,0:2|0:2,0:0:0:0:
89,53,99270,5,2,0:2:0:0:
205,124,99427,1,2,0:2:0:0:
77,229,99586,2,0,L|65:331,1,100,2|2,0:2|0:2,0:0:0:0:
112,35,99902,5,2,0:2:0:0:
136,33,99981,1,2,0:2:0:0:
161,30,100060,1,2,0:2:0:0:
186,27,100139,1,2,0:2:0:0:
211,24,100218,1,2,0:2:0:0:
260,25,100296,1,0,0:0:0:0:
302,52,100375,1,2,0:2:0:0:
324,95,100454,1,0,0:0:0:0:
322,145,100533,6,0,L|269:151,3,50,0|0|2|0,0:0|0:0|0:2|0:0,0:0:0:0:
188,169,100849,2,0,L|138:174,3,50,2|0|2|0,0:2|0:0|0:2|0:0,0:0:0:0:
54,197,101165,5,4,0:0:0:0:
8,106,101323,1,0,0:0:0:0:
8,106,101402,1,0,0:0:0:0:
8,106,101481,1,2,0:2:0:0:
22,277,101639,1,2,0:2:0:0:
22,277,101797,6,0,B|122:288,1,100,2|0,0:2|0:0,0:0:0:0:
203,337,102113,2,0,B|303:348,1,100,2|0,0:2|0:0,0:0:0:0:
414,360,102428,5,2,0:2:0:0:
497,267,102586,1,0,0:0:0:0:
497,267,102665,1,0,0:0:0:0:
497,267,102744,1,2,0:2:0:0:
370,153,102902,1,2,0:2:0:0:
370,153,103060,6,0,P|414:135|468:135,1,100,2|0,0:2|0:0,0:0:0:0:
364,254,103376,2,0,P|320:272|266:272,1,100,2|0,0:2|0:0,0:0:0:0:
119,184,103691,6,0,L|100:85,1,100,4|0,0:0|0:0,0:0:0:0:
190,30,104007,1,2,0:2:0:0:
282,105,104165,1,2,0:2:0:0:
112,213,104323,6,0,L|93:114,1,100,2|0,0:2|0:0,0:0:0:0:
183,59,104639,1,2,0:2:0:0:
275,134,104797,1,2,0:2:0:0:
179,266,104955,6,0,P|174:314|193:364,1,100,2|0,0:2|0:0,0:0:0:0:
354,173,105270,2,0,P|359:125|340:75,1,100,2|0,0:2|0:0,0:0:0:0:
282,304,105586,6,0,L|366:331,1,80,2|0,0:2|0:0,0:0:0:0:
494,277,105902,2,0,L|410:250,1,80,2|0,0:2|0:0,0:0:0:0:
264,204,106218,5,4,0:0:0:0:
256,192,106376,12,0,110007,0:0:0:0:
