osu file format v14

[General]
AudioFilename: audio.mp3
AudioLeadIn: 0
PreviewTime: 58202
Countdown: 0
SampleSet: Normal
StackLeniency: 0.7
Mode: 0
LetterboxInBreaks: 0
WidescreenStoryboard: 0

[Editor]
DistanceSpacing: 1.3
BeatDivisor: 4
GridSize: 4
TimelineZoom: 1.7

[Metadata]
Title:Finale
TitleUnicode:Finale
Artist:toby fox
ArtistUnicode:toby fox
Creator:Fatfan Kolek
Version:Easy
Source:UNDERTALE
Tags:flowey boss fight chiptune soundtrack radiation
BeatmapID:1415717
BeatmapSetID:667713

[Difficulty]
HPDrainRate:2.5
CircleSize:2
OverallDifficulty:2
ApproachRate:2.5
SliderMultiplier:0.8
SliderTickRate:1

[Events]
//Background and Video events
0,0,"wallhaven-280608.jpg",0,0
//Break Periods
//Storyboard Layer 0 (Background)
//Storyboard Layer 1 (Fail)
//Storyboard Layer 2 (Pass)
//Storyboard Layer 3 (Foreground)
//Storyboard Sound Samples

[TimingPoints]
113,315.789473684211,4,2,0,50,1,0
113,-133.333333333333,4,2,0,50,0,0
10218,-133.333333333333,4,2,0,50,0,0
20323,-100,4,2,0,50,0,0
25376,-100,4,2,0,50,0,0
35481,-100,4,2,0,50,0,0
40534,-133.333333333333,4,2,0,50,0,0
60744,-100,4,1,0,50,0,1
103691,-100,4,1,0,40,0,1
104955,-100,4,1,0,30,0,1
106376,-100,4,1,0,50,0,0
107481,-100,4,1,0,35,0,0
108744,-100,4,1,0,20,0,0
110007,-100,4,1,0,5,0,0

[Colours]
Combo1 : 253,0,0
Combo2 : 0,128,0
Combo3 : 255,102,102
Combo4 : 0,64,0

[HitObjects]
265,33,113,6,0,L|392:55,1,120.000004577637,4|2,0:2|0:2,0:0:0:0:
497,159,1376,2,0,L|370:181,1,120.000004577637,0|2,0:0|0:0,0:0:0:0:
230,131,2639,6,0,P|256:190|264:252,1,120.000004577637,4|2,0:2|0:2,0:0:0:0:
143,343,3902,2,0,P|117:284|109:222,1,120.000004577637,0|0,0:0|0:0,0:0:0:0:
29,95,5165,6,0,B|69:71|69:71|144:71,1,120.000004577637,4|2,0:2|0:2,0:0:0:0:
298,73,6428,2,0,B|371:73|371:73|411:97,1,120.000004577637,0|2,0:0|0:0,0:0:0:0:
468,242,7691,2,0,P|424:287|363:307,1,120.000004577637,4|2,0:0|0:0,0:0:0:0:
215,304,8954,2,0,L|194:241,1,60.0000022888184,0|0,0:0|0:0,0:0:0:0:
172,172,9586,1,0,1:0:0:0:
44,82,10218,6,0,P|94:51|165:51,1,120.000004577637,4|2,0:0|0:0,0:0:0:0:
225,186,11481,2,0,P|284:183|334:152,1,120.000004577637,0|2,0:0|0:0,0:0:0:0:
440,36,12744,2,0,L|454:161,1,120.000004577637,4|2,0:0|0:0,0:0:0:0:
348,270,14007,2,0,L|334:145,1,120.000004577637,0|0,0:0|0:0,0:0:0:0:
245,22,15270,6,0,P|201:67|146:81,1,120.000004577637,4|2,0:0|0:0,0:0:0:0:
16,166,16534,2,0,P|60:211|115:225,1,120.000004577637,0|2,0:0|0:0,0:0:0:0:
247,306,17797,2,0,B|266:247|266:247|254:187,1,120.000004577637,4|2,0:0|0:0,0:0:0:0:
230,115,18744,1,0,0:0:0:0:
263,44,19060,2,0,L|330:38,2,60.0000022888184,0|0|0,0:0|0:0|1:0,0:0:0:0:
169,230,20323,6,0,P|230:242|277:294,1,120,4|0,0:0|0:0,0:0:0:0:
297,325,20955,2,0,L|367:279,1,80,0|0,1:0|0:0,0:0:0:0:
446,218,21586,2,0,P|455:146|393:71,1,160,0|0,0:0|1:0,0:0:0:0:
204,27,22849,6,0,B|192:85|192:85|215:153,1,120,4|0,0:0|0:0,0:0:0:0:
229,191,23481,2,0,L|150:217,1,80,0|2,1:0|0:2,0:0:0:0:
77,287,24113,2,0,P|152:320|221:295,2,160,2|2|4,0:2|1:2|0:0,0:0:0:0:
74,79,26007,5,0,1:0:0:0:
278,40,26639,2,0,P|332:64|359:118,1,120,0|0,0:0|0:0,0:0:0:0:
351,167,27270,2,0,L|265:167,1,80,0|0,1:0|0:0,0:0:0:0:
180,218,27902,6,0,P|230:263|292:267,1,120,4|0,0:0|0:0,0:0:0:0:
332,268,28534,2,0,P|385:286|415:305,1,80,0|2,1:0|0:0,0:0:0:0:
494,352,29165,2,0,L|502:189,1,160,2|2,0:0|1:2,0:0:0:0:
293,190,30428,6,0,P|232:202|185:254,1,120,4|0,0:0|0:0,0:0:0:0:
167,287,31060,2,0,L|97:241,1,80,0|0,1:0|0:0,0:0:0:0:
19,177,31691,2,0,P|10:105|72:30,1,160,0|0,0:0|1:0,0:0:0:0:
266,29,32954,6,0,B|278:87|278:87|255:155,1,120,4|0,0:0|0:0,0:0:0:0:
283,191,33586,2,0,L|362:217,1,80,0|2,1:0|0:2,0:0:0:0:
435,287,34218,2,0,P|360:320|291:295,2,160,2|2|4,0:2|1:2|0:0,0:0:0:0:
438,79,36112,5,0,1:0:0:0:
234,40,36744,2,0,P|180:64|153:118,1,120,0|0,0:0|0:0,0:0:0:0:
161,167,37375,2,0,L|247:167,1,80,0|0,0:0|0:0,0:0:0:0:
332,218,38007,6,0,P|282:263|220:267,1,120,4|0,0:0|0:0,0:0:0:0:
180,268,38639,2,0,P|127:286|97:305,1,80,0|2,1:0|0:0,0:0:0:0:
18,352,39270,2,0,L|10:189,1,160,2|2,0:0|1:2,0:0:0:0:
1,36,40534,6,0,L|132:50,1,120.000004577637,4|2,0:0|1:2,0:0:0:0:
274,26,41797,2,0,L|405:40,1,120.000004577637,2|2,3:0|1:2,0:0:0:0:
500,151,43060,2,0,L|369:165,1,120.000004577637,6|2,0:0|1:2,0:0:0:0:
227,141,44323,2,0,L|96:155,1,120.000004577637,2|2,3:0|1:2,0:0:0:0:
3,269,45586,6,0,P|34:316|94:339,1,120.000004577637,6|2,0:0|1:2,0:0:0:0:
247,331,46849,2,0,L|285:214,1,120.000004577637,2|2,3:0|1:2,0:0:0:0:
418,136,48113,2,0,P|387:89|327:66,1,120.000004577637,6|2,0:0|1:2,0:0:0:0:
174,74,49376,2,0,L|136:191,1,120.000004577637,2|2,3:0|1:2,0:0:0:0:
88,336,50639,6,0,P|146:315|212:329,1,120.000004577637,6|2,0:0|1:2,0:0:0:0:
351,369,51902,2,0,B|381:318|381:318|396:251,1,120.000004577637,2|2,3:0|1:2,0:0:0:0:
402,102,53165,2,0,P|343:105|292:135,1,120.000004577637,6|2,0:0|1:2,0:0:0:0:
155,211,54428,2,0,P|214:214|265:244,1,120.000004577637,2|2,3:0|1:2,0:0:0:0:
402,318,55691,6,0,L|280:349,1,120.000004577637,6|2,0:0|1:2,0:0:0:0:
132,317,56955,2,0,L|15:346,1,120.000004577637,2|2,3:0|1:2,0:0:0:0:
256,192,58218,12,2,59481,0:0:0:0:
31,92,60744,6,0,P|89:68|155:80,1,120,4|2,0:0|0:2,0:0:0:0:
190,100,61376,2,0,L|279:100,1,80,2|2,0:2|0:2,0:0:0:0:
364,143,62007,2,0,P|439:129|486:65,2,160,2|2|4,0:2|0:2|0:0,0:0:0:0:
157,169,63902,5,2,0:2:0:0:
334,277,64534,2,0,B|291:321|291:321|224:334,1,120,2|0,0:2|0:0,0:0:0:0:
181,335,65165,2,0,L|95:335,1,80,2|2,0:2|0:2,0:0:0:0:
33,255,65797,5,4,0:0:0:0:
80,52,66428,2,0,P|118:51|158:65,1,80,2|2,0:2|0:2,0:0:0:0:
232,136,67060,2,0,L|360:121,1,120,2|2,0:2|0:2,0:0:0:0:
402,115,67691,2,0,P|424:156|433:188,1,80,2|2,0:2|0:2,0:0:0:0:
389,283,68323,6,0,P|308:288|241:232,2,160,4|2|2,0:0|0:2|0:2,0:0:0:0:
481,92,70218,1,2,0:2:0:0:
481,92,70849,6,0,P|423:68|357:80,1,120,4|2,0:0|0:2,0:0:0:0:
322,100,71481,2,0,L|233:100,1,80,2|2,0:2|0:2,0:0:0:0:
148,143,72112,2,0,P|73:129|26:65,2,160,2|2|4,0:2|0:2|0:0,0:0:0:0:
355,169,74007,5,2,0:2:0:0:
178,277,74639,2,0,B|221:321|221:321|288:334,1,120,2|0,0:2|0:0,0:0:0:0:
331,335,75270,2,0,L|417:335,1,80,2|2,0:2|0:2,0:0:0:0:
479,255,75902,5,4,0:0:0:0:
432,52,76533,2,0,P|394:51|354:65,1,80,0|2,0:0|0:2,0:0:0:0:
280,136,77165,2,0,L|152:121,1,120,2|2,0:2|0:2,0:0:0:0:
110,115,77797,2,0,P|88:156|79:188,1,80,2|2,0:2|0:2,0:0:0:0:
123,283,78428,6,0,P|204:288|271:232,2,160,4|2|2,0:0|0:2|0:2,0:0:0:0:
51,87,80323,1,2,0:2:0:0:
51,87,80955,6,0,B|114:49|114:49|215:63,1,160,2|2,0:2|0:2,0:0:0:0:
397,125,82218,2,0,B|334:163|334:163|233:149,1,160,2|2,0:2|0:2,0:0:0:0:
71,260,83481,6,0,P|153:243|201:257,1,120,4|2,0:0|0:2,0:0:0:0:
224,287,84113,2,0,L|306:299,1,80,2|2,0:2|0:2,0:0:0:0:
403,270,84744,2,0,P|452:236|465:137,2,160,2|2|4,0:2|0:2|0:0,0:0:0:0:
244,135,86639,5,2,0:2:0:0:
120,302,87270,2,0,B|173:291|173:291|210:325|210:325|266:314,1,160,2|2,0:2|0:2,0:0:0:0:
421,176,88534,6,0,L|435:50,1,120,4|2,0:0|0:2,0:0:0:0:
386,37,89165,2,0,P|344:23|305:23,1,80,2|2,0:2|0:2,0:0:0:0:
216,72,89797,1,2,0:2:0:0:
369,209,90428,1,2,0:2:0:0:
178,292,91060,6,0,B|115:330|115:330|14:316,1,160,2|2,0:2|0:2,0:0:0:0:
63,111,92323,2,0,B|126:73|126:73|227:87,1,160,2|2,0:2|0:2,0:0:0:0:
415,43,93586,6,0,P|370:91|356:146,1,120,4|2,0:0|0:2,0:0:0:0:
348,193,94218,2,0,L|266:181,1,80,2|2,0:2|0:2,0:0:0:0:
175,136,94849,2,0,P|110:175|69:252,2,160,2|2|4,0:2|0:2|0:0,0:0:0:0:
226,337,96744,5,2,0:2:0:0:
432,318,97375,2,0,B|432:236|432:236|396:161,1,160,0|2,0:0|0:2,0:0:0:0:
195,117,98639,6,0,L|181:243,1,120,4|2,0:0|0:2,0:0:0:0:
174,287,99270,2,0,P|216:301|255:301,1,80,2|2,0:2|0:2,0:0:0:0:
354,286,99902,1,2,0:2:0:0:
500,138,100534,1,2,0:2:0:0:
310,53,101165,6,0,P|270:94|267:161,1,120,4|2,0:0|0:2,0:0:0:0:
296,194,101797,2,0,L|212:208,1,80,2|2,0:2|0:2,0:0:0:0:
137,140,102428,2,0,B|115:196|115:196|120:240|120:240|98:298,1,160,2|2,0:2|0:2,0:0:0:0:
304,337,103691,1,4,0:0:0:0:
453,192,104323,5,2,0:2:0:0:
293,57,104955,2,0,B|213:51|213:51|154:105,2,160,2|2|4,0:2|0:2|0:0,0:0:0:0:
256,192,106376,12,0,110007,0:0:0:0:
