osu file format v14

[General]
AudioFilename: audio.mp3
AudioLeadIn: 0
PreviewTime: 58202
Countdown: 0
SampleSet: Soft
StackLeniency: 0.7
Mode: 0
LetterboxInBreaks: 0
WidescreenStoryboard: 0

[Editor]
DistanceSpacing: 1.5
BeatDivisor: 4
GridSize: 4
TimelineZoom: 1.7

[Metadata]
Title:Finale
TitleUnicode:Finale
Artist:toby fox
ArtistUnicode:toby fox
Creator:Fatfan Kolek
Version:Determination
Source:UNDERTALE
Tags:flowey boss fight chiptune soundtrack radiation
BeatmapID:1566387
BeatmapSetID:667713

[Difficulty]
HPDrainRate:6.5
CircleSize:4
OverallDifficulty:8.8
ApproachRate:9.5
SliderMultiplier:1.8
SliderTickRate:1

[Events]
//Background and Video events
0,0,"wallhaven-280608.jpg",0,0
//Break Periods
//Storyboard Layer 0 (Background)
//Storyboard Layer 1 (Fail)
//Storyboard Layer 2 (Pass)
//Storyboard Layer 3 (Foreground)
//Storyboard Sound Samples

[TimingPoints]
113,315.789473684211,4,2,0,50,1,0
2955,-200,4,2,0,50,0,0
3744,-200,4,2,0,5,0,0
3902,-222.222222222222,4,2,0,50,0,0
4060,-222.222222222222,4,2,0,5,0,0
4218,-250,4,2,0,50,0,0
4376,-250,4,2,0,5,0,0
4534,-285.714285714286,4,2,0,50,0,0
4691,-285.714285714286,4,2,0,5,0,0
4849,-366.333333333333,4,2,0,50,0,0
5007,-366.333333333333,4,2,0,5,0,0
5165,-200,4,2,0,50,0,0
8639,-300,4,2,0,50,0,0
8797,-300,4,2,0,5,0,0
8955,-300,4,2,0,50,0,0
9113,-300,4,2,0,5,0,0
9270,-300,4,2,0,50,0,0
9428,-300,4,2,0,5,0,0
9586,-366.333333333333,4,2,0,50,0,0
10060,-366.333333333333,4,2,0,5,0,0
10218,-366.333333333333,4,2,0,50,0,0
10534,-200,4,2,0,50,0,0
13849,-200,4,2,0,5,0,0
14007,-222.222222222222,4,2,0,50,0,0
14165,-222.222222222222,4,2,0,5,0,0
14323,-250,4,2,0,50,0,0
14481,-250,4,2,0,5,0,0
14639,-285.714285714286,4,2,0,50,0,0
14797,-285.714285714286,4,2,0,5,0,0
14955,-366.333333333333,4,2,0,50,0,0
15113,-366.333333333333,4,2,0,5,0,0
15270,-366.333333333333,4,2,0,50,0,0
18744,-300,4,2,0,50,0,0
18902,-300,4,2,0,5,0,0
19060,-300,4,2,0,50,0,0
19218,-300,4,2,0,5,0,0
19376,-300,4,2,0,50,0,0
19534,-300,4,2,0,5,0,0
19691,-366.333333333333,4,2,0,50,0,0
20165,-366.333333333333,4,2,0,5,0,0
20323,-133.333333333333,4,2,0,50,0,0
23797,-80,4,2,0,50,0,0
24113,-100,4,2,0,50,0,0
24428,-133.333333333333,4,2,0,50,0,0
24744,-200,4,2,0,50,0,0
25060,-366.333333333333,4,1,0,50,0,0
25376,-100,4,2,0,50,0,0
28849,-80,4,2,0,50,0,0
29165,-100,4,2,0,50,0,0
29481,-133.333333333333,4,2,0,50,0,0
29797,-100,4,2,0,50,0,0
31376,-133.333333333333,4,2,0,50,0,0
33902,-80,4,2,0,50,0,0
34218,-100,4,2,0,50,0,0
34534,-133.333333333333,4,2,0,50,0,0
34849,-200,4,2,0,50,0,0
35165,-366.333333333333,4,1,0,50,0,0
35481,-100,4,2,0,50,0,0
38955,-80,4,2,0,50,0,0
39270,-100,4,2,0,50,0,0
39586,-133.333333333333,4,2,0,50,0,0
39902,-100,4,2,0,50,0,0
41323,-200,4,2,0,50,0,0
51428,-200,4,2,0,50,0,0
60113,-200,4,2,0,50,0,0
60744,-80,4,1,0,50,0,1
63586,-133.333333333333,4,1,0,50,0,1
64534,-80,4,1,0,50,0,1
65165,-100,4,1,0,50,0,1
65797,-133.333333333333,4,1,0,50,0,1
66428,-80,4,1,0,50,0,1
67376,-133.333333333333,4,1,0,50,0,1
68007,-80,4,1,0,50,0,1
73691,-133.333333333333,4,1,0,50,0,1
74639,-80,4,1,0,50,0,1
75270,-100,4,1,0,50,0,1
75902,-133.333333333333,4,1,0,50,0,1
76534,-80,4,1,0,50,0,1
77481,-133.333333333333,4,1,0,50,0,1
78113,-80,4,1,0,50,0,1
81270,-133.333333333333,4,1,0,50,0,1
81902,-80,4,1,0,50,0,1
82534,-133.333333333333,4,1,0,50,0,1
83481,-80,4,1,0,50,0,1
83797,-133.333333333333,4,1,0,50,0,1
86007,-80,4,1,0,50,0,1
86323,-133.333333333333,4,1,0,50,0,1
87270,-80,4,1,0,50,0,1
87586,-133.333333333333,4,1,0,50,0,1
88218,-80,4,1,0,50,0,1
90428,-133.333333333333,4,1,0,50,0,1
93586,-80,4,1,0,50,0,1
93902,-133.333333333333,4,1,0,50,0,1
96113,-80,4,1,0,50,0,1
96428,-133.333333333333,4,1,0,50,0,1
97376,-80,4,1,0,50,0,1
97691,-133.333333333333,4,1,0,50,0,1
100534,-133.333333333333,4,1,0,50,0,1
101797,-80,4,1,0,50,0,1
103691,-80,4,1,0,40,0,1
104007,-133.333333333333,4,1,0,40,0,1
104955,-80,4,1,0,30,0,1
105586,-100,4,1,0,30,0,1
106376,-100,4,1,0,50,0,0
107481,-100,4,1,0,35,0,0
108744,-100,4,1,0,20,0,0
110007,-80,4,1,0,5,0,0

[Colours]
Combo1 : 253,0,0
Combo2 : 0,128,0
Combo3 : 255,102,102
Combo4 : 0,64,0

[HitObjects]
51,286,114,5,4,0:2:0:0:
21,212,429,1,0,0:0:0:0:
44,136,587,1,0,0:0:0:0:
109,91,745,1,2,0:2:0:0:
44,136,1061,1,0,0:0:0:0:
188,97,1377,5,0,0:0:0:0:
246,152,1692,1,0,0:2:0:0:
262,230,1850,1,0,0:0:0:0:
320,285,2008,1,2,0:0:0:0:
262,230,2324,1,0,0:0:0:0:
399,291,2640,5,4,0:2:0:0:
463,245,2956,1,0,0:0:0:0:
486,168,3114,1,0,0:0:0:0:
455,95,3271,1,2,0:2:0:0:
341,31,3587,6,0,P|317:40|295:61,1,45,0|0,0:0|0:0,0:0:0:0:
220,54,3903,2,0,P|221:71|230:91,1,40.4999987640381,0|0,0:0|0:0,0:0:0:0:
214,169,4219,2,0,P|229:172|248:170,1,36,0|0,0:0|0:0,0:0:0:0:
321,206,4535,2,0,P|328:194|331:177,1,31.4999990386963,0|0,0:0|0:0,0:0:0:0:
385,118,4850,2,0,P|376:110|363:105,1,24.5677882167885,0|0,0:0|0:0,0:0:0:0:
220,54,5166,5,4,0:2:0:0:
142,34,5481,1,0,0:0:0:0:
70,65,5639,1,0,0:0:0:0:
33,135,5797,1,2,0:2:0:0:
70,65,6113,1,0,0:0:0:0:
49,213,6429,5,0,0:0:0:0:
110,263,6744,1,0,0:2:0:0:
191,273,6902,1,0,0:0:0:0:
256,324,7060,1,2,0:0:0:0:
191,273,7377,1,0,0:0:0:0:
321,273,7692,5,4,0:0:0:0:
402,263,8008,1,0,0:0:0:0:
463,213,8166,1,0,0:0:0:0:
479,135,8324,1,2,0:0:0:0:
442,65,8640,6,0,L|402:60,1,30,0|0,0:0|0:0,0:0:0:0:
341,5,8956,2,0,L|337:35,1,30,0|0,0:0|0:0,0:0:0:0:
263,96,9271,2,0,L|293:99,1,30,0|0,0:0|0:0,0:0:0:0:
358,207,9587,2,0,L|367:131,1,73.7033646503656,0|0,1:0|0:0,0:0:0:0:
442,65,10219,5,4,0:0:0:0:
483,133,10534,1,0,0:0:0:0:
472,212,10692,1,0,0:0:0:0:
415,266,10850,1,2,0:0:0:0:
472,212,11166,1,0,0:0:0:0:
336,273,11482,5,0,0:0:0:0:
270,227,11797,1,0,0:0:0:0:
242,153,11955,1,0,0:0:0:0:
176,108,12113,1,2,0:0:0:0:
242,153,12429,1,0,0:0:0:0:
97,114,12745,5,4,0:0:0:0:
41,169,13061,1,0,0:0:0:0:
30,249,13219,1,0,0:0:0:0:
72,316,13376,1,2,0:0:0:0:
195,362,13692,6,0,P|216:348|235:324,1,45,0|0,0:0|0:0,0:0:0:0:
311,320,14008,2,0,P|306:302|294:284,1,40.4999987640381,0|0,0:0|0:0,0:0:0:0:
299,206,14324,2,0,P|283:204|264:209,1,36,0|0,0:0|0:0,0:0:0:0:
187,186,14640,2,0,P|181:198|181:215,1,31.4999990386963,0|0,0:0|0:0,0:0:0:0:
133,277,14956,2,0,P|141:284|154:289,1,24.5677882167885,0|0,0:0|0:0,0:0:0:0:
311,320,15271,5,4,0:0:0:0:
389,340,15586,1,0,0:0:0:0:
461,309,15744,1,0,0:0:0:0:
498,239,15902,1,2,0:0:0:0:
461,309,16218,1,0,0:0:0:0:
482,161,16534,5,0,0:0:0:0:
421,111,16849,1,0,0:0:0:0:
340,101,17007,1,0,0:0:0:0:
275,50,17165,1,2,0:0:0:0:
340,101,17482,1,0,0:0:0:0:
210,101,17797,5,4,0:0:0:0:
129,111,18113,1,0,0:0:0:0:
68,161,18271,1,0,0:0:0:0:
52,239,18429,1,2,0:0:0:0:
89,309,18745,6,0,L|129:314,1,30,0|0,0:0|0:0,0:0:0:0:
190,369,19061,2,0,L|193:338,1,30,0|0,0:0|0:0,0:0:0:0:
268,278,19377,2,0,L|237:274,1,30,0|0,0:0|0:0,0:0:0:0:
173,167,19692,2,0,L|163:242,1,73.7033646503656,0|0,1:0|0:0,0:0:0:0:
186,75,20324,5,4,0:0:0:0:
401,212,20640,1,0,0:0:0:0:
380,111,20798,1,0,0:0:0:0:
338,124,20877,1,0,0:0:0:0:
314,160,20956,5,0,1:0:0:0:
307,323,21114,1,0,0:0:0:0:
163,240,21271,2,0,L|230:219,1,67.5000025749208,0|0,0:0|0:0,0:0:0:0:
145,328,21587,6,0,L|78:349,1,67.5000025749208,0|0,0:0|0:0,0:0:0:0:
9,288,21903,1,0,0:0:0:0:
147,165,22061,1,0,0:0:0:0:
156,204,22139,1,0,0:0:0:0:
163,240,22218,5,0,1:0:0:0:
40,202,22377,1,0,0:0:0:0:
210,90,22535,1,0,0:0:0:0:
310,282,22692,1,0,0:0:0:0:
335,187,22850,6,0,P|398:186|450:139,1,135.000005149842,4|0,0:0|0:0,0:0:0:0:
439,47,23324,1,0,0:0:0:0:
210,90,23482,2,0,L|196:168,1,67.5000025749208,0|0,1:0|0:0,0:0:0:0:
396,336,23798,6,0,P|365:286|314:264,1,112.5,2|0,0:2|0:0,0:0:0:0:
306,180,24114,2,0,P|262:195|237:231,1,90,2|0,0:2|0:0,0:0:0:0:
160,218,24429,2,0,P|162:256|180:282,1,67.5000025749208,2|0,0:2|0:0,0:0:0:0:
166,355,24745,2,0,P|189:357|216:345,1,45,2|0,1:2|0:0,0:0:0:0:
283,365,25061,2,0,P|285:354|284:340,1,24.5677882167885,2|0,0:2|0:0,0:0:0:0:
160,218,25377,5,4,0:0:0:0:
203,95,25535,1,0,0:0:0:0:
253,93,25614,1,0,0:0:0:0:
294,61,25692,1,0,0:0:0:0:
388,130,25850,1,0,0:0:0:0:
392,307,26008,6,0,P|351:288|330:244,1,90,0|0,1:0|0:0,0:0:0:0:
243,265,26324,2,0,P|242:220|268:182,1,90,0|0,0:0|0:0,0:0:0:0:
408,211,26640,5,0,0:0:0:0:
465,349,26798,1,0,0:0:0:0:
477,306,26877,1,0,0:0:0:0:
488,263,26956,2,0,L|499:214,2,45,0|0|0,0:0|0:0|0:0,0:0:0:0:
469,133,27271,6,0,P|458:86|429:57,1,90,0|0,1:0|0:0,0:0:0:0:
344,40,27587,1,0,0:0:0:0:
408,211,27745,1,0,0:0:0:0:
206,121,27903,6,0,B|243:140|243:140|301:140,1,90,4|0,0:0|0:0,0:0:0:0:
408,211,28219,2,0,P|407:240|394:264,1,45,0|0,0:0|0:0,0:0:0:0:
326,306,28377,2,0,L|279:306,1,45,0|0,0:0|0:0,0:0:0:0:
186,305,28535,5,0,1:0:0:0:
317,220,28692,1,0,0:0:0:0:
122,133,28850,6,0,P|61:137|21:101,1,112.5,2|0,0:0|0:0,0:0:0:0:
206,121,29166,2,0,P|203:165|176:201,1,90,2|0,0:0|0:0,0:0:0:0:
214,39,29482,2,0,P|244:45|271:71,1,67.5000025749208,2|0,0:0|0:0,0:0:0:0:
454,21,29798,6,0,B|429:97|429:97|454:187|454:187|424:279,1,270,2|0,1:2|0:0,0:0:0:0:
326,309,30429,5,4,0:0:0:0:
111,172,30744,1,0,0:0:0:0:
132,273,30902,1,0,0:0:0:0:
174,260,30981,1,0,0:0:0:0:
198,224,31060,5,0,1:0:0:0:
205,61,31218,1,0,0:0:0:0:
349,144,31376,2,0,L|282:165,1,67.5000025749208
367,56,31691,6,0,L|434:35,1,67.5000025749208,0|0,0:0|0:0,0:0:0:0:
503,96,32007,1,0,0:0:0:0:
365,219,32165,1,0,0:0:0:0:
356,180,32243,1,0,0:0:0:0:
349,144,32322,5,0,1:0:0:0:
472,182,32482,1,0,0:0:0:0:
302,294,32640,1,0,0:0:0:0:
202,102,32797,1,0,0:0:0:0:
177,197,32955,6,0,P|114:198|62:245,1,135.000005149842,4|0,0:0|0:0,0:0:0:0:
73,337,33429,1,0,0:0:0:0:
302,294,33587,2,0,L|316:216,1,67.5000025749208,0|0,1:0|0:0,0:0:0:0:
116,48,33903,6,0,P|147:98|198:120,1,112.5,2|0,0:2|0:0,0:0:0:0:
206,204,34219,2,0,P|250:189|275:153,1,90,2|0,0:2|0:0,0:0:0:0:
352,166,34535,2,0,P|350:128|332:102,1,67.5000025749208,2|0,0:2|0:0,0:0:0:0:
346,29,34850,2,0,P|322:26|296:39,1,45,2|0,1:2|0:0,0:0:0:0:
229,19,35166,2,0,P|227:30|228:44,1,24.5677882167885,2|0,0:2|0:0,0:0:0:0:
352,166,35482,5,4,0:0:0:0:
309,289,35640,1,0,0:0:0:0:
259,291,35719,1,0,0:0:0:0:
218,323,35797,1,0,0:0:0:0:
124,254,35955,1,0,0:0:0:0:
120,77,36113,6,0,P|161:96|182:140,1,90,0|0,1:0|0:0,0:0:0:0:
269,119,36429,2,0,P|270:164|244:202,1,90,0|0,0:0|0:0,0:0:0:0:
104,173,36744,5,0,0:0:0:0:
47,35,36903,1,0,0:0:0:0:
35,78,36982,1,0,0:0:0:0:
24,121,37061,2,0,L|13:170,2,45,0|0|0,0:0|0:0|0:0,0:0:0:0:
43,251,37377,6,0,P|54:298|83:327,1,90,0|0,1:0|0:0,0:0:0:0:
168,344,37692,1,0,0:0:0:0:
104,173,37850,1,0,0:0:0:0:
306,263,38008,6,0,B|269:244|269:244|211:244,1,90,4|0,0:0|0:0,0:0:0:0:
104,173,38324,2,0,P|105:144|118:120,1,45,0|0,0:0|0:0,0:0:0:0:
186,78,38482,2,0,L|233:78,1,45,0|0,0:0|0:0,0:0:0:0:
326,79,38640,5,0,1:0:0:0:
195,164,38797,1,0,0:0:0:0:
390,251,38956,6,0,P|450:246|490:282,1,112.5,2|0,0:0|0:0,0:0:0:0:
306,263,39271,2,0,P|308:218|336:183,1,90,2|0,0:0|0:0,0:0:0:0:
298,345,39587,2,0,P|267:338|240:312,1,67.5000025749208,2|0,0:0|0:0,0:0:0:0:
58,363,39903,6,0,B|82:286|82:286|57:196|57:196|87:104,1,270,2|0,1:2|0:0,0:0:0:0:
205,40,40535,5,4,0:0:0:0:
281,15,40850,1,0,0:0:0:0:
363,26,41166,1,2,1:2:0:0:
428,73,41324,2,0,L|448:56,2,22.5,2|0|2,0:0|0:0|0:0,0:0:0:0:
467,146,41640,1,2,0:0:0:0:
467,228,41797,1,2,3:0:0:0:
433,301,42114,1,0,0:0:0:0:
367,350,42429,1,2,1:2:0:0:
284,360,42587,2,0,L|278:388,2,22.5,2|0|2,0:0|0:0|0:0,0:0:0:0:
220,305,42903,1,2,0:0:0:0:
215,223,43061,5,6,0:0:0:0:
271,141,43377,1,0,0:0:0:0:
234,48,43692,1,2,1:2:0:0:
137,27,43850,1,2,0:0:0:0:
137,27,43929,1,0,0:0:0:0:
137,27,44008,1,2,0:0:0:0:
66,96,44166,1,2,0:0:0:0:
120,185,44324,1,2,3:0:0:0:
63,266,44640,1,0,0:0:0:0:
100,359,44955,1,2,1:2:0:0:
197,380,45113,1,2,0:0:0:0:
197,380,45192,1,0,0:0:0:0:
197,380,45271,1,2,0:0:0:0:
268,311,45429,1,2,0:0:0:0:
237,216,45587,5,6,0:0:0:0:
363,267,45903,1,0,0:0:0:0:
467,177,46219,1,2,1:2:0:0:
435,45,46377,1,2,0:0:0:0:
435,45,46456,1,0,0:0:0:0:
435,45,46535,1,2,0:0:0:0:
303,11,46692,1,2,0:0:0:0:
341,142,46849,1,2,3:0:0:0:
215,91,47166,1,0,0:0:0:0:
111,181,47482,1,2,1:2:0:0:
143,313,47640,1,2,0:0:0:0:
143,313,47719,1,0,0:0:0:0:
143,313,47798,1,2,0:0:0:0:
275,347,47955,1,2,0:0:0:0:
362,245,48114,5,6,0:0:0:0:
287,57,48429,1,0,0:0:0:0:
84,63,48745,1,2,1:2:0:0:
30,258,48903,1,2,0:0:0:0:
30,258,48982,1,0,0:0:0:0:
30,258,49061,1,2,0:0:0:0:
201,366,49219,1,2,0:0:0:0:
362,245,49377,1,2,3:0:0:0:
439,327,49692,1,0,0:0:0:0:
474,195,50008,1,2,1:2:0:0:
359,123,50166,1,2,0:0:0:0:
359,123,50245,1,0,0:0:0:0:
359,123,50324,1,2,0:0:0:0:
259,214,50482,1,2,0:0:0:0:
307,344,50640,5,6,0:0:0:0:
231,369,50955,1,0,0:0:0:0:
149,358,51271,1,2,1:2:0:0:
84,311,51429,2,0,L|64:328,2,22.5,2|0|2,0:0|0:0|0:0,0:0:0:0:
45,238,51745,1,2,0:0:0:0:
45,156,51903,1,2,3:0:0:0:
79,83,52219,1,0,0:0:0:0:
145,34,52534,1,2,1:2:0:0:
228,24,52692,2,0,L|234:-4,2,22.5,2|0|2,0:0|0:0|0:0,0:0:0:0:
292,79,53008,1,2,0:0:0:0:
297,161,53166,5,6,0:0:0:0:
241,243,53482,1,0,0:0:0:0:
278,336,53797,1,2,1:2:0:0:
375,357,53955,1,2,0:0:0:0:
375,357,54034,1,0,0:0:0:0:
375,357,54113,1,2,0:0:0:0:
446,288,54271,1,2,0:0:0:0:
392,199,54429,1,2,3:0:0:0:
449,118,54745,1,0,0:0:0:0:
412,25,55060,1,2,1:2:0:0:
315,4,55218,1,2,0:0:0:0:
315,4,55297,1,0,0:0:0:0:
315,4,55376,1,2,0:0:0:0:
244,73,55534,1,2,0:0:0:0:
275,168,55692,5,6,0:0:0:0:
149,117,56008,1,0,0:0:0:0:
45,207,56324,1,2,1:2:0:0:
77,339,56482,1,2,0:0:0:0:
77,339,56561,1,0,0:0:0:0:
77,339,56640,1,2,0:0:0:0:
209,373,56797,1,2,0:0:0:0:
171,242,56955,1,2,3:0:0:0:
297,293,57271,1,0,0:0:0:0:
401,203,57587,1,2,1:2:0:0:
369,71,57745,1,2,0:0:0:0:
369,71,57824,1,0,0:0:0:0:
369,71,57903,1,2,0:0:0:0:
237,37,58060,1,2,0:0:0:0:
150,139,58219,5,6,0:0:0:0:
253,156,58535,1,2,0:0:0:0:
264,180,58692,1,2,0:0:0:0:
275,205,58850,1,2,0:0:0:0:
381,219,59166,1,2,0:0:0:0:
346,352,59482,2,0,P|286:312|214:312,1,135,2|0,0:0|0:0,0:0:0:0:
134,342,60114,2,0,L|88:360,1,45,2|2,0:0|0:0,0:0:0:0:
2,291,60429,2,0,L|43:274,1,45,2|2,0:0|0:0,0:0:0:0:
70,188,60745,5,4,0:0:0:0:
108,191,60823,1,0,0:0:0:0:
146,182,60902,1,0,0:0:0:0:
179,159,60981,1,0,0:0:0:0:
201,128,61060,1,2,0:2:0:0:
168,37,61219,1,2,0:2:0:0:
380,118,61377,2,0,P|329:131|289:184,1,112.5,2|0,0:2|0:0,0:0:0:0:
290,264,61692,5,2,0:2:0:0:
461,331,61850,1,0,0:0:0:0:
461,331,61929,1,0,0:0:0:0:
461,331,62008,2,0,L|461:217,1,112.5,2|0,0:2|0:0,0:0:0:0:
461,128,62324,5,2,0:2:0:0:
253,58,62482,1,2,0:2:0:0:
370,27,62640,1,2,0:2:0:0:
368,66,62718,1,0,0:0:0:0:
355,103,62797,1,0,0:0:0:0:
334,136,62876,1,0,0:0:0:0:
304,162,62955,1,2,0:2:0:0:
194,154,63114,1,0,0:0:0:0:
200,189,63192,1,0,0:0:0:0:
207,225,63271,6,0,B|220:280|220:280|264:326,1,112.5,4|0,0:0|0:0,0:0:0:0:
402,341,63587,2,0,L|435:334,1,33.7500012874604,2|0,0:2|0:0,0:0:0:0:
463,244,63745,2,0,L|440:218,1,33.7500012874604,2|0,0:2|0:0,0:0:0:0:
347,239,63903,2,0,L|336:271,2,33.7500012874604,2|0|0,0:2|0:0|0:0,0:0:0:0:
410,86,64219,5,2,0:2:0:0:
410,86,64377,1,2,0:2:0:0:
282,21,64535,2,0,L|169:41,1,112.5,2|0,0:2|0:0,0:0:0:0:
447,165,64850,5,2,0:2:0:0:
319,100,65008,1,0,0:0:0:0:
319,100,65087,1,0,0:0:0:0:
319,100,65166,2,0,L|231:116,1,90,2|0,0:2|0:0,0:0:0:0:
75,85,65482,1,2,0:2:0:0:
101,105,65560,1,0,0:0:0:0:
122,132,65639,1,0,0:0:0:0:
135,163,65718,1,0,0:0:0:0:
139,196,65798,6,0,L|178:189,1,33.7500012874604,4|0,0:0|0:0,0:0:0:0:
89,277,65956,2,0,L|128:270,1,33.7500012874604,2|0,0:2|0:0,0:0:0:0:
35,359,66114,2,0,L|74:352,1,33.7500012874604,2|0,0:2|0:0,0:0:0:0:
209,323,66271,1,2,0:2:0:0:
266,180,66429,6,0,P|299:222|356:234,1,112.5,2|0,0:2|0:0,0:0:0:0:
427,194,66745,1,2,0:2:0:0:
476,328,66903,1,0,0:0:0:0:
476,328,66982,1,0,0:0:0:0:
476,328,67061,6,0,B|417:320|417:320|369:341,1,112.5,2|0,0:2|0:0,0:0:0:0:
264,310,67377,2,0,L|232:329,1,33.7500012874604,2|0,0:2|0:0,0:0:0:0:
134,289,67535,2,0,L|104:306,1,33.7500012874604,2|0,0:2|0:0,0:0:0:0:
38,345,67692,5,2,0:2:0:0:
118,184,67850,1,0,0:0:0:0:
262,110,68008,2,0,L|236:224,1,112.5,2|0,0:2|0:0,0:0:0:0:
262,206,68245,1,0,0:0:0:0:
289,193,68324,6,0,P|327:190|394:227,1,112.5,4|0,0:0|0:0,0:0:0:0:
419,307,68640,1,2,0:2:0:0:
465,140,68798,1,2,0:2:0:0:
465,140,68877,1,0,0:0:0:0:
465,140,68956,6,0,L|475:76,2,56.25,2|0|0,0:2|0:0|0:0,0:0:0:0:
401,30,69271,1,2,0:2:0:0:
121,89,69429,1,0,0:0:0:0:
243,48,69587,5,2,0:2:0:0:
245,87,69665,1,0,0:0:0:0:
239,125,69744,1,0,0:0:0:0:
222,161,69823,1,0,0:0:0:0:
198,192,69903,2,0,P|256:194|300:230,1,112.5,0|0,0:0|0:0,0:0:0:0:
302,319,70219,5,2,0:2:0:0:
132,266,70377,1,0,0:0:0:0:
132,266,70456,1,0,0:0:0:0:
132,266,70535,2,0,L|106:151,1,112.5,0|0,0:0|0:0,0:0:0:0:
442,196,70850,5,4,0:0:0:0:
404,193,70928,1,0,0:0:0:0:
366,202,71007,1,0,0:0:0:0:
333,225,71086,1,0,0:0:0:0:
311,256,71165,1,2,0:2:0:0:
344,347,71324,1,2,0:2:0:0:
132,266,71482,2,0,P|183:253|223:200,1,112.5,2|0,0:2|0:0,0:0:0:0:
222,120,71797,5,2,0:2:0:0:
51,53,71955,1,0,0:0:0:0:
51,53,72034,1,0,0:0:0:0:
51,53,72113,2,0,L|51:167,1,112.5,2|0,0:2|0:0,0:0:0:0:
51,256,72429,5,2,0:2:0:0:
259,326,72587,1,2,0:2:0:0:
142,357,72745,1,2,0:2:0:0:
144,318,72823,1,0,0:0:0:0:
157,281,72902,1,0,0:0:0:0:
178,248,72981,1,0,0:0:0:0:
208,222,73060,1,2,0:2:0:0:
318,230,73219,1,0,0:0:0:0:
312,195,73297,1,0,0:0:0:0:
305,159,73377,6,0,B|292:104|292:104|248:58,1,112.5,4|0,0:0|0:0,0:0:0:0:
110,43,73692,2,0,L|77:50,1,33.7500012874604,2|0,0:2|0:0,0:0:0:0:
49,140,73850,2,0,L|72:166,1,33.7500012874604,2|0,0:2|0:0,0:0:0:0:
165,145,74008,2,0,L|176:113,2,33.7500012874604,2|0|0,0:2|0:0|0:0,0:0:0:0:
102,298,74324,5,2,0:2:0:0:
102,298,74482,1,2,0:2:0:0:
230,363,74640,2,0,L|343:343,1,112.5,2|0,0:2|0:0,0:0:0:0:
65,219,74955,5,2,0:2:0:0:
193,284,75113,1,0,0:0:0:0:
193,284,75192,1,0,0:0:0:0:
193,284,75271,2,0,L|281:268,1,90,2|0,0:2|0:0,0:0:0:0:
437,299,75587,1,2,0:2:0:0:
411,279,75665,1,0,0:0:0:0:
390,252,75744,1,0,0:0:0:0:
377,221,75823,1,0,0:0:0:0:
373,188,75903,6,0,L|334:195,1,33.7500012874604,4|0,0:0|0:0,0:0:0:0:
423,107,76061,2,0,L|384:114,1,33.7500012874604,2|0,0:2|0:0,0:0:0:0:
477,25,76219,2,0,L|438:32,1,33.7500012874604,2|0,0:2|0:0,0:0:0:0:
303,61,76376,1,2,0:2:0:0:
246,204,76535,6,0,P|213:162|156:150,1,112.5,2|0,0:2|0:0,0:0:0:0:
85,190,76850,1,2,0:2:0:0:
36,56,77008,1,0,0:0:0:0:
36,56,77087,1,0,0:0:0:0:
36,56,77166,6,0,B|95:64|95:64|143:43,1,112.5,2|0,0:2|0:0,0:0:0:0:
248,74,77482,2,0,L|280:55,1,33.7500012874604,2|0,0:2|0:0,0:0:0:0:
378,95,77640,2,0,L|408:78,1,33.7500012874604,2|0,0:2|0:0,0:0:0:0:
474,39,77797,5,2,0:2:0:0:
394,200,77955,1,0,0:0:0:0:
250,274,78114,2,0,L|276:160,1,112.5,2|0,0:2|0:0,0:0:0:0:
250,178,78350,1,0,0:0:0:0:
223,191,78429,6,0,P|185:194|118:157,1,112.5,4|0,0:0|0:0,0:0:0:0:
93,77,78745,1,2,0:2:0:0:
47,244,78903,1,2,0:2:0:0:
47,244,78982,1,0,0:0:0:0:
47,244,79061,6,0,L|37:308,2,56.25,2|0|0,0:2|0:0|0:0,0:0:0:0:
111,354,79376,1,2,0:2:0:0:
391,295,79534,1,0,0:0:0:0:
269,336,79692,5,2,0:2:0:0:
267,297,79770,1,0,0:0:0:0:
273,259,79849,1,0,0:0:0:0:
290,223,79928,1,0,0:0:0:0:
314,192,80008,2,0,P|256:190|212:154,1,112.5,0|0,0:0|0:0,0:0:0:0:
210,65,80324,5,2,0:2:0:0:
380,118,80482,1,0,0:0:0:0:
380,118,80561,1,0,0:0:0:0:
380,118,80640,2,0,L|406:233,1,112.5,0|0,0:0|0:0,0:0:0:0:
412,359,80956,5,2,0:2:0:0:
374,317,81034,1,2,0:2:0:0:
325,289,81113,1,2,0:2:0:0:
270,278,81192,1,2,0:2:0:0:
215,285,81271,2,0,P|195:289|178:298,1,33.7500012874604,2|0,0:2|0:0,0:0:0:0:
58,342,81429,1,2,0:2:0:0:
67,297,81507,1,0,0:0:0:0:
76,253,81587,6,0,L|76:206,1,33.7500012874604,2|0,0:2|0:0,0:0:0:0:
73,122,81745,1,0,0:0:0:0:
297,53,81902,1,2,0:2:0:0:
215,285,82060,1,0,0:0:0:0:
178,117,82218,5,2,0:2:0:0:
228,120,82298,1,2,0:2:0:0:
273,141,82377,1,2,0:2:0:0:
309,177,82456,1,2,0:2:0:0:
328,223,82535,6,0,L|328:262,1,33.7500012874604,2|0,0:2|0:0,0:0:0:0:
328,350,82692,1,2,0:2:0:0:
471,252,82850,1,2,0:2:0:0:
300,70,83008,1,0,0:0:0:0:
286,107,83087,1,0,0:0:0:0:
273,141,83166,1,2,0:2:0:0:
233,234,83324,1,0,0:0:0:0:
38,202,83482,6,0,P|89:221|120:276,1,112.5,4|0,0:0|0:0,0:0:0:0:
128,239,83719,1,0,0:0:0:0:
139,204,83798,2,0,P|146:182|159:166,1,33.7500012874604,2|0,0:2|0:0,0:0:0:0:
64,89,83956,2,0,P|79:106|86:125,1,33.7500012874604,2|0,0:2|0:0,0:0:0:0:
205,83,84114,2,0,P|182:87|162:84,2,33.7500012874604,2|0|0,0:2|0:0|0:0,0:0:0:0:
316,36,84429,5,2,0:2:0:0:
475,230,84587,1,2,0:2:0:0:
229,268,84745,2,0,L|257:242,1,33.7500012874604,2|0,0:2|0:0,0:0:0:0:
313,156,84903,5,0,0:0:0:0:
313,156,84982,1,2,0:2:0:0:
313,156,85061,2,0,L|341:130,1,33.7500012874604,2|0,0:2|0:0,0:0:0:0:
464,108,85219,1,2,0:2:0:0:
464,108,85298,1,2,0:2:0:0:
464,108,85377,2,0,L|436:134,1,33.7500012874604,2|0,0:2|0:0,0:0:0:0:
353,280,85535,1,0,0:0:0:0:
353,280,85614,1,2,0:2:0:0:
353,280,85691,2,0,L|381:254,1,33.7500012874604,2|0,0:2|0:0,0:0:0:0:
385,47,85850,5,2,0:2:0:0:
342,19,85929,1,0,0:0:0:0:
291,19,86008,2,0,B|250:56|250:56|177:56,1,112.5,4|0,0:0|0:0,0:0:0:0:
43,95,86324,2,0,P|65:103|76:112,1,33.7500012874604,2|0,0:2|0:0,0:0:0:0:
123,187,86481,2,0,P|132:208|134:226,1,33.7500012874604,2|0,0:2|0:0,0:0:0:0:
112,307,86640,2,0,P|107:325|97:338,2,33.7500012874604,2|0|0,0:2|0:0|0:0,0:0:0:0:
10,223,86956,5,2,0:2:0:0:
187,136,87114,1,0,0:0:0:0:
210,180,87192,1,0,0:0:0:0:
236,223,87271,2,0,B|264:273|264:273|319:291,1,112.5,2|0,0:2|0:0,0:0:0:0:
463,296,87587,2,0,L|430:286,1,33.7500012874604,2|0,0:2|0:0,0:0:0:0:
419,184,87745,2,0,L|386:174,1,33.7500012874604,2|0,0:2|0:0,0:0:0:0:
297,141,87903,5,2,0:2:0:0:
450,72,88061,1,0,0:0:0:0:
316,290,88219,1,2,0:2:0:0:
236,223,88377,1,0,0:0:0:0:
197,238,88456,1,0,0:0:0:0:
160,254,88535,5,4,0:0:0:0:
121,139,88692,1,2,0:2:0:0:
320,132,88850,5,2,0:2:0:0:
245,352,89007,1,2,0:2:0:0:
57,203,89166,5,2,0:2:0:0:
26,113,89323,1,2,0:2:0:0:
253,75,89482,5,2,0:2:0:0:
197,238,89639,1,2,0:2:0:0:
133,24,89798,5,2,0:2:0:0:
139,73,89876,1,2,0:2:0:0:
148,125,89955,1,2,0:2:0:0:
157,174,90034,1,2,0:2:0:0:
165,226,90113,1,2,0:2:0:0:
231,275,90192,1,0,0:0:0:0:
313,268,90271,1,2,0:2:0:0:
370,208,90350,1,0,0:0:0:0:
372,126,90429,6,0,L|366:84,1,33.7500012874604,2|0,0:2|0:0,0:0:0:0:
274,64,90587,2,0,L|270:29,1,33.7500012874604,2|0,0:2|0:0,0:0:0:0:
165,226,90745,6,0,L|169:261,1,33.7500012874604,2|0,0:2|0:0,0:0:0:0:
67,164,90903,2,0,L|73:206,1,33.7500012874604,2|0,0:2|0:0,0:0:0:0:
100,25,91060,5,2,0:2:0:0:
138,67,91138,1,2,0:2:0:0:
187,95,91217,1,2,0:2:0:0:
242,106,91296,1,2,0:2:0:0:
297,99,91376,2,0,P|317:95|334:86,1,33.7500012874604,2|0,0:2|0:0,0:0:0:0:
454,42,91533,1,2,0:2:0:0:
445,87,91613,1,0,0:0:0:0:
436,131,91691,6,0,L|436:178,1,33.7500012874604,2|0,0:2|0:0,0:0:0:0:
439,262,91849,1,0,0:0:0:0:
215,331,92006,1,2,0:2:0:0:
297,99,92164,1,0,0:0:0:0:
334,267,92322,5,2,0:2:0:0:
284,264,92402,1,2,0:2:0:0:
239,243,92481,1,2,0:2:0:0:
203,207,92560,1,2,0:2:0:0:
184,161,92639,6,0,L|184:122,1,33.7500012874604,2|0,0:2|0:0,0:0:0:0:
184,34,92796,1,2,0:2:0:0:
41,132,92955,1,2,0:2:0:0:
212,314,93113,1,0,0:0:0:0:
226,277,93192,1,0,0:0:0:0:
239,243,93271,1,2,0:2:0:0:
279,150,93429,1,0,0:0:0:0:
474,182,93587,6,0,P|423:163|392:108,1,112.5,4|0,0:0|0:0,0:0:0:0:
384,145,93824,1,0,0:0:0:0:
373,180,93903,2,0,P|366:202|353:218,1,33.7500012874604,2|0,0:2|0:0,0:0:0:0:
448,295,94061,2,0,P|433:278|426:259,1,33.7500012874604,2|0,0:2|0:0,0:0:0:0:
307,301,94219,2,0,P|330:297|350:300,2,33.7500012874604,2|0|0,0:2|0:0|0:0,0:0:0:0:
196,348,94534,5,2,0:2:0:0:
37,154,94692,1,2,0:2:0:0:
283,116,94850,2,0,L|255:142,1,33.7500012874604,2|0,0:2|0:0,0:0:0:0:
199,228,95008,5,0,0:0:0:0:
199,228,95087,1,2,0:2:0:0:
199,228,95166,2,0,L|171:254,1,33.7500012874604,2|0,0:2|0:0,0:0:0:0:
48,276,95324,1,2,0:2:0:0:
48,276,95403,1,2,0:2:0:0:
48,276,95482,2,0,L|76:250,1,33.7500012874604,2|0,0:2|0:0,0:0:0:0:
159,104,95640,1,0,0:0:0:0:
159,104,95719,1,2,0:2:0:0:
159,104,95798,2,0,L|131:130,1,33.7500012874604,2|0,0:2|0:0,0:0:0:0:
127,337,95955,5,2,0:2:0:0:
170,365,96034,1,0,0:0:0:0:
221,365,96114,2,0,B|262:328|262:328|335:328,1,112.5,4|0,0:0|0:0,0:0:0:0:
469,289,96428,2,0,P|447:281|436:272,1,33.7500012874604,2|0,0:2|0:0,0:0:0:0:
389,197,96586,2,0,P|380:176|378:158,1,33.7500012874604,2|0,0:2|0:0,0:0:0:0:
400,77,96744,2,0,P|405:59|415:46,2,33.7500012874604,2|0|0,0:2|0:0|0:0,0:0:0:0:
502,161,97061,5,2,0:2:0:0:
325,248,97219,1,0,0:0:0:0:
302,204,97297,1,0,0:0:0:0:
276,161,97377,2,0,B|248:111|248:111|193:93,1,112.5,2|0,0:2|0:0,0:0:0:0:
49,88,97692,2,0,L|82:98,1,33.7500012874604,2|0,0:2|0:0,0:0:0:0:
93,200,97850,2,0,L|126:210,1,33.7500012874604,2|0,0:2|0:0,0:0:0:0:
215,243,98008,5,2,0:2:0:0:
62,312,98166,1,0,0:0:0:0:
196,94,98324,1,2,0:2:0:0:
276,161,98482,1,0,0:0:0:0:
315,146,98561,1,0,0:0:0:0:
352,130,98640,5,4,0:0:0:0:
391,245,98797,1,2,0:2:0:0:
192,252,98955,5,2,0:2:0:0:
267,32,99114,1,2,0:2:0:0:
455,181,99271,5,2,0:2:0:0:
486,271,99428,1,2,0:2:0:0:
259,309,99587,5,2,0:2:0:0:
315,146,99744,1,2,0:2:0:0:
379,360,99903,5,2,0:2:0:0:
373,311,99981,1,2,0:2:0:0:
364,259,100060,1,2,0:2:0:0:
355,210,100139,1,2,0:2:0:0:
347,158,100218,1,2,0:2:0:0:
281,109,100297,1,0,0:0:0:0:
199,116,100376,1,2,0:2:0:0:
142,176,100455,1,0,0:0:0:0:
140,258,100535,6,0,L|146:300,1,33.7500012874604,2|0,0:2|0:0,0:0:0:0:
238,320,100692,2,0,L|242:355,1,33.7500012874604,2|0,0:2|0:0,0:0:0:0:
347,158,100850,6,0,L|343:123,1,33.7500012874604,2|0,0:2|0:0,0:0:0:0:
445,220,101008,2,0,L|439:178,1,33.7500012874604,2|0,0:2|0:0,0:0:0:0:
415,37,101166,5,4,0:0:0:0:
275,15,101324,1,0,0:0:0:0:
261,52,101403,1,0,0:0:0:0:
248,86,101482,1,2,0:2:0:0:
112,65,101640,1,2,0:2:0:0:
14,151,101798,2,0,P|65:164|105:217,1,112.5,2|0,0:2|0:0,0:0:0:0:
91,303,102113,5,2,0:2:0:0:
311,359,102271,1,0,0:0:0:0:
311,359,102350,1,0,0:0:0:0:
311,359,102429,2,0,L|336:234,1,112.5,2|0,0:2|0:0,0:0:0:0:
347,151,102745,5,2,0:2:0:0:
178,263,102903,1,2,0:2:0:0:
416,311,103061,1,2,0:2:0:0:
446,285,103140,1,0,0:0:0:0:
467,252,103219,1,0,0:0:0:0:
480,215,103298,1,0,0:0:0:0:
482,176,103376,1,2,0:2:0:0:
245,65,103535,1,0,0:0:0:0:
251,100,103613,1,0,0:0:0:0:
258,136,103692,6,0,B|271:191|271:191|322:243,1,112.5,4|0,0:0|0:0,0:0:0:0:
265,348,104008,2,0,L|242:324,1,33.7500012874604,2|0,0:2|0:0,0:0:0:0:
151,308,104166,2,0,L|128:284,1,33.7500012874604,2|0,0:2|0:0,0:0:0:0:
35,260,104324,2,0,L|12:236,2,33.7500012874604,2|0|0,0:2|0:0|0:0,0:0:0:0:
136,161,104640,5,2,0:2:0:0:
136,161,104798,1,2,0:2:0:0:
178,34,104956,2,0,L|65:54,1,112.5,2|0,0:2|0:0,0:0:0:0:
277,211,105271,5,2,0:2:0:0:
306,88,105429,1,0,0:0:0:0:
306,88,105508,1,0,0:0:0:0:
306,88,105587,2,0,L|212:104,1,90,2|0,0:2|0:0,0:0:0:0:
434,71,105903,1,2,0:2:0:0:
412,87,105981,1,0,0:0:0:0:
394,110,106060,1,0,0:0:0:0:
383,136,106139,1,0,0:0:0:0:
379,164,106219,1,4,0:0:0:0:
256,192,106377,12,0,110008,0:0:0:0:
