osu file format v14

[General]
AudioFilename: audio.mp3
AudioLeadIn: 0
PreviewTime: 76884
Countdown: 0
SampleSet: None
StackLeniency: 0.2
Mode: 0
LetterboxInBreaks: 0
WidescreenStoryboard: 0

[Editor]
Bookmarks: 15444,30804,46164,61524,96084,99924,130644,159444
DistanceSpacing: 2
BeatDivisor: 4
GridSize: 16
TimelineZoom: 1.6

[Metadata]
Title:Field of Hopes and Dreams
TitleUnicode:Field of Hopes and Dreams
Artist:toby fox
ArtistUnicode:toby fox
Creator:CookieBite
Version:Extreme
Source:DELTARUNE
Tags:
BeatmapID:1825568
BeatmapSetID:873307

[Difficulty]
HPDrainRate:6
CircleSize:3.5
OverallDifficulty:8
ApproachRate:9.6
SliderMultiplier:3.49999990463257
SliderTickRate:1

[Events]
//Background and Video events
0,0,"bg.jpg",0,0
//Break Periods
//Storyboard Layer 0 (Background)
//Storyboard Layer 1 (Fail)
//Storyboard Layer 2 (Pass)
//Storyboard Layer 3 (Foreground)
//Storyboard Sound Samples

[TimingPoints]
84,480,4,3,1,80,1,0
18324,-100,4,2,11,80,0,0
19344,-100,4,3,1,80,0,0
21924,-100,4,2,12,80,0,0
23184,-100,4,3,1,80,0,0
25764,-100,4,2,11,80,0,0
27024,-100,4,3,1,80,0,0
29844,-100,4,2,11,80,0,0
30804,-100,4,3,1,80,0,0
61524,-100,4,3,1,80,0,0
74996,480,4,3,1,80,1,0
76884,480,4,3,1,80,1,0
76884,-71.4285714285714,4,3,1,80,0,1
90804,-76.9230769230769,4,3,1,80,0,1
91284,-83.3333333333333,4,3,1,80,0,1
92244,-90.9090909090909,4,3,1,80,0,1
96084,-142.857142857143,4,3,1,40,0,0
98724,-142.857142857143,4,3,1,60,0,0
99924,-100,4,3,1,80,0,0

[HitObjects]
477,250,15444,6,0,P|394:235|338:303,1,174.999995231629,4|0,0:0|0:0,0:0:0:0:
423,320,15804,1,0,0:0:0:0:
196,274,15924,2,0,P|211:314|216:358,1,87.4999976158143,8|0,0:0|0:0,0:0:0:0:
299,164,16164,2,0,P|283:204|278:248,1,87.4999976158143
75,181,16404,6,0,P|157:195|212:131,1,174.999995231629
128,110,16764,1,0,0:0:0:0:
196,274,16884,1,8,0:0:0:0:
75,181,17004,1,0,0:0:0:0:
219,292,17124,1,0,0:0:0:0:
85,366,17244,1,0,0:0:0:0:
165,222,17364,6,0,P|248:207|304:275,1,174.999995231629
219,292,17724,1,0,0:0:0:0:
446,246,17844,2,0,P|431:286|426:330,1,87.4999976158143,8|0,0:0|0:0,0:0:0:0:
343,136,18084,2,0,P|359:176|364:220,1,87.4999976158143
165,222,18324,6,0,L|251:208,1,87.4999976158143,2|0,0:0|0:0,0:0:0:0:
88,80,18564,1,2,0:0:0:0:
81,107,18624,1,0,0:0:0:0:
84,136,18684,1,0,0:0:0:0:
212,31,18804,2,0,P|203:73|198:117,1,87.4999976158143,2|0,0:0|0:0,0:0:0:0:
264,294,19044,2,0,P|254:251|250:207,1,87.4999976158143,2|0,0:0|0:0,0:0:0:0:
472,139,19284,6,0,P|389:154|333:86,1,174.999995231629,2|0,0:0|0:0,0:0:0:0:
418,69,19644,1,0,0:0:0:0:
212,31,19764,1,8,0:0:0:0:
262,209,19884,1,0,0:0:0:0:
212,31,20004,2,0,P|196:72|191:115,1,87.4999976158143
47,225,20244,6,0,P|129:211|184:275,1,174.999995231629
100,296,20604,1,0,0:0:0:0:
168,132,20724,1,8,0:0:0:0:
47,225,20844,1,0,0:0:0:0:
191,114,20964,1,0,0:0:0:0:
57,40,21084,1,0,0:0:0:0:
191,114,21204,6,0,P|274:129|330:61,1,174.999995231629
245,44,21564,1,0,0:0:0:0:
472,90,21684,2,0,P|457:50|452:6,1,87.4999976158143,8|0,0:0|0:0,0:0:0:0:
369,200,21924,2,0,P|385:160|390:116,1,87.4999976158143,2|0,0:0|0:0,0:0:0:0:
245,44,22164,6,0,L|231:130,1,87.4999976158143,2|0,0:0|0:0,0:0:0:0:
89,8,22404,1,2,0:0:0:0:
116,1,22464,1,2,0:0:0:0:
145,4,22524,1,2,0:0:0:0:
40,132,22644,2,0,P|82:123|126:118,1,87.4999976158143,2|0,0:0|0:0,0:0:0:0:
302,184,22884,2,0,P|259:175|216:171,1,87.4999976158143,2|0,0:0|0:0,0:0:0:0:
36,289,23124,6,0,P|120:265|207:268,1,174.999995231629,2|0,0:0|0:0,0:0:0:0:
143,373,23484,1,0,0:0:0:0:
298,308,23604,2,0,P|309:265|313:222,1,87.4999976158143,8|0,0:0|0:0,0:0:0:0:
232,88,23844,2,0,P|236:131|247:174,1,87.4999976158143
430,0,24084,6,0,P|385:74|374:161,1,174.999995231629
471,238,24444,1,0,0:0:0:0:
344,376,24564,1,8,0:0:0:0:
494,336,24684,1,0,0:0:0:0:
320,383,24804,1,0,0:0:0:0:
385,242,24924,1,0,0:0:0:0:
232,297,25044,6,0,P|145:303|68:265,1,174.999995231629
11,155,25404,1,0,0:0:0:0:
142,61,25524,2,0,P|146:104|128:147,1,87.4999976158143,8|0,0:0|0:0,0:0:0:0:
232,297,25764,2,0,P|215:258|219:215,1,87.4999976158143,2|0,0:0|0:0,0:0:0:0:
392,127,26004,6,0,L|304:119,1,87.4999976158143,2|0,0:0|0:0,0:0:0:0:
225,5,26244,1,2,0:0:0:0:
246,9,26304,1,0,0:0:0:0:
264,22,26364,1,0,0:0:0:0:
215,209,26484,2,0,P|214:164|207:121,1,87.4999976158143,2|0,0:0|0:0,0:0:0:0:
65,0,26724,2,0,P|64:45|57:87,1,87.4999976158143,2|0,0:0|0:0,0:0:0:0:
88,316,26964,6,0,P|117:233|121:146,1,174.999995231629,2|0,0:0|0:0,0:0:0:0:
65,0,27324,1,0,0:0:0:0:
224,46,27444,2,0,P|267:42|310:31,1,87.4999976158143,8|0,0:0|0:0,0:0:0:0:
384,169,27684,2,0,P|341:158|297:154,1,87.4999976158143
87,315,27924,6,0,P|173:325|251:287,1,174.999995231629
142,230,28285,1,0,0:0:0:0:
260,384,28404,1,8,0:0:0:0:
320,223,28524,1,0,0:0:0:0:
371,363,28644,1,0,0:0:0:0:
310,193,28764,1,0,0:0:0:0:
260,384,28884,6,0,P|173:382|102:333,1,174.999995231629
64,216,29244,1,0,0:0:0:0:
198,288,29364,2,0,P|201:244|216:203,1,87.4999976158143,8|0,0:0|0:0,0:0:0:0:
91,57,29604,2,0,P|106:97|109:141,1,87.4999976158143
331,0,29844,6,0,L|243:7,1,87.4999976158143,2|0,0:0|0:0,0:0:0:0:
398,147,30084,1,2,0:0:0:0:
407,119,30144,1,2,0:0:0:0:
403,90,30204,1,2,0:0:0:0:
259,179,30324,2,0,P|264:222|263:265,1,87.4999976158143,2|0,0:0|0:0,0:0:0:0:
108,141,30564,2,0,P|113:97|112:54,1,87.4999976158143,2|0,0:0|0:0,0:0:0:0:
2,250,30804,6,0,P|85:235|141:303,1,174.999995231629,4|0,0:0|0:0,0:0:0:0:
56,320,31164,1,0,0:0:0:0:
283,274,31284,2,0,P|268:314|263:358,1,87.4999976158143,8|0,0:0|0:0,0:0:0:0:
180,164,31524,2,0,P|196:204|201:248,1,87.4999976158143
404,181,31764,6,0,P|322:195|267:131,1,174.999995231629
351,110,32124,1,0,0:0:0:0:
283,274,32244,1,8,0:0:0:0:
404,181,32364,1,0,0:0:0:0:
260,292,32484,1,0,0:0:0:0:
394,366,32604,1,0,0:0:0:0:
206,222,32724,6,0,P|289:207|345:275,1,174.999995231629
260,292,33084,1,0,0:0:0:0:
487,246,33204,2,0,P|472:286|467:330,1,87.4999976158143,8|0,0:0|0:0,0:0:0:0:
384,136,33444,2,0,P|400:176|405:220,1,87.4999976158143
206,222,33684,6,0,L|292:208,1,87.4999976158143
129,80,33924,1,0,0:0:0:0:
122,107,33984,1,0,0:0:0:0:
125,136,34044,1,0,0:0:0:0:
237,6,34164,2,0,P|228:48|223:92,1,87.4999976158143,8|0,0:0|0:0,0:0:0:0:
305,294,34404,2,0,P|295:251|291:207,1,87.4999976158143
462,30,34644,6,0,P|378:14|314:70,1,174.999995231629
447,209,35004,1,0,0:0:0:0:
405,111,35124,1,8,0:0:0:0:
354,283,35244,1,0,0:0:0:0:
354,283,35304,1,0,0:0:0:0:
354,283,35364,2,0,P|346:240|348:196,1,87.4999976158143
259,303,35604,6,0,P|194:357|109:342,1,174.999995231629
52,201,35964,1,0,0:0:0:0:
167,261,36084,2,0,P|180:218|185:175,1,87.4999976158143,8|0,0:0|0:0,0:0:0:0:
135,115,36264,1,0,0:0:0:0:
135,115,36324,2,0,P|122:72|117:29,1,87.4999976158143
331,10,36564,6,0,P|278:75|262:170,1,174.999995231629
386,127,36924,1,0,0:0:0:0:
252,272,37044,2,0,P|208:271|166:260,1,87.4999976158143,8|0,0:0|0:0,0:0:0:0:
85,114,37284,2,0,P|128:114|170:125,1,87.4999976158143
18,300,37524,6,0,L|10:212,1,87.4999976158143
147,348,37764,1,0,0:0:0:0:
122,363,37824,1,0,0:0:0:0:
93,368,37884,1,0,0:0:0:0:
166,260,38004,2,0,P|210:258|253:267,1,87.4999976158143,8|0,0:0|0:0,0:0:0:0:
367,373,38244,2,0,P|324:382|280:380,1,87.4999976158143
474,263,38484,6,0,P|388:268|322:210,1,174.999995231629
425,160,38844,1,0,0:0:0:0:
252,266,38964,2,0,P|234:306|228:353,1,87.4999976158143,8|0,0:0|0:0,0:0:0:0:
153,382,39144,1,0,0:0:0:0:
153,382,39204,2,0,P|146:338|128:299,1,87.4999976158143
32,189,39444,6,0,P|4:271|3:358,1,174.999995231629
128,299,39804,1,0,0:0:0:0:
21,105,39924,2,0,P|15:148|32:189,1,87.4999976158143,8|0,0:0|0:0,0:0:0:0:
167,46,40164,2,0,P|132:19|90:14,1,87.4999976158143
158,182,40404,6,0,P|243:187|315:140,1,174.999995231629
357,13,40764,1,0,0:0:0:0:
393,179,40884,1,8,0:0:0:0:
459,66,41004,1,0,0:0:0:0:
491,226,41124,1,0,0:0:0:0:
450,25,41244,1,0,0:0:0:0:
409,265,41364,6,0,L|392:178,1,87.4999976158143
277,334,41604,1,0,0:0:0:0:
302,345,41664,1,0,0:0:0:0:
330,348,41724,1,0,0:0:0:0:
298,209,41844,2,0,P|256:197|211:192,1,87.4999976158143,8|0,0:0|0:0,0:0:0:0:
46,319,42084,2,0,P|88:307|132:302,1,87.4999976158143
0,231,42324,6,0,P|7:144|47:67,1,174.999995231629
156,10,42684,1,0,0:0:0:0:
236,173,42804,2,0,P|192:169|152:147,1,87.4999976158143,8|0,0:0|0:0,0:0:0:0:
342,15,43044,2,0,P|360:53|361:99,1,87.4999976158143
176,303,43284,6,0,P|132:231|155:149,1,174.999995231629
280,74,43644,1,0,0:0:0:0:
232,218,43764,1,8,0:0:0:0:
156,10,43884,1,0,0:0:0:0:
246,246,44004,1,0,0:0:0:0:
65,115,44124,1,0,0:0:0:0:
246,246,44244,6,0,P|160:248|94:193,1,174.999995231629
199,131,44604,1,0,0:0:0:0:
55,317,44724,2,0,P|27:282|15:241,1,87.4999976158143,8|0,0:0|0:0,0:0:0:0:
285,170,44964,2,0,P|273:211|246:246,1,87.4999976158143
116,35,45204,6,0,L|203:42,1,87.4999976158143
0,157,45444,1,0,0:0:0:0:
0,128,45504,1,0,0:0:0:0:
16,104,45564,1,0,0:0:0:0:
171,236,45684,2,0,P|173:280|164:338,1,87.4999976158143,8|0,0:0|0:0,0:0:0:0:
203,42,45924,2,0,P|240:18|294:-2,1,87.4999976158143
0,157,46164,5,4,0:0:0:0:
0,157,46404,1,0,0:0:0:0:
108,206,46524,1,0,0:0:0:0:
200,64,46644,2,0,L|192:151,1,87.4999976158143,8|0,0:0|0:0,0:0:0:0:
305,295,46884,2,0,P|312:248|297:207,1,87.4999976158143
136,306,47124,5,0,0:0:0:0:
136,306,47364,2,0,L|132:262,2,43.7499988079071
210,119,47604,2,0,L|202:206,1,87.4999976158143,8|0,0:0|0:0,0:0:0:0:
37,384,47844,2,0,L|44:296,1,87.4999976158143
60,126,48084,5,0,0:0:0:0:
60,126,48324,1,0,0:0:0:0:
138,220,48444,1,0,0:0:0:0:
297,126,48564,2,0,L|209:118,1,87.4999976158143,8|0,0:0|0:0,0:0:0:0:
259,286,48804,2,0,L|346:278,1,87.4999976158143
454,80,49044,5,0,0:0:0:0:
454,80,49284,2,0,L|450:123,2,43.7499988079071
335,40,49524,2,0,L|342:127,1,87.4999976158143,8|0,0:0|0:0,0:0:0:0:
487,297,49764,2,0,L|494:209,1,87.4999976158143
458,21,50004,5,0,0:0:0:0:
252,210,50244,1,0,0:0:0:0:
225,91,50364,1,0,0:0:0:0:
342,127,50484,1,8,0:0:0:0:
90,50,50724,1,0,0:0:0:0:
330,1,50964,1,0,0:0:0:0:
135,174,51204,1,0,0:0:0:0:
225,91,51324,1,0,0:0:0:0:
339,217,51444,2,0,L|252:210,1,87.4999976158143,8|0,0:0|0:0,0:0:0:0:
237,225,51624,1,0,0:0:0:0:
237,225,51684,2,0,L|149:218,1,87.4999976158143
16,67,51924,5,0,0:0:0:0:
16,67,52164,1,0,0:0:0:0:
95,159,52284,1,0,0:0:0:0:
19,303,52404,2,0,P|4:262|0:218,1,87.4999976158143,8|0,0:0|0:0,0:0:0:0:
200,300,52644,1,0,0:0:0:0:
99,370,52764,1,0,0:0:0:0:
180,200,52884,6,0,P|224:201|263:220,1,87.4999976158143,0|0,0:0|0:0,0:0:0:0:
220,382,53124,2,0,P|200:343|199:299,1,87.4999976158143
387,337,53364,2,0,P|343:335|304:316,1,87.4999976158143,8|0,0:0|0:0,0:0:0:0:
345,150,53604,2,0,P|364:188|365:232,1,87.4999976158143
175,227,53844,6,0,L|263:220,1,87.4999976158143,0|0,0:0|0:0,0:0:0:0:
82,63,54084,2,0,L|169:55,1,87.4999976158143
217,323,54324,2,0,L|304:315,1,87.4999976158143,8|0,0:0|0:0,0:0:0:0:
55,155,54564,2,0,L|142:147,1,87.4999976158143
7,339,54804,5,0,0:0:0:0:
7,339,55044,1,0,0:0:0:0:
121,263,55164,1,0,0:0:0:0:
272,336,55284,2,0,P|316:329|358:317,1,87.4999976158143,8|0,0:0|0:0,0:0:0:0:
379,294,55464,1,0,0:0:0:0:
379,294,55524,2,0,P|422:300|464:312,1,87.4999976158143
264,153,55764,6,0,L|176:160,1,87.4999976158143,0|0,0:0|0:0,0:0:0:0:
357,317,56004,2,0,L|270:325,1,87.4999976158143
222,57,56244,2,0,L|135:65,1,87.4999976158143,8|0,0:0|0:0,0:0:0:0:
384,225,56484,2,0,L|297:233,1,87.4999976158143
432,41,56724,5,0,0:0:0:0:
339,121,56844,2,0,L|291:116,2,43.7499988079071
215,30,57084,1,0,0:0:0:0:
345,216,57204,2,0,P|342:259|333:302,1,87.4999976158143,8|0,0:0|0:0,0:0:0:0:
199,375,57444,2,0,P|190:332|187:288,1,87.4999976158143
256,128,57684,5,0,0:0:0:0:
256,128,57924,1,0,0:0:0:0:
148,69,58044,1,0,0:0:0:0:
302,17,58164,2,0,P|345:19|389:25,1,87.4999976158143,8|0,0:0|0:0,0:0:0:0:
175,190,58404,2,0,P|131:195|87:198,1,87.4999976158143
336,174,58644,6,0,L|328:261,1,87.4999976158143
167,102,58884,2,0,L|175:190,1,87.4999976158143
351,0,59124,2,0,L|335:174,1,174.999995231629,8|0,0:0|0:0,0:0:0:0:
455,58,59484,1,0,0:0:0:0:
190,15,59604,6,0,L|174:189,1,174.999995231629,0|0,0:0|0:0,0:0:0:0:
93,281,59964,1,0,0:0:0:0:
269,182,60084,2,0,P|315:183|356:189,1,87.4999976158143,8|0,0:0|0:0,0:0:0:0:
265,358,60324,2,0,P|218:356|177:350,1,87.4999976158143
433,89,60564,6,0,L|441:176,1,87.4999976158143
269,182,60803,2,0,L|276:270,1,87.4999976158143
336,26,61044,2,0,L|344:113,1,87.4999976158143,8|0,0:0|0:0,0:0:0:0:
173,224,61284,2,0,L|181:311,1,87.4999976158143
429,299,61524,5,0,0:0:0:0:
410,384,61764,1,0,0:0:0:0:
390,222,62004,5,0,0:0:0:0:
429,299,62244,1,0,0:0:0:0:
311,189,62484,5,0,0:0:0:0:
390,222,62724,1,0,0:0:0:0:
230,215,62964,5,0,0:0:0:0:
311,189,63204,1,0,0:0:0:0:
56,258,63444,5,0,0:0:0:0:
75,173,63684,1,0,0:0:0:0:
95,335,63924,5,0,0:0:0:0:
56,258,64164,1,0,0:0:0:0:
174,368,64404,5,0,0:0:0:0:
95,335,64644,1,0,0:0:0:0:
255,342,64884,5,0,0:0:0:0:
174,368,65124,1,0,0:0:0:0:
174,368,65244,1,0,0:0:0:0:
174,368,65364,5,0,0:0:0:0:
259,349,65604,1,0,0:0:0:0:
97,329,65844,5,0,0:0:0:0:
174,368,66084,1,0,0:0:0:0:
64,250,66324,5,0,0:0:0:0:
97,329,66564,1,0,0:0:0:0:
90,169,66804,5,0,0:0:0:0:
64,250,67044,1,0,0:0:0:0:
263,166,67284,5,0,0:0:0:0:
244,81,67524,1,0,0:0:0:0:
224,243,67764,5,0,0:0:0:0:
263,166,68004,1,0,0:0:0:0:
145,276,68244,5,0,0:0:0:0:
224,243,68484,1,0,0:0:0:0:
64,250,68724,5,0,0:0:0:0:
145,276,68964,1,0,0:0:0:0:
145,276,69084,1,0,0:0:0:0:
145,276,69204,5,0,0:0:0:0:
164,361,69444,1,0,0:0:0:0:
184,199,69684,5,0,0:0:0:0:
145,276,69924,1,0,0:0:0:0:
263,166,70164,5,0,0:0:0:0:
184,199,70404,1,0,0:0:0:0:
344,192,70644,5,0,0:0:0:0:
263,166,70884,1,0,0:0:0:0:
347,365,71124,5,0,0:0:0:0:
432,346,71364,1,0,0:0:0:0:
270,326,71604,5,0,0:0:0:0:
347,365,71844,1,0,0:0:0:0:
237,247,72084,5,0,0:0:0:0:
270,326,72324,1,0,0:0:0:0:
263,166,72564,5,0,0:0:0:0:
237,247,72804,1,0,0:0:0:0:
156,221,73044,5,0,0:0:0:0:
237,247,73284,1,0,0:0:0:0:
289,85,73524,1,0,0:0:0:0:
263,166,73764,1,0,0:0:0:0:
438,227,74004,5,0,0:0:0:0:
357,201,74244,1,0,0:0:0:0:
305,363,74484,1,0,0:0:0:0:
331,282,74724,1,0,0:0:0:0:
156,221,74964,5,0,0:0:0:0:
256,368,75716,5,0,0:0:0:0:
402,310,75956,1,0,0:0:0:0:
152,238,76196,1,0,0:0:0:0:
446,169,76436,1,0,0:0:0:0:
206,24,76676,1,0,0:0:0:0:
477,77,76884,6,0,P|416:78|368:114,1,122.499992923737
260,275,77124,2,0,P|199:273|151:237,1,122.499992923737
477,77,77364,6,0,P|416:78|368:114,1,122.499992923737
260,275,77604,2,0,P|199:273|151:237,1,122.499992923737
198,34,77844,6,0,P|311:13|367:113,1,244.999985847474
84,122,78204,1,0,0:0:0:0:
84,122,78324,2,0,L|59:-2,1,122.499992923737
152,237,78564,2,0,L|127:357,1,122.499992923737
198,34,78804,6,0,P|258:33|308:66,1,122.499992923737
387,232,79044,2,0,P|447:233|497:200,1,122.499992923737
198,34,79284,6,0,P|258:33|308:66,1,122.499992923737
387,232,79524,2,0,P|447:233|497:200,1,122.499992923737
228,135,79764,6,0,P|148:220|180:332,1,244.999985847474
387,232,80124,1,0,0:0:0:0:
387,232,80244,2,0,L|257:248,1,122.499992923737
423,73,80484,1,0,0:0:0:0:
228,135,80604,1,0,0:0:0:0:
490,6,80724,6,0,P|516:60|505:119,1,122.499992923737
377,252,80964,2,0,P|365:311|392:365,1,122.499992923737
490,6,81204,6,0,P|516:60|505:119,1,122.499992923737
377,252,81444,2,0,P|365:311|392:365,1,122.499992923737
379,14,81684,6,0,B|427:142|331:126|377:252,1,244.999985847474
158,62,82044,1,0,0:0:0:0:
158,62,82164,2,0,L|293:75,1,122.499992923737
204,243,82404,2,0,L|82:254,1,122.499992923737
314,372,82644,6,0,P|374:269|336:157,1,244.999985847474
158,62,83004,1,0,0:0:0:0:
158,62,83124,2,0,L|288:49,1,122.499992923737
148,248,83364,2,0,L|18:235,1,122.499992923737
314,372,83604,6,0,L|327:242,1,122.499992923737
140,171,83844,1,0,0:0:0:0:
133,210,83904,1,0,0:0:0:0:
148,248,83964,1,0,0:0:0:0:
348,153,84084,2,0,P|364:95|339:41,1,122.499992923737
46,12,84324,1,0,0:0:0:0:
263,33,84444,1,0,0:0:0:0:
73,127,84564,6,0,P|46:182|67:246,1,122.499992923737,0|0,0:0|0:0,0:0:0:0:
257,262,84804,2,0,P|272:320|245:374,1,122.499992923737,0|0,0:0|0:0,0:0:0:0:
73,127,85044,6,0,P|46:182|67:246,1,122.499992923737,0|0,0:0|0:0,0:0:0:0:
257,262,85284,2,0,P|272:320|245:374,1,122.499992923737,0|0,0:0|0:0,0:0:0:0:
180,169,85524,6,0,P|292:142|361:235,1,244.999985847474
459,22,85884,1,0,0:0:0:0:
459,22,86004,2,0,L|337:40,1,122.499992923737
180,169,86244,2,0,L|301:187,1,122.499992923737
497,228,86484,6,0,P|437:223|390:261,1,122.499992923737
222,369,86724,2,0,P|162:373|115:335,1,122.499992923737
497,228,86964,6,0,P|437:223|390:261,1,122.499992923737
222,369,87204,2,0,P|162:373|115:335,1,122.499992923737
210,146,87444,6,0,P|247:236|154:206,1,244.999985847474
345,16,87804,1,0,0:0:0:0:
345,16,87924,2,0,L|329:141,1,122.499992923737
154,206,88164,2,0,L|138:84,1,122.499992923737
346,291,88404,6,0,B|203:262|243:362|114:335,1,244.999985847474
11,169,88764,1,0,0:0:0:0:
11,169,88884,2,0,P|25:228|31:289,1,122.499992923737
127,27,89124,6,0,P|100:81|104:141,1,122.499992923737
315,253,89364,2,0,P|281:202|226:175,1,122.499992923737
31,289,89604,2,0,P|91:284|141:251,1,122.499992923737
232,38,89844,6,0,P|115:32|53:131,1,244.999985847474
335,62,90204,1,0,0:0:0:0:
53,131,90324,6,0,P|106:234|223:239,1,244.999985847474
189,22,90684,1,0,0:0:0:0:
189,22,90804,2,0,L|163:162,1,113.749991693497
243,349,91044,2,0,L|223:238,1,113.749991693497
405,104,91284,6,0,L|301:85,1,104.999993934632
398,237,91524,2,0,L|501:218,1,104.999993934632
346,367,91764,6,0,L|243:349,1,104.999993934632
119,256,92004,2,0,L|223:238,1,104.999993934632
78,161,92244,6,0,P|18:235|46:329,1,192.500000629425
166,369,92604,1,0,0:0:0:0:
166,369,92724,2,0,L|175:273,1,96.2500003147126
292,206,92964,2,0,L|301:301,1,96.2500003147126
366,112,93204,6,0,L|270:102,1,96.2500003147126
112,192,93444,2,0,L|207:182,1,96.2500003147126
301,301,93684,2,0,L|109:281,1,192.500000629425
16,162,94044,5,0,0:0:0:0:
16,162,94164,2,0,L|207:181,1,192.500000629425
109,281,94524,1,0,0:0:0:0:
109,281,94644,2,0,P|61:285|14:297,1,96.2500003147126
207,181,94884,2,0,P|253:192|301:196,1,96.2500003147126
198,60,95124,6,0,L|101:78,1,96.2500003147126
207,181,95364,2,0,L|225:278,1,96.2500003147126
311,29,95604,6,0,L|201:49,1,96.2500003147126
321,165,95844,2,0,L|341:274,1,96.2500003147126
350,12,96084,5,0,0:0:0:0:
256,192,96804,5,0,0:0:0:0:
350,12,97044,1,0,0:0:0:0:
256,192,97764,5,0,0:0:0:0:
350,12,98004,2,0,L|351:55,1,30.6249982309342
256,192,98724,5,0,0:0:0:0:
490,121,98964,1,0,0:0:0:0:
256,192,99204,2,0,L|215:188,2,40.8333309745789
327,231,99444,1,0,0:0:0:0:
256,3,99684,1,0,0:0:0:0:
