osu file format v14

[General]
AudioFilename: audio.mp3
AudioLeadIn: 0
PreviewTime: 76884
Countdown: 0
SampleSet: None
StackLeniency: 0.2
Mode: 0
LetterboxInBreaks: 0
WidescreenStoryboard: 1

[Editor]
Bookmarks: 15444,30804,46164,61524,96084,99924,130644,159444
DistanceSpacing: 1.2
BeatDivisor: 8
GridSize: 8
TimelineZoom: 1.5

[Metadata]
Title:Field of Hopes and Dreams
TitleUnicode:Field of Hopes and Dreams
Artist:toby fox
ArtistUnicode:toby fox
Creator:CookieBite
Version:Extra
Source:DELTARUNE
Tags:
BeatmapID:1825567
BeatmapSetID:873307

[Difficulty]
HPDrainRate:6
CircleSize:3.5
OverallDifficulty:8
ApproachRate:9.4
SliderMultiplier:3.49999990463257
SliderTickRate:1

[Events]
//Background and Video events
0,0,"bg.jpg",0,0
//Break Periods
//Storyboard Layer 0 (Background)
//Storyboard Layer 1 (Fail)
//Storyboard Layer 2 (Pass)
//Storyboard Layer 3 (Foreground)
//Storyboard Sound Samples

[TimingPoints]
84,480,4,3,1,60,1,0

[HitObjects]
134,222,15444,6,0,B|222:182|214:254|302:224,1,174.999995231629,0|0,0:0|0:0,0:0:0:0:
265,66,15804,1,0,0:0:0:0:
265,66,15924,2,0,P|253:112|269:152,1,87.4999976158143,0|0,0:0|0:0,0:0:0:0:
450,214,16164,2,0,P|416:180|372:174,1,87.4999976158143,0|0,0:0|0:0,0:0:0:0:
268,371,16404,6,0,P|322:305|302:224,1,174.999995231629,0|0,0:0|0:0,0:0:0:0:
116,285,16764,1,0,0:0:0:0:
116,285,16884,2,0,P|149:312|191:322,1,87.4999976158143,0|0,0:0|0:0,0:0:0:0:
41,219,17124,2,0,P|19:257|17:300,1,87.4999976158143,0|0,0:0|0:0,0:0:0:0:
81,67,17364,6,0,P|99:151|162:209,1,174.999995231629,0|0,0:0|0:0,0:0:0:0:
287,129,17724,1,0,0:0:0:0:
287,129,17844,2,0,P|247:111|203:111,1,87.4999976158143,0|0,0:0|0:0,0:0:0:0:
326,284,18084,2,0,P|343:244|343:200,1,87.4999976158143,0|0,0:0|0:0,0:0:0:0:
162,329,18324,6,0,L|249:342,1,87.4999976158143,0|0,0:0|0:0,0:0:0:0:
75,222,18564,1,0,0:0:0:0:
75,243,18624,1,0,0:0:0:0:
82,264,18684,1,0,0:0:0:0:
183,100,18804,2,0,P|176:140|173:191,1,87.4999976158143,0|0,0:0|0:0,0:0:0:0:
248,341,19044,2,0,P|241:301|238:250,1,87.4999976158143,0|0,0:0|0:0,0:0:0:0:
341,184,19284,6,0,B|253:144|261:216|173:186,1,174.999995231629,0|0,0:0|0:0,0:0:0:0:
125,45,19644,1,0,0:0:0:0:
209,109,19764,1,0,0:0:0:0:
308,36,19884,1,0,0:0:0:0:
308,36,19944,1,0,0:0:0:0:
309,36,20004,2,0,P|272:14|229:14,1,87.4999976158143,0|0,0:0|0:0,0:0:0:0:
445,71,20244,6,0,P|366:103|341:184,1,174.999995231629,0|0,0:0|0:0,0:0:0:0:
476,245,20604,1,0,0:0:0:0:
476,246,20724,2,0,P|466:203|438:170,1,87.4999976158143,0|0,0:0|0:0,0:0:0:0:
362,352,20964,2,0,P|405:349|442:327,1,87.4999976158143,0|0,0:0|0:0,0:0:0:0:
242,197,21204,6,0,P|242:284|276:364,1,174.999995231629,0|0,0:0|0:0,0:0:0:0:
86,370,21564,1,0,0:0:0:0:
86,370,21684,2,0,P|126:352|170:352,1,87.4999976158143,0|0,0:0|0:0,0:0:0:0:
8,260,21924,2,0,P|48:277|91:277,1,87.4999976158143,0|0,0:0|0:0,0:0:0:0:
173,100,22164,6,0,L|160:187,1,87.4999976158143,0|0,0:0|0:0,0:0:0:0:
15,102,22404,1,0,0:0:0:0:
36,102,22464,1,0,0:0:0:0:
58,110,22524,1,0,0:0:0:0:
246,196,22644,2,0,P|202:188|159:186,1,87.4999976158143,0|0,0:0|0:0,0:0:0:0:
116,28,22884,2,0,P|159:20|202:18,1,87.4999976158143,0|0,0:0|0:0,0:0:0:0:
436,125,23124,6,0,P|350:135|287:75,1,174.999995231629,0|0,0:0|0:0,0:0:0:0:
384,34,23484,1,0,0:0:0:0:
512,161,23604,2,0,P|509:204|496:246,1,87.4999976158143,0|0,0:0|0:0,0:0:0:0:
420,329,23844,2,0,P|417:285|404:243,1,87.4999976158143,0|0,0:0|0:0,0:0:0:0:
287,77,24084,6,0,P|316:159|303:245,1,174.999995231629,0|0,0:0|0:0,0:0:0:0:
134,216,24444,1,0,0:0:0:0:
134,216,24564,2,0,P|174:196|227:189,1,87.4999976158143,0|0,0:0|0:0,0:0:0:0:
85,325,24804,1,0,0:0:0:0:
26,237,24924,1,0,0:0:0:0:
109,353,25044,6,0,P|195:354|271:313,1,174.999995231629,0|0,0:0|0:0,0:0:0:0:
216,189,25404,1,0,0:0:0:0:
216,189,25524,2,0,P|195:227|189:270,1,87.4999976158143,0|0,0:0|0:0,0:0:0:0:
369,327,25764,2,0,P|363:284|343:246,1,87.4999976158143,0|0,0:0|0:0,0:0:0:0:
208,101,26004,6,0,L|216:189,1,87.4999976158143,0|0,0:0|0:0,0:0:0:0:
357,53,26244,1,0,0:0:0:0:
330,41,26304,1,0,0:0:0:0:
301,38,26364,1,0,0:0:0:0:
130,200,26484,2,0,P|174:201|216:189,1,87.4999976158143,0|0,0:0|0:0,0:0:0:0:
89,90,26724,2,0,P|45:91|3:78,1,87.4999976158143,0|0,0:0|0:0,0:0:0:0:
