osu file format v14

[General]
AudioFilename: audio.mp3
AudioLeadIn: 0
PreviewTime: 37
Countdown: 0
SampleSet: Soft
StackLeniency: 0.7
Mode: 0
LetterboxInBreaks: 0
WidescreenStoryboard: 0

[Editor]
DistanceSpacing: 1.2
BeatDivisor: 2
GridSize: 4
TimelineZoom: 0.8000001

[Metadata]
Title:Fallen Down
TitleUnicode:Fallen Down
Artist:toby fox
ArtistUnicode:toby fox
Creator:Ward74
Version:Normal
Source:UNDERTALE
Tags:Instrumental Video Game chiptune radiation leitmotif original midi soundtrack ost toriel asgore vgm
BeatmapID:1333147
BeatmapSetID:631362

[Difficulty]
HPDrainRate:3
CircleSize:2.5
OverallDifficulty:3.5
ApproachRate:6
SliderMultiplier:1.4
SliderTickRate:1

[Events]
//Background and Video events
0,0,"xlIkI18.jpg",0,0
//Break Periods
//Storyboard Layer 0 (Background)
//Storyboard Layer 1 (Fail)
//Storyboard Layer 2 (Pass)
//Storyboard Layer 3 (Foreground)
//Storyboard Layer 4 (Overlay)
//Storyboard Sound Samples

[TimingPoints]
72,545.454545454546,3,2,0,55,1,0
26253,-100,3,2,0,70,0,0
26301,-100,3,2,0,70,0,0
32847,-100,3,2,0,70,0,0
49483,-100,3,2,0,70,0,0

[Colours]
Combo1 : 255,72,72
Combo2 : 0,217,217
Combo3 : 255,128,0
Combo4 : 198,198,0

[HitObjects]
35,77,72,6,0,P|111:89|123:97,1,70,6|2,1:2|0:0,0:0:0:0:
151,153,617,2,0,P|211:161|243:145,1,70,2|2,0:3|0:0,0:0:0:0:
289,112,1162,1,2,0:3:0:0:
434,159,1708,2,0,L|466:223,1,70,2|0,3:2|0:0,0:0:0:0:
450,304,2253,2,0,P|426:340|378:360,1,70,2|2,0:3|0:0,0:0:0:0:
322,330,2799,1,2,0:3:0:0:
155,311,3344,6,0,L|92:340,2,70,2|2|2,0:0|0:0|0:0,0:0:0:0:
80,160,4435,1,2,0:2:0:0:
100,53,4981,2,0,P|146:73|172:115,1,70,2|2,3:2|0:0,0:0:0:0:
181,169,5526,2,0,B|213:185|213:185|286:189,1,70,2|2,0:3|0:2,0:0:0:0:
320,144,6072,1,2,0:3:0:0:
456,116,6617,6,0,L|484:196,1,70,6|2,1:2|0:0,0:0:0:0:
484,268,7163,2,0,B|480:304|480:304|452:340,1,70,2|2,0:3|0:0,0:0:0:0:
379,357,7708,1,2,0:3:0:0:
212,339,8253,2,0,L|132:295,1,70,2|0,3:2|0:0,0:0:0:0:
69,328,8799,2,0,P|65:296|89:244,1,70,2|2,0:3|0:0,0:0:0:0:
126,193,9344,1,2,0:3:0:0:
158,27,9890,6,0,L|238:15,1,70,2|2,1:2|0:2,0:0:0:0:
312,32,10435,2,0,P|372:72|384:104,1,70,2|2,0:3|0:0,0:0:0:0:
404,144,10981,2,0,L|364:236,1,70,2|2,0:2|0:2,0:0:0:0:
376,292,11526,2,0,P|304:252|292:192,1,140,2|2,3:2|0:3,0:0:0:0:
304,32,12617,1,2,0:3:0:0:
180,148,13162,6,0,L|124:200,1,70,6|2,1:2|0:0,0:0:0:0:
60,244,13708,2,0,P|92:272|160:272,1,70,2|2,0:3|0:0,0:0:0:0:
200,262,14253,1,2,0:3:0:0:
246,100,14799,2,0,P|306:108|330:132,1,70,2|0,3:2|0:0,0:0:0:0:
387,74,15344,2,0,L|463:138,1,70,2|2,0:3|0:0,0:0:0:0:
462,200,15890,1,2,0:0:0:0:
306,263,16435,6,0,P|228:230|223:223,2,70,2|2|2,0:3|0:3|0:3,0:3:0:0:
229,112,17526,1,2,0:2:0:0:
150,140,17799,1,2,0:2:0:0:
124,220,18071,2,0,L|168:288,1,70,2|2,3:2|0:0,0:0:0:0:
240,244,18617,2,0,L|316:280,1,70,2|2,0:3|0:2,0:0:0:0:
388,284,19162,1,2,0:3:0:0:
432,212,19435,1,2,0:3:0:0:
416,124,19708,6,0,L|352:52,1,70,6|2,1:2|0:0,0:0:0:0:
288,56,20253,1,2,0:3:0:0:
288,140,20526,1,2,0:0:0:0:
348,200,20799,2,0,L|368:276,1,70,2|2,0:3|0:0,0:0:0:0:
300,324,21344,2,0,P|212:344|184:320,1,70,2|0,3:2|0:0,0:0:0:0:
228,268,21890,5,2,0:3:0:0:
204,188,22163,1,2,0:0:0:0:
236,112,22435,1,2,0:3:0:0:
392,172,22981,5,2,1:2:0:0:
376,256,23253,1,2,0:2:0:0:
300,296,23526,2,0,P|256:308|208:296,1,70,2|2,0:3|0:0,0:0:0:0:
172,248,24072,1,2,0:2:0:0:
196,168,24344,1,2,0:2:0:0:
188,84,24617,2,0,B|236:80|268:116|268:116|332:112,1,140,2|2,3:2|0:3,0:0:0:0:
484,148,25708,1,2,0:3:0:0:
324,200,26253,6,0,P|332:219|336:272,1,70,6|2,1:2|0:0,0:0:0:0:
264,312,26799,2,0,P|308:348|352:348,1,70,2|8,0:3|0:3,0:0:0:0:
400,332,27344,2,0,L|464:264,1,70,2|2,0:3|0:0,0:0:0:0:
476,200,27890,2,0,L|460:112,1,70,4|0,3:3|0:0,0:0:0:0:
404,72,28435,2,0,P|380:112|384:152,1,70,2|2,0:3|0:0,0:0:0:0:
368,216,28980,2,0,L|256:256,1,70,8|2,0:3|0:0,0:0:0:0:
224,272,29526,6,0,L|128:340,2,70,2|2|2,1:2|0:2|0:3,0:0:0:0:
176,112,30617,2,0,L|252:128,1,70,2|2,0:2|0:2,0:0:0:0:
312,176,31162,2,0,P|328:132|320:92,1,70,4|2,3:3|0:0,0:0:0:0:
364,32,31708,2,0,L|448:76,1,70,2|2,0:3|0:2,0:0:0:0:
452,144,32253,1,8,3:0:0:0:
412,216,32525,1,2,0:3:0:0:
348,272,32799,6,0,L|288:324,1,70,6|2,1:2|0:0,0:0:0:0:
216,344,33344,2,0,B|208:308|208:308|244:236,1,70,10|2,0:3|0:0,0:0:0:0:
264,204,33890,2,0,P|291:181|307:131,1,70,2|2,0:3|0:0,0:0:0:0:
350,79,34435,2,0,P|308:68|261:80,1,70,2|0,3:2|0:0,0:0:0:0:
197,71,34981,2,0,P|209:119|239:148,1,70,6|2,0:3|0:0,0:0:0:0:
264,204,35526,1,2,0:3:0:0:
123,295,36072,6,0,B|169:289|169:289|203:251,1,70,2|2,1:2|0:2,0:0:0:0:
243,331,36616,1,2,0:3:0:0:
299,269,36889,1,2,0:0:0:0:
349,335,37162,2,0,L|413:271,1,70,2|2,0:2|0:2,0:0:0:0:
432,208,37708,2,0,P|420:140|360:96,1,140,2|6,3:2|0:3,0:0:0:0:
256,232,38799,1,10,0:3:0:0:
184,80,39344,6,0,L|124:132,1,70,6|2,1:2|0:0,0:0:0:0:
168,204,39890,2,0,L|244:136,1,70,2|8,0:3|0:3,0:0:0:0:
296,200,40435,2,0,L|240:252,1,70,2|2,0:3|0:0,0:0:0:0:
176,296,40980,2,0,P|220:328|260:328,1,70,4|0,3:3|0:0,0:0:0:0:
320,332,41526,2,0,L|396:300,1,70,2|2,0:3|0:0,0:0:0:0:
464,276,42071,2,0,L|488:192,1,70,8|2,0:3|0:0,0:0:0:0:
464,128,42616,5,2,1:2:0:0:
396,76,42889,1,2,0:2:0:0:
324,32,43163,2,0,B|292:100|340:108|320:172,1,140,2|2,0:3|0:2,0:0:0:0:
240,144,43980,1,2,0:2:0:0:
228,228,44253,1,4,3:3:0:0:
308,256,44525,1,2,0:0:0:0:
368,316,44799,2,0,L|288:372,1,70,2|2,0:3|0:2,0:0:0:0:
224,368,45344,1,8,3:0:0:0:
156,320,45617,1,2,0:3:0:0:
152,236,45890,6,0,L|208:188,1,70,6|2,1:2|0:0,0:0:0:0:
264,128,46435,2,0,P|288:200|284:216,1,70,10|2,0:3|0:0,0:0:0:0:
264,272,46980,2,0,L|336:288,1,70,2|2,0:3|0:0,0:0:0:0:
416,304,47526,2,0,P|416:272|400:236,1,70,2|0,3:2|0:0,0:0:0:0:
344,176,48071,1,6,0:3:0:0:
276,124,48344,1,2,0:0:0:0:
316,52,48617,1,2,0:3:0:0:
164,124,49162,5,2,1:2:0:0:
100,56,49434,1,2,0:2:0:0:
44,120,49708,2,0,P|32:192|40:212,1,70,2|2,0:3|0:0,0:0:0:0:
60,264,50253,1,2,0:2:0:0:
120,324,50525,1,2,0:2:0:0:
200,352,50799,2,0,P|268:356|340:292,2,140,2|2|2,3:2|0:0|0:3,0:0:0:0:
226,185,52435,1,4,0:2:0:0:
