osu file format v14

[General]
AudioFilename: audio.mp3
AudioLeadIn: 0
PreviewTime: 37
Countdown: 0
SampleSet: Soft
StackLeniency: 0.7
Mode: 0
LetterboxInBreaks: 0
WidescreenStoryboard: 0

[Editor]
DistanceSpacing: 0.8
BeatDivisor: 1
GridSize: 4
TimelineZoom: 1.3

[Metadata]
Title:Fallen Down
TitleUnicode:Fallen Down
Artist:toby fox
ArtistUnicode:toby fox
Creator:Ward74
Version:Easy
Source:Undertale
Tags:Instrumental Video Game chiptune radiation leitmotif original midi soundtrack ost toriel asgore vgm aranel
BeatmapID:1337574
BeatmapSetID:631362

[Difficulty]
HPDrainRate:1
CircleSize:2
OverallDifficulty:1
ApproachRate:3
SliderMultiplier:1.2
SliderTickRate:1

[Events]
//Background and Video events
0,0,"xlIkI18.jpg",0,0
//Break Periods
//Storyboard Layer 0 (Background)
//Storyboard Layer 1 (Fail)
//Storyboard Layer 2 (Pass)
//Storyboard Layer 3 (Foreground)
//Storyboard Layer 4 (Overlay)
//Storyboard Sound Samples

[TimingPoints]
72,545.454545454546,3,2,0,55,1,0
26253,-100,3,2,0,70,0,0
26301,-100,3,2,0,70,0,0
32847,-100,3,2,0,70,0,0
49756,-100,3,2,0,70,0,0

[Colours]
Combo1 : 255,72,72
Combo2 : 0,217,217
Combo3 : 255,128,0
Combo4 : 198,198,0

[HitObjects]
92,44,72,6,0,P|92:160|112:184,1,120,6|2,1:2|0:3,0:0:0:0:
172,104,1162,1,2,0:3:0:0:
260,68,1708,2,0,L|288:208,1,120,2|2,3:2|0:3,0:0:0:0:
300,280,2799,1,2,0:3:0:0:
212,316,3344,6,0,B|184:276|184:276|152:312|104:312,1,120,2|2,1:2|0:3,0:0:0:0:
100,216,4435,1,2,0:2:0:0:
180,160,4981,2,0,P|152:132|56:124,2,120,2|2|2,3:2|0:3|0:3,0:0:0:0:
260,212,6617,5,6,1:2:0:0:
348,252,7163,2,0,L|472:204,1,120,2|2,0:3|0:3,0:0:0:0:
464,112,8253,2,0,L|336:160,1,120,2|2,3:2|0:3,0:0:0:0:
264,116,9344,1,2,0:3:0:0:
168,100,9890,6,0,B|180:164|180:164|229:216,1,120,2|2,1:2|0:3,0:0:0:0:
298,255,10981,1,2,0:2:0:0:
376,200,11526,2,0,P|436:188|504:220,2,120,2|2|2,3:2|0:3|0:3,0:0:0:0:
298,255,13162,5,6,1:2:0:0:
205,282,13708,2,0,P|129:267|88:194,1,120,2|2,0:3|0:3,0:0:0:0:
183,186,14799,1,2,3:2:0:0:
269,144,15344,2,0,B|309:136|329:128|329:128|349:144|405:156,1,120,2|2,0:3|0:3,0:0:0:0:
456,80,16435,6,0,P|482:152|459:217,1,120,2|2,1:2|0:3,0:0:0:0:
397,248,17526,1,2,0:2:0:0:
308,216,18072,2,0,P|237:213|172:256,2,120,2|2|2,3:2|0:3|0:3,0:0:0:0:
367,140,19708,6,0,P|400:192|378:282,1,120,6|2,1:2|0:3,0:0:0:0:
325,311,20798,1,2,0:3:0:0:
231,333,21344,2,0,L|95:309,1,120,2|2,3:2|0:3,0:0:0:0:
37,252,22435,1,2,0:3:0:0:
123,209,22981,6,0,L|273:236,1,120,2|2,1:2|0:3,0:0:0:0:
334,250,24072,1,2,0:2:0:0:
422,214,24617,2,0,P|386:170|282:170,2,120,2|2|2,3:2|0:3|0:3,0:0:0:0:
400,307,26253,6,0,B|336:323|336:291|272:307,1,120,6|2,1:2|0:3,0:0:0:0:
187,283,27344,1,2,0:3:0:0:
92,284,27890,2,0,P|108:228|184:188,1,120,4|2,3:3|0:3,0:0:0:0:
244,160,28981,1,8,0:3:0:0:
264,68,29526,6,0,B|327:87|310:114|373:133,1,120,2|2,1:2|0:3,0:0:0:0:
396,220,30617,1,2,0:2:0:0:
476,272,31162,2,0,P|492:216|460:148,2,120,4|2|8,3:3|0:3|3:0,0:0:0:0:
376,292,32799,6,0,P|256:273|247:274,1,120,6|10,1:2|0:3,0:0:0:0:
175,318,33890,1,2,0:3:0:0:
76,340,34435,2,0,P|88:268|136:224,1,120,2|6,3:2|0:3,0:0:0:0:
196,180,35526,1,2,0:3:0:0:
224,88,36072,6,0,B|300:132|300:132|372:136,1,120,2|2,1:2|0:3,0:0:0:0:
412,84,37162,1,2,0:2:0:0:
412,180,37708,2,0,P|364:220|300:220,2,120,2|6|10,3:2|0:3|0:3,0:0:0:0:
328,131,39344,5,6,1:2:0:0:
251,72,39890,2,0,L|67:48,1,120,2|2,0:3|0:3,0:0:0:0:
55,114,40981,1,4,3:3:0:0:
36,208,41526,2,0,L|109:303,1,120,2|8,0:3|0:3,0:0:0:0:
198,266,42617,6,0,P|262:202|336:204,1,120,2|2,1:2|0:3,0:0:0:0:
373,239,43708,1,2,0:2:0:0:
295,295,44253,2,0,P|359:335|430:323,2,120,4|2|8,3:3|0:3|3:0,0:0:0:0:
235,219,45890,6,0,L|140:101,1,120,6|10,1:2|0:3,0:0:0:0:
179,31,46980,1,2,0:3:0:0:
264,100,47526,2,0,P|324:72|372:8,1,120,2|6,3:2|0:3,0:0:0:0:
420,108,48617,1,2,0:3:0:0:
368,188,49162,6,0,B|364:236|356:252|356:252|372:277|372:308,1,120,2|2,1:2|0:3,0:0:0:0:
275,304,50253,1,2,0:2:0:0:
197,247,50799,2,0,P|142:220|58:250,2,120,2|2|2,3:2|0:0|0:3,0:0:0:0:
129,314,52435,1,4,0:2:0:0:
