osu file format v14

[General]
AudioFilename: audio.mp3
AudioLeadIn: 0
PreviewTime: 15
Countdown: 0
SampleSet: Soft
StackLeniency: 0.7
Mode: 0
LetterboxInBreaks: 0
WidescreenStoryboard: 1

[Editor]
DistanceSpacing: 1.6
BeatDivisor: 4
GridSize: 32
TimelineZoom: 1.6

[Metadata]
Title:Fallen Down
TitleUnicode:Fallen Down
Artist:toby fox
ArtistUnicode:toby fox
Creator:Kyrian
Version:Home
Source:UNDERTALE
Tags:Chiptune radiation leitmotif original midi soundtrack Video Game Instrumental OST Toriel Asgore SirAeon Spoes
BeatmapID:2646717
BeatmapSetID:1207132

[Difficulty]
HPDrainRate:5
CircleSize:4
OverallDifficulty:6.2
ApproachRate:7.5
SliderMultiplier:1
SliderTickRate:1

[Events]
//Background and Video events
0,0,"asriel-dreemurr-undertale-painting-asriel-wallpaper.jpg",0,0
//Break Periods
//Storyboard Layer 0 (Background)
//Storyboard Layer 1 (Fail)
//Storyboard Layer 2 (Pass)
//Storyboard Layer 3 (Foreground)
//Storyboard Layer 4 (Overlay)
//Storyboard Sound Samples

[TimingPoints]
72,545.454545454546,3,2,0,45,1,0
3890,-100,3,2,0,45,0,0
6617,-100,3,2,0,45,0,0
9344,-100,3,2,0,45,0,0
9890,-100,3,2,0,45,0,0
12617,-100,3,2,0,45,0,0
13162,-100,3,2,0,45,0,0
25708,-125,3,2,0,45,0,0
26117,-125,3,2,0,5,0,0
26253,-83.3333333333333,3,2,0,60,0,1
39344,-83.3333333333333,3,2,0,60,0,1
50799,-83.3333333333333,3,2,0,45,0,1
52435,-90.9090909090909,3,2,0,35,0,0
54072,-90.9090909090909,3,2,0,25,0,0
55708,-90.9090909090909,3,2,0,5,0,0

[Colours]
Combo1 : 121,121,189
Combo2 : 255,255,128
Combo3 : 255,128,255
Combo4 : 128,128,255

[HitObjects]
137,297,72,6,0,L|209:290,1,50,4|2,0:3|0:0,0:0:0:0:
259,260,617,2,0,L|308:264,1,50,2|2,0:3|0:0,0:0:0:0:
376,306,1162,1,2,0:3:0:0:
376,306,1435,1,2,0:0:0:0:
427,244,1708,6,0,L|431:194,1,50,8|2,0:3|0:0,0:0:0:0:
387,127,2253,2,0,L|382:77,1,50,2|2,0:3|0:0,0:0:0:0:
420,6,2799,1,2,0:3:0:0:
420,6,3072,1,2,0:0:0:0:
301,80,3344,5,4,0:3:0:0:
222,71,3617,1,2,0:0:0:0:
142,60,3890,2,0,P|112:113|126:169,1,100,2|2,0:3|0:3,0:0:0:0:
167,211,4708,1,2,0:0:0:0:
100,334,4981,6,0,L|39:328,2,50,8|2|2,0:3|0:0|0:3,0:0:0:0:
194,306,5799,1,2,0:0:0:0:
265,373,6072,2,0,L|325:367,1,50,2|2,0:3|0:3,0:0:0:0:
433,294,6617,6,0,P|441:266|438:231,1,50,4|2,0:3|0:0,0:0:0:0:
309,225,7162,2,0,P|329:245|360:261,1,50,2|2,0:3|0:0,0:0:0:0:
431,153,7708,2,0,P|402:160|373:179,1,50,2|2,0:3|0:0,0:0:0:0:
254,149,8253,6,0,L|249:92,1,50,8|2,0:3|0:0,0:0:0:0:
160,189,8799,2,0,L|164:132,1,50,2|2,0:3|0:0,0:0:0:0:
74,228,9344,1,2,0:3:0:0:
74,228,9890,6,0,L|78:284,1,50,4|2,0:3|0:0,0:0:0:0:
88,357,10435,2,0,L|144:352,1,50,2|2,0:3|0:0,0:0:0:0:
206,310,10981,1,2,0:3:0:0:
273,353,11253,1,2,0:0:0:0:
350,331,11526,5,8,0:3:0:0:
411,183,12072,1,2,0:3:0:0:
263,122,12617,1,2,0:3:0:0:
202,270,13162,6,0,L|146:265,1,50,4|2,0:3|0:0,0:0:0:0:
72,253,13708,2,0,L|67:197,1,50,2|2,0:3|0:0,0:0:0:0:
100,130,14253,1,2,0:3:0:0:
100,130,14526,1,2,0:0:0:0:
132,56,14799,6,0,L|188:51,1,50,8|2,0:3|0:0,0:0:0:0:
253,15,15344,2,0,L|302:19,1,50,2|2,0:3|0:0,0:0:0:0:
374,56,15890,1,2,0:3:0:0:
374,56,16162,1,2,0:0:0:0:
483,141,16435,5,4,0:3:0:0:
401,139,16708,1,2,0:0:0:0:
358,209,16981,2,0,P|317:236|268:234,1,100,2|2,0:3|0:3,0:0:0:0:
203,186,17799,1,2,0:0:0:0:
64,202,18072,6,0,L|15:206,2,50,8|2|2,0:3|0:0|0:3,0:0:0:0:
142,263,18890,1,2,0:0:0:0:
220,324,19162,2,0,L|224:373,1,50,2|2,0:3|0:3,0:0:0:0:
360,335,19708,6,0,P|368:307|365:272,1,50,4|2,0:3|0:0,0:0:0:0:
427,226,20253,2,0,P|402:209|368:201,1,50,2|2,0:3|0:0,0:0:0:0:
344,128,20799,2,0,P|321:145|302:176,1,50,2|2,0:3|0:0,0:0:0:0:
173,228,21344,6,0,L|228:232,1,50,8|2,0:3|0:0,0:0:0:0:
100,192,21890,2,0,L|76:141,1,50,2|2,0:3|0:0,0:0:0:0:
106,274,22435,1,2,0:3:0:0:
106,274,22981,6,0,L|101:329,1,50,4|2,0:3|0:0,0:0:0:0:
162,376,23526,2,0,L|217:371,1,50,2|2,0:3|0:0,0:0:0:0:
272,319,24072,1,2,0:3:0:0:
344,351,24344,1,2,0:0:0:0:
411,307,24617,5,8,0:3:0:0:
456,153,25162,1,6,0:3:0:0:
302,108,25708,2,0,L|225:114,1,60,6|0,0:3|0:0,0:0:0:0:
217,123,26253,6,0,L|157:118,1,60,4|2,0:3|0:0,0:0:0:0:
77,91,26799,1,2,0:3:0:0:
25,158,27072,1,2,0:0:0:0:
72,228,27344,2,0,L|131:232,1,60,2|2,0:3|0:0,0:0:0:0:
208,268,27890,6,0,L|267:263,1,60,8|2,0:3|0:0,0:0:0:0:
336,214,28435,1,2,0:3:0:0:
403,263,28708,1,2,0:0:0:0:
470,214,28981,2,0,L|474:154,1,60,2|2,0:3|0:0,0:0:0:0:
512,6,29526,5,4,0:3:0:0:
438,47,29799,1,2,0:0:0:0:
355,31,30072,2,0,P|285:24|234:64,1,119.999996337891,2|2,1:3|0:3,0:0:0:0:
199,125,30890,1,2,0:0:0:0:
66,81,31162,5,8,0:3:0:0:
148,195,31435,1,2,0:0:0:0:
149,55,31708,1,2,0:3:0:0:
66,168,31981,1,2,0:0:0:0:
199,125,32253,2,0,L|259:129,1,60,2|2,0:3|0:3,0:0:0:0:
342,137,32799,6,0,L|346:197,1,60,4|2,0:3|0:0,0:0:0:0:
295,263,33344,1,2,0:3:0:0:
216,233,33617,1,2,0:0:0:0:
148,283,33890,2,0,L|88:279,1,59.9999981689454,2|2,0:3|0:0,0:0:0:0:
76,195,34435,6,0,L|136:199,1,59.9999981689454,8|2,0:3|0:0,0:0:0:0:
206,149,34981,1,2,0:3:0:0:
281,184,35253,1,2,0:0:0:0:
422,123,35526,1,2,1:3:0:0:
422,123,36072,6,0,L|362:119,1,59.9999981689454,4|2,0:3|0:0,0:0:0:0:
284,86,36617,2,0,L|224:90,1,59.9999981689454,2|2,0:3|0:0,0:0:0:0:
154,136,37162,1,2,0:3:0:0:
74,107,37435,1,2,0:0:0:0:
21,174,37708,5,8,1:3:0:0:
4,341,38253,1,2,0:3:0:0:
171,358,38799,1,2,0:3:0:0:
188,191,39344,6,0,L|184:131,1,59.9999981689454,4|2,1:3|0:0,0:0:0:0:
224,57,39890,1,2,0:3:0:0:
158,5,40162,1,2,0:0:0:0:
88,51,40435,2,0,L|28:47,1,59.9999981689454,2|2,0:3|0:0,0:0:0:0:
14,130,40981,6,0,L|10:190,1,59.9999981689454,8|2,0:3|0:0,0:0:0:0:
60,256,41526,1,2,0:3:0:0:
12,323,41799,1,2,0:0:0:0:
79,371,42072,2,0,L|139:375,1,59.9999981689454,2|2,0:3|0:0,0:0:0:0:
287,329,42617,5,4,1:3:0:0:
360,370,42890,1,2,0:0:0:0:
440,347,43162,2,0,P|466:302|467:225,1,119.999996337891,2|2,0:3|0:3,0:0:0:0:
423,164,43981,1,2,0:0:0:0:
278,190,44253,5,8,0:3:0:0:
381,84,44526,1,2,0:0:0:0:
360,229,44799,1,2,0:3:0:0:
290,99,45072,1,2,0:0:0:0:
423,164,45344,2,0,L|483:160,1,59.9999981689454,2|2,0:3|0:3,0:0:0:0:
489,256,45890,6,0,L|485:316,1,59.9999981689454,4|2,1:3|0:0,0:0:0:0:
416,364,46435,2,0,L|356:360,1,59.9999981689454,2|2,0:3|0:0,0:0:0:0:
296,299,46981,1,2,0:3:0:0:
217,327,47253,1,2,0:0:0:0:
175,253,47526,6,0,L|115:249,1,59.9999981689454,12|2,0:3|0:0,0:0:0:0:
50,195,48072,2,0,L|54:135,1,59.9999981689454,2|2,0:3|0:0,0:0:0:0:
131,14,48617,1,2,1:3:0:0:
131,14,49162,6,0,P|159:4|188:9,1,59.9999981689454,4|2,0:3|0:0,0:0:0:0:
257,57,49708,2,0,P|285:65|317:61,1,59.9999981689454,2|2,0:3|0:0,0:0:0:0:
390,24,50253,1,2,0:3:0:0:
472,7,50526,1,2,0:0:0:0:
501,83,50799,5,12,0:3:0:0:
483,249,51344,1,2,1:3:0:0:
317,231,51890,1,6,0:3:0:0:
335,65,52435,5,6,0:0:0:0:
256,192,52708,12,0,57344,0:0:0:0:
