osu file format v14

[General]
AudioFilename: audio.mp3
AudioLeadIn: 0
PreviewTime: 57
Countdown: 0
SampleSet: Soft
StackLeniency: 0.7
Mode: 0
LetterboxInBreaks: 0
WidescreenStoryboard: 1

[Editor]
Bookmarks: 10491,31475
DistanceSpacing: 0.5
BeatDivisor: 4
GridSize: 8
TimelineZoom: 1.8

[Metadata]
Title:Enemy Approaching
TitleUnicode:Enemy Approaching
Artist:toby fox
ArtistUnicode:toby fox
Creator:TheShadowOfDark
Version:vs. Tactic's Normal
Source:UNDERTALE
Tags:[-griffin-] griffin tactic psiki myyrh immyyrh electronic 8bit 8-bit chiptune video game music vgm ost original soundtrack instrumental lnori Minase Tarantemo gay girls feet "radiation" radiation
BeatmapID:4240711
BeatmapSetID:2034033

[Difficulty]
HPDrainRate:3
CircleSize:3
OverallDifficulty:4
ApproachRate:5
SliderMultiplier:0.96
SliderTickRate:1

[Events]
//Background and Video events
0,0,"2-Tactic.png",0,0
//Break Periods
//Storyboard Layer 0 (Background)
//Storyboard Layer 1 (Fail)
//Storyboard Layer 2 (Pass)
//Storyboard Layer 3 (Foreground)
//Storyboard Layer 4 (Overlay)
//Storyboard Sound Samples

[TimingPoints]
139,327.868852459016,4,2,1,50,1,0
139,-100,4,2,1,50,0,0
8335,-100,4,2,1,50,0,0
8827,-100,4,2,1,60,0,0
10630,-100,4,2,1,70,0,0
31614,-100,4,2,1,60,0,0
34237,-100,4,2,1,70,0,0
39647,-100,4,2,1,80,0,0
42106,-100,4,2,1,70,0,0
50138,-100,4,2,1,80,0,0
52598,-100,4,2,1,50,0,0
54565,-100,4,2,1,40,0,0
54893,-100,4,2,1,30,0,0

[Colours]
Combo1 : 255,255,0
Combo2 : 245,126,44
Combo3 : 34,177,76
Combo4 : 236,95,0

[HitObjects]
112,192,466,6,0,L|256:192,1,144,10|10,3:2|3:2,0:0:0:0:
400,192,1450,2,0,L|400:128,2,48,10|0|0,3:2|3:0|3:0,0:0:0:0:
400,240,1942,1,10,3:2:0:0:
400,336,2270,2,0,L|256:336,1,144,10|0,3:2|3:0,0:0:0:0:
160,336,3089,5,10,3:2:0:0:
16,336,3581,1,10,3:2:0:0:
16,192,4073,2,0,B|160:192,1,144,8|10,3:2|3:2,0:0:0:0:
256,192,4893,1,0,3:0:0:0:
304,192,5057,1,8,3:2:0:0:
496,192,5712,6,0,L|496:48,1,144,10|10,3:2|3:2,0:0:0:0:
352,48,6696,2,0,L|352:208,1,144,10|10,3:2|3:2,0:0:0:0:
352,288,7516,1,10,3:2:0:0:
112,288,8335,5,10,3:2:0:0:
112,144,8827,1,10,3:2:0:0:
112,0,9319,2,0,L|224:0,1,96,10|8,3:2|3:2,0:0:0:0:
256,0,9811,1,10,3:2:0:0:
256,96,10138,2,0,B|272:88|272:88|288:96|288:96|304:88|304:88|320:96|320:96|336:88|336:88|352:96|352:96|368:88|368:88|384:96,1,144,0|6,3:0|3:2,0:0:0:0:
480,96,10958,5,10,0:0:0:0:
480,240,11450,1,2,3:2:0:0:
336,240,11942,2,0,L|224:240,1,96,2|10,3:2|0:0,0:0:0:0:
192,240,12434,1,2,3:2:0:0:
96,240,12761,2,0,L|40:240,2,48,2|10|2,3:2|0:0|3:2,0:0:0:0:
96,384,13581,5,10,0:0:0:0:
240,384,14073,1,2,3:2:0:0:
384,384,14565,2,0,L|496:384,1,96,2|8,3:2|0:0,0:0:0:0:
480,336,15057,2,0,L|480:192,1,144,2|10,3:2|0:0,0:0:0:0:
288,192,16204,5,10,0:0:0:0:
144,192,16696,1,2,3:2:0:0:
144,48,17188,2,0,L|240:48,1,96,2|10,3:2|0:0,0:0:0:0:
288,48,17679,1,2,3:2:0:0:
384,48,18007,2,0,L|448:48,2,48,2|10|2,3:2|0:0|3:2,0:0:0:0:
384,96,18499,5,10,0:0:0:0:
384,144,18663,1,10,0:0:0:0:
384,192,18827,1,12,0:0:0:0:
384,288,19155,2,0,L|432:288,2,48,10|10|12,0:0|0:0|0:0,0:0:0:0:
288,288,19811,1,10,0:0:0:0:
192,288,20138,1,14,0:0:0:0:
96,288,20466,1,14,0:0:0:0:
96,192,20794,2,0,L|96:144,1,48,10|2,0:0|3:2,0:0:0:0:
96,0,21450,5,10,0:0:0:0:
240,0,21942,1,2,3:2:0:0:
240,144,22434,2,0,L|352:144,1,96,2|10,3:2|0:0,0:0:0:0:
384,144,22925,1,2,3:2:0:0:
480,144,23253,2,0,L|480:80,2,48,2|10|2,3:2|0:0|3:2,0:0:0:0:
480,288,24073,6,0,L|320:288,1,144,10|2,0:0|3:2,0:0:0:0:
192,288,25057,1,2,3:2:0:0:
192,192,25384,1,8,0:0:0:0:
192,144,25548,2,0,L|32:144,1,144,2|10,3:2|0:0,0:0:0:0:
48,336,26696,5,10,0:0:0:0:
192,336,27188,1,2,3:2:0:0:
336,336,27679,2,0,L|432:336,1,96,2|10,3:2|0:0,0:0:0:0:
480,336,28171,1,2,3:2:0:0:
480,240,28499,1,2,3:2:0:0:
480,192,28663,2,0,L|480:144,1,48,10|2,0:0|3:2,0:0:0:0:
480,96,28991,6,0,L|480:48,2,48,10|10|12,0:0|0:0|0:0,0:0:0:0:
384,96,29647,1,8,0:0:0:0:
336,96,29811,1,8,0:0:0:0:
288,96,29975,1,12,0:0:0:0:
192,96,30302,1,8,0:0:0:0:
96,96,30630,1,12,0:0:0:0:
96,192,30958,1,12,0:0:0:0:
96,288,31286,2,0,L|96:352,1,48,10|2,0:0|3:2,0:0:0:0:
240,336,31942,5,10,0:0:0:0:
384,336,32434,1,2,3:2:0:0:
384,192,32925,2,0,L|384:96,1,96,2|10,3:2|0:0,0:0:0:0:
384,48,33417,2,0,L|256:48,1,96,2|2,3:2|3:2,0:0:0:0:
240,48,33909,1,10,0:0:0:0:
192,48,34073,1,2,3:2:0:0:
48,48,34565,6,0,L|48:192,2,144,10|2|2,0:0|3:2|3:2,0:0:0:0:
144,48,35876,1,10,0:0:0:0:
144,96,36040,2,0,L|144:256,1,144,2|8,3:2|0:0,2:0:0:0:
144,336,36860,1,0,3:0:0:0:
240,336,37188,5,10,0:0:0:0:
384,336,37679,1,2,3:2:0:0:
384,192,38171,1,2,3:2:0:0:
288,192,38499,1,10,0:0:0:0:
240,192,38663,2,0,L|128:192,1,96,2|2,3:2|3:2,0:0:0:0:
96,192,39155,1,10,0:0:0:0:
48,192,39319,1,2,3:2:0:0:
48,48,39811,5,14,0:0:0:0:
192,48,40302,1,14,0:0:0:0:
336,48,40794,1,14,0:0:0:0:
432,48,41122,1,8,0:0:0:0:
480,48,41286,2,0,L|480:208,1,144,14|10,0:0|0:0,0:0:0:0:
480,288,42106,1,6,3:2:0:0:
480,384,42434,5,10,0:0:0:0:
336,384,42925,1,2,3:2:0:0:
336,240,43417,1,2,3:2:0:0:
240,240,43745,1,10,0:0:0:0:
192,240,43909,2,0,L|80:240,1,96,2|2,3:2|3:2,0:0:0:0:
48,240,44401,1,10,0:0:0:0:
48,192,44565,1,2,3:2:0:0:
48,48,45057,6,0,L|224:48,2,144,10|2|2,0:0|3:2|3:2,0:0:0:0:
48,144,46368,1,10,0:0:0:0:
96,144,46532,2,0,L|240:144,1,144,2|8,3:2|0:0,0:0:0:0:
336,144,47352,1,0,3:0:0:0:
432,144,47679,5,10,0:0:0:0:
432,288,48171,1,2,3:2:0:0:
288,288,48663,1,2,3:2:0:0:
288,192,48991,1,10,0:0:0:0:
288,144,49155,2,0,L|288:48,1,96,2|2,3:2|3:2,0:0:0:0:
240,48,49647,1,10,0:0:0:0:
192,48,49811,1,2,3:2:0:0:
48,48,50302,5,12,0:0:0:0:
48,192,50794,1,12,0:0:0:0:
48,336,51286,1,14,0:0:0:0:
144,336,51614,1,8,0:0:0:0:
192,336,51778,2,0,L|352:336,1,144,14|10,0:0|0:0,0:0:0:0:
256,192,52599,12,10,53908,0:0:0:0:
256,208,54565,6,0,L|256:288,2,48,8|8|8,0:0|0:0|0:0,0:0:0:0:
256,160,55057,1,8,3:2:0:0:
