osu file format v14

[General]
AudioFilename: audio.mp3
AudioLeadIn: 0
PreviewTime: 57
Countdown: 0
SampleSet: Soft
StackLeniency: 0.7
Mode: 0
LetterboxInBreaks: 0
WidescreenStoryboard: 1

[Editor]
DistanceSpacing: 0.5
BeatDivisor: 4
GridSize: 32
TimelineZoom: 1.7

[Metadata]
Title:Enemy Approaching
TitleUnicode:Enemy Approaching
Artist:toby fox
ArtistUnicode:toby fox
Creator:TheShadowOfDark
Version:vs. Psiki's Hard
Source:UNDERTALE
Tags:[-griffin-] griffin tactic psiki myyrh immyyrh electronic 8bit 8-bit chiptune video game music vgm ost original soundtrack instrumental lnori Minase Tarantemo gay girls feet "radiation" radiation
BeatmapID:4240710
BeatmapSetID:2034033

[Difficulty]
HPDrainRate:4
CircleSize:4
OverallDifficulty:6
ApproachRate:7.5
SliderMultiplier:1.4
SliderTickRate:1

[Events]
//Background and Video events
0,0,"3-Psiki.png",0,0
//Break Periods
//Storyboard Layer 0 (Background)
//Storyboard Layer 1 (Fail)
//Storyboard Layer 2 (Pass)
//Storyboard Layer 3 (Foreground)
//Storyboard Layer 4 (Overlay)
//Storyboard Sound Samples

[TimingPoints]
139,327.868852459016,4,2,1,50,1,0
139,-100,4,2,1,50,0,0
8335,-100,4,2,1,50,0,0
8827,-100,4,2,1,60,0,0
10630,-90.9090909090909,4,2,1,70,0,0
31614,-90.9090909090909,4,2,1,60,0,0
31942,-83.3333333333333,4,2,1,60,0,0
34237,-83.3333333333333,4,2,1,70,0,0
39647,-83.3333333333333,4,2,1,80,0,0
42106,-83.3333333333333,4,2,1,70,0,0
50138,-83.3333333333333,4,2,1,80,0,0
52270,-100,4,2,1,80,0,0
52598,-100,4,2,1,50,0,0
54565,-100,4,2,1,40,0,0
54893,-100,4,2,1,30,0,0

[Colours]
Combo1 : 255,255,0
Combo2 : 245,126,44
Combo3 : 34,177,76
Combo4 : 236,95,0

[HitObjects]
91,97,466,6,0,P|143:83|216:129,1,140,10|0,3:2|3:0,0:0:0:0:
242,197,958,2,0,L|321:188,1,70,10|0,3:2|3:0,0:0:0:0:
389,219,1286,1,0,3:0:0:0:
460,155,1450,1,10,3:2:0:0:
460,155,1614,2,0,L|486:292,2,140,0|10|10,3:0|3:2|3:2,0:0:0:0:
389,219,2434,1,0,3:0:0:0:
91,97,3089,6,0,P|143:83|216:129,1,140,10|0,3:2|3:0,0:0:0:0:
242,197,3581,2,0,L|321:188,1,70,10|0,3:2|3:0,0:0:0:0:
389,219,3909,1,0,3:0:0:0:
402,301,4073,2,0,P|355:319|320:313,1,70,8|0,3:2|3:1,0:0:0:0:
329,319,4319,1,0,3:1:0:0:
322,318,4401,1,0,3:1:0:0:
251,364,4565,2,0,P|181:345|106:327,1,140,10|0,3:2|3:0,0:0:0:0:
34,306,5057,1,8,3:2:0:0:
91,97,5712,6,0,P|143:83|216:129,1,140,10|0,3:2|3:0,0:0:0:0:
242,197,6204,2,0,L|321:188,1,70,10|0,3:2|3:0,0:0:0:0:
389,219,6532,1,0,3:0:0:0:
460,155,6696,2,0,L|486:292,1,140,10|0,3:2|3:0,0:0:0:0:
427,350,7188,2,0,L|357:357,1,70,10|0,3:2|3:0,0:0:0:0:
284,325,7516,1,10,3:2:0:0:
284,325,7679,1,0,3:0:0:0:
91,97,8335,6,0,P|143:83|216:129,1,140,10|0,3:2|3:0,0:0:0:0:
242,197,8827,2,0,L|321:188,1,70,10|0,3:2|3:0,0:0:0:0:
389,219,9155,1,0,3:0:0:0:
456,127,9319,2,0,P|416:120|383:113,1,70,10|0,3:2|3:0,0:0:0:0:
380,112,9565,1,0,3:1:0:0:
373,110,9647,1,8,3:2:0:0:
342,37,9811,2,0,B|281:43|281:43|262:61|262:61|180:71,1,140,10|0,3:2|3:0,0:0:0:0:
202,68,10220,1,0,3:1:0:0:
195,69,10302,1,0,3:1:0:0:
119,35,10466,1,0,3:1:0:0:
72,107,10630,1,6,3:2:0:0:
79,273,10958,6,0,P|116:338|190:345,1,154.000004699707,10|0,0:0|3:0,0:0:0:0:
256,276,11450,2,0,P|297:266|348:253,1,77.0000023498536,2|8,3:2|0:0,0:0:0:0:
411,303,11778,1,0,3:0:0:0:
492,245,11942,2,0,L|460:94,1,154.000004699707,2|10,3:2|0:0,0:0:0:0:
354,58,12434,2,0,L|386:209,1,154.000004699707,2|2,3:2|3:2,0:0:0:0:
411,303,12925,1,10,0:0:0:0:
411,303,13089,1,2,3:2:0:0:
79,273,13581,6,0,P|116:338|190:345,1,154.000004699707,10|0,0:0|3:0,0:0:0:0:
256,276,14073,2,0,P|297:266|348:253,1,77.0000023498536,2|8,3:2|0:0,0:0:0:0:
411,303,14401,1,0,3:0:0:0:
471,207,14565,2,0,P|392:191|317:175,1,154.000004699707,2|8,3:2|0:0,0:0:0:0:
256,276,15057,2,0,P|243:211|207:124,1,154.000004699707,2|0,3:2|3:1,0:0:0:0:
167,57,15548,1,10,0:0:0:0:
167,57,15712,1,0,3:0:0:0:
79,273,16204,6,0,P|116:338|190:345,1,154.000004699707,10|0,0:0|3:0,0:0:0:0:
256,276,16696,2,0,P|297:266|348:253,1,77.0000023498536,2|8,3:2|0:0,0:0:0:0:
411,303,17024,1,0,3:0:0:0:
492,245,17188,2,0,P|448:219|443:117,1,154.000004699707,2|10,3:2|0:0,0:0:0:0:
368,0,17679,2,0,P|372:74|314:121,1,154.000004699707,2|2,3:2|3:2,0:0:0:0:
295,41,18171,1,10,0:0:0:0:
295,41,18335,1,2,3:2:0:0:
198,120,18499,5,10,0:0:0:0:
119,70,18663,1,10,0:0:0:0:
116,163,18827,1,12,0:0:0:0:
314,120,19155,5,10,0:0:0:0:
393,70,19319,1,10,0:0:0:0:
396,163,19483,1,12,0:0:0:0:
198,120,19811,5,10,0:0:0:0:
198,120,19975,1,0,3:2:0:0:
180,213,20138,2,0,P|218:213|259:191,2,77.0000023498536,14|0|14,0:0|3:0|0:0,0:0:0:0:
94,178,20630,1,2,3:2:0:0:
33,244,20794,1,10,0:0:0:0:
80,322,20958,1,2,3:2:0:0:
168,297,21122,2,0,L|263:307,1,77.0000023498536,6|0,3:2|3:1,0:0:0:0:
338,281,21450,6,0,P|327:204|313:129,1,154.000004699707,10|0,0:0|3:0,0:0:0:0:
241,65,21942,2,0,P|198:66|155:84,1,77.0000023498536,2|8,3:2|0:0,0:0:0:0:
99,12,22270,1,0,3:0:0:0:
16,49,22434,2,0,L|73:220,1,154.000004699707,2|10,3:2|0:0,0:0:0:0:
172,253,22925,2,0,P|101:228|32:287,1,154.000004699707,2|2,3:2|3:2,0:0:0:0:
13,349,23417,1,10,0:0:0:0:
13,349,23581,1,2,3:2:0:0:
338,281,24073,6,0,P|327:204|313:129,1,154.000004699707,10|0,0:0|3:0,0:0:0:0:
241,65,24565,2,0,P|198:66|155:84,1,77.0000023498536,2|8,3:2|0:0,0:0:0:0:
99,12,24893,1,0,3:0:0:0:
82,100,25057,2,0,P|133:165|205:161,1,154.000004699707,2|8,3:2|0:0,0:0:0:0:
284,166,25548,2,0,P|315:90|404:77,1,154.000004699707,2|0,3:2|3:1,0:0:0:0:
459,118,26040,2,0,P|484:151|508:187,2,77.0000023498536,10|0|0,0:0|3:0|3:0,0:0:0:0:
338,281,26696,6,0,P|327:204|313:129,1,154.000004699707,10|0,0:0|3:0,0:0:0:0:
241,65,27188,2,0,P|198:66|155:84,1,77.0000023498536,2|8,3:2|0:0,0:0:0:0:
99,12,27516,1,0,3:0:0:0:
16,49,27679,2,0,L|73:220,1,154.000004699707,2|10,3:2|0:0,0:0:0:0:
48,284,28171,2,0,P|129:263|208:242,1,154.000004699707,2|2,3:2|3:2,0:0:0:0:
257,177,28663,1,10,0:0:0:0:
257,177,28827,1,2,3:2:0:0:
306,268,28991,5,10,0:0:0:0:
383,215,29155,1,10,0:0:0:0:
390,308,29319,1,12,0:0:0:0:
206,268,29647,5,8,0:0:0:0:
129,215,29811,1,8,0:0:0:0:
122,308,29975,1,12,0:0:0:0:
306,268,30302,5,8,0:0:0:0:
306,268,30466,1,0,3:0:0:0:
257,177,30630,2,0,P|219:170|177:153,2,77.0000023498536,12|0|12,0:0|3:0|0:0,0:0:0:0:
306,268,31122,1,2,3:2:0:0:
379,207,31286,1,10,0:0:0:0:
462,252,31450,1,2,3:2:0:0:
444,345,31614,2,0,P|408:345|356:363,1,77.0000023498536,6|0,3:2|3:1,0:0:0:0:
245,362,31942,6,0,P|286:288|343:197,1,167.999994873047,10|0,0:0|3:0,0:0:0:0:
414,171,32434,2,0,P|321:159|249:98,1,167.999994873047,2|0,3:2|3:0,0:0:0:0:
244,39,32925,2,0,P|213:93|171:161,1,125.999996154785,2|0,3:2|0:0,0:0:0:0:
173,161,33253,1,10,0:0:0:0:
100,231,33417,2,0,P|24:201|7:111,1,167.999994873047,2|2,3:2|3:2,0:0:0:0:
39,28,33909,1,10,0:0:0:0:
113,95,34073,1,2,3:2:0:0:
188,28,34237,6,0,P|239:11|293:-2,1,83.9999974365235,0|0,3:0|3:0,2:0:0:0:
364,0,34565,2,0,P|371:42|379:87,2,83.9999974365235,10|0|0,0:0|3:0|3:0,0:0:0:0:
463,90,35057,2,0,P|455:47|448:3,2,83.9999974365235,2|8|0,3:2|0:0|3:0,0:0:0:0:
447,209,35548,5,2,3:2:0:0:
368,167,35712,1,0,3:0:0:0:
368,167,35876,1,10,0:0:0:0:
295,221,36040,2,0,P|230:170|147:167,1,167.999994873047,2|0,3:2|3:0,2:0:0:0:
48,174,36532,2,0,P|71:233|80:267,1,83.9999974365235,8|0,0:0|3:0,2:0:0:0:
124,357,36860,5,0,3:0:0:0:
203,316,37024,1,0,3:1:0:0:
203,316,37106,1,0,3:1:0:0:
203,316,37188,2,0,B|269:325|269:325|295:353|295:353|372:365,1,167.999994873047,10|0,0:0|3:0,0:0:0:0:
453,380,37679,2,0,P|447:330|411:288,1,83.9999974365235,2|8,3:2|0:0,0:0:0:0:
362,240,38007,1,0,3:0:0:0:
318,152,38171,6,0,P|391:156|426:164,1,83.9999974365235,2|0,3:2|0:0,0:0:0:0:
489,183,38499,1,10,0:0:0:0:
494,84,38663,2,0,P|483:51|352:13,1,167.999994873047,2|2,3:2|3:2,0:0:0:0:
273,56,39155,2,0,P|233:56|190:43,1,83.9999974365235,10|2,0:0|3:2,0:0:0:0:
72,0,39483,5,0,3:0:0:0:
14,82,39647,1,0,3:1:0:0:
14,82,39729,1,0,3:1:0:0:
14,82,39811,2,0,L|70:246,1,167.999994873047,14|0,0:0|3:0,0:0:0:0:
156,361,40302,2,0,L|210:202,1,167.999994873047,14|0,0:0|3:0,0:0:0:0:
255,89,40794,6,0,P|223:70|200:11,1,83.9999974365235,14|0,0:0|0:0,0:0:0:0:
298,4,41122,1,8,0:0:0:0:
386,50,41286,2,0,P|373:72|359:99,2,41.9999987182618,14|0|0,0:0|0:0|3:0,0:0:0:0:
470,0,41614,1,0,3:0:0:0:
511,81,41778,2,0,P|490:119|467:164,1,83.9999974365235,10|0,0:0|3:0,0:0:0:0:
472,245,42106,2,0,L|428:328,1,83.9999974365235,6|0,3:2|3:1,0:0:0:0:
426,332,42352,1,0,3:1:0:0:
418,345,42434,6,0,P|377:275|297:276,1,167.999994873047,10|0,0:0|3:0,0:0:0:0:
177,345,42925,2,0,P|257:345|297:275,1,167.999994873047,2|0,3:2|3:0,0:0:0:0:
245,191,43417,2,0,L|168:76,1,125.999996154785,2|0,3:2|0:0,0:0:0:0:
169,78,43745,1,10,0:0:0:0:
244,24,43909,2,0,P|302:-3|413:2,1,167.999994873047,2|2,3:2|3:2,0:0:0:0:
482,47,44401,1,10,0:0:0:0:
478,138,44565,1,2,3:2:0:0:
394,177,44729,6,0,P|341:151|303:131,1,83.9999974365235,0|0,3:2|3:0,0:0:0:0:
258,71,45057,2,0,P|223:104|166:132,2,83.9999974365235,10|0|0,0:0|3:0|3:0,0:0:0:0:
118,66,45548,2,0,P|153:33|210:5,2,83.9999974365235,2|8|0,3:2|0:0|3:0,0:0:0:0:
51,154,46040,5,2,3:2:0:0:
131,194,46204,1,0,3:0:0:0:
131,194,46368,1,10,0:0:0:0:
117,289,46532,2,0,P|167:260|292:221,1,167.999994873047,2|0,3:2|3:0,0:0:0:0:
347,177,47024,2,0,P|377:179|421:211,1,83.9999974365235,8|0,0:0|3:0,0:0:0:0:
496,302,47352,5,0,3:0:0:0:
411,330,47516,1,0,3:1:0:0:
411,330,47598,1,0,3:1:0:0:
411,330,47679,2,0,P|425:250|438:165,1,167.999994873047,10|0,0:0|3:0,0:0:0:0:
362,94,48171,2,0,L|343:193,1,83.9999974365235,2|8,3:2|0:0,0:0:0:0:
270,210,48499,1,0,3:0:0:0:
215,135,48663,6,0,P|149:138|102:162,1,83.9999974365235,2|0,3:2|0:0,0:0:0:0:
59,180,48991,1,10,0:0:0:0:
0,119,49155,2,0,L|51:291,1,167.999994873047,2|2,3:2|3:2,0:0:0:0:
79,371,49647,2,0,P|128:349|170:330,1,83.9999974365235,10|2,0:0|3:2,0:0:0:0:
270,276,49975,5,4,3:2:0:0:
304,373,50138,1,0,3:1:0:0:
304,373,50220,1,0,3:1:0:0:
304,373,50302,2,0,B|358:339|358:339|378:233,1,167.999994873047,12|0,0:0|3:0,0:0:0:0:
319,108,50794,2,0,B|264:141|264:141|244:247,1,167.999994873047,12|0,0:0|3:0,0:0:0:0:
177,356,51286,5,14,0:0:0:0:
113,286,51450,1,0,3:0:0:0:
113,286,51614,1,8,0:0:0:0:
8,340,51778,2,0,P|17:271|34:147,1,167.999994873047,14|0,0:0|3:0,0:0:0:0:
46,87,52270,1,10,0:0:0:0:
46,87,52434,1,0,3:0:0:0:
126,126,52598,6,0,P|171:108|229:75,1,105,12|0,3:2|0:0,0:0:0:0:
228,74,52925,1,8,3:2:0:0:
328,38,53089,2,0,B|266:11|207:104|300:191,1,210,2|0,3:2|3:0,0:0:0:0:
444,258,53909,5,10,0:0:0:0:
444,258,54073,2,0,B|529:243,1,70,8|8,0:0|0:0,0:0:0:0:
488,334,54401,1,10,0:0:0:0:
488,334,54565,2,0,B|403:349,1,70,8|8,0:0|0:0,0:0:0:0:
349,384,54893,1,8,0:0:0:0:
349,384,55057,1,8,3:2:0:0:
