osu file format v14

[General]
AudioFilename: audio.mp3
AudioLeadIn: 0
PreviewTime: 57
Countdown: 0
SampleSet: Soft
StackLeniency: 0.4
Mode: 0
LetterboxInBreaks: 0
WidescreenStoryboard: 1

[Editor]
Bookmarks: 9999,10491,41967,54918,56393
DistanceSpacing: 0.5
BeatDivisor: 4
GridSize: 32
TimelineZoom: 2.599999

[Metadata]
Title:Enemy Approaching
TitleUnicode:Enemy Approaching
Artist:toby fox
ArtistUnicode:toby fox
Creator:TheShadowOfDark
Version:vs. ImMyyrh's Insane
Source:UNDERTALE
Tags:[-griffin-] griffin tactic psiki myyrh immyyrh electronic 8bit 8-bit chiptune video game music vgm ost original soundtrack instrumental lnori Minase Tarantemo gay girls feet "radiation" radiation
BeatmapID:4240709
BeatmapSetID:2034033

[Difficulty]
HPDrainRate:5
CircleSize:4
OverallDifficulty:8
ApproachRate:9
SliderMultiplier:1.4
SliderTickRate:1

[Events]
//Background and Video events
0,0,"4-Myyrh.png",0,0
//Break Periods
//Storyboard Layer 0 (Background)
//Storyboard Layer 1 (Fail)
//Storyboard Layer 2 (Pass)
//Storyboard Layer 3 (Foreground)
//Storyboard Layer 4 (Overlay)
//Storyboard Sound Samples

[TimingPoints]
139,327.868852459016,4,2,1,50,1,0
139,-83.3333333333333,4,2,1,50,0,0
2598,-83.3333333333333,4,2,1,50,0,0
2761,-83.3333333333333,4,2,1,50,0,0
5057,-55.5555555555556,4,2,1,50,0,0
5384,-83.3333333333333,4,2,1,50,0,0
5548,-83.3333333333333,4,2,1,50,0,0
7843,-83.3333333333333,4,2,1,50,0,0
8007,-83.3333333333333,4,2,1,50,0,0
8335,-83.3333333333333,4,2,1,50,0,0
8827,-83.3333333333333,4,2,1,60,0,0
10630,-71.4285714285714,4,2,1,70,0,0
15057,-66.6666666666667,4,2,1,70,0,0
16040,-71.4285714285714,4,2,1,70,0,0
21122,-71.4285714285714,4,2,1,70,0,0
25548,-66.6666666666667,4,2,1,70,0,0
26368,-71.4285714285714,4,2,1,70,0,0
31614,-71.4285714285714,4,2,1,60,0,0
31778,-71.4285714285714,4,2,1,60,0,0
34237,-71.4285714285714,4,2,1,70,0,0
39647,-71.4285714285714,4,2,1,80,0,0
41286,-58.8235294117647,4,2,1,80,0,0
42106,-71.4285714285714,4,2,1,70,0,0
50138,-71.4285714285714,4,2,1,80,0,0
51286,-62.5,4,2,1,80,0,0
52598,-71.4285714285714,4,2,1,50,0,0
54565,-71.4285714285714,4,2,1,40,0,0
54893,-71.4285714285714,4,2,1,30,0,0

[Colours]
Combo1 : 255,255,0
Combo2 : 245,126,44
Combo3 : 34,177,76
Combo4 : 236,95,0

[HitObjects]
293,140,139,5,0,3:0:0:0:
293,140,302,1,0,3:1:0:0:
339,46,466,6,0,L|240:38,1,83.9999974365235,10|0,3:2|3:0,0:0:0:0:
165,135,794,1,0,3:0:0:0:
352,63,958,6,0,L|253:55,1,83.9999974365235,10|0,3:2|3:0,0:0:0:0:
178,152,1286,1,0,3:0:0:0:
40,55,1450,6,0,L|53:159,1,83.9999974365235,10|0,3:2|3:0,0:0:0:0:
191,169,1778,1,0,3:0:0:0:
53,72,1942,6,0,L|66:176,1,83.9999974365235,10|0,3:2|3:0,0:0:0:0:
40,55,2270,2,0,L|61:234,1,167.999994873047,10|0,3:2|3:0,0:0:0:0:
211,195,2761,5,0,3:0:0:0:
211,195,2925,1,0,3:1:0:0:
165,101,3089,6,0,L|264:93,1,83.9999974365235,10|0,3:2|3:0,0:0:0:0:
339,190,3417,1,0,3:0:0:0:
152,118,3581,6,0,L|251:110,1,83.9999974365235,10|0,3:2|3:0,0:0:0:0:
326,207,3909,1,0,3:0:0:0:
464,110,4073,6,0,L|451:214,1,83.9999974365235,8|0,3:2|3:1,0:0:0:0:
453,193,4319,1,0,3:1:0:0:
453,193,4401,1,0,3:1:0:0:
477,93,4565,2,0,L|456:272,1,167.999994873047,10|0,3:2|3:0,0:0:0:0:
368,381,5057,6,0,B|393:342|367:308|367:308|313:302|280:379|182:319,1,251.999992309571,8|0,3:2|3:0,0:0:0:0:
100,222,5548,1,0,3:0:0:0:
238,235,5712,6,0,L|226:137,1,83.9999974365235,10|0,3:2|3:0,0:0:0:0:
91,202,6040,1,0,3:0:0:0:
248,227,6204,6,0,L|236:129,1,83.9999974365235,10|0,3:2|3:0,0:0:0:0:
82,182,6532,1,0,3:0:0:0:
258,219,6696,6,0,L|246:121,1,83.9999974365235,10|0,3:2|3:0,0:0:0:0:
73,162,7024,1,0,3:0:0:0:
268,211,7188,6,0,L|256:113,1,83.9999974365235,10|0,3:2|3:0,0:0:0:0:
154,58,7516,2,0,L|175:234,1,167.999994873047,10|0,3:2|3:0,0:0:0:0:
359,320,8007,5,0,3:0:0:0:
359,320,8171,1,0,3:1:0:0:
472,230,8335,6,0,L|460:132,1,83.9999974365235,10|0,3:2|3:0,0:0:0:0:
359,335,8663,1,0,3:0:0:0:
264,220,8827,6,0,L|274:136,1,83.9999974365235,10|0,3:2|3:0,0:0:0:0:
359,350,9155,1,0,3:0:0:0:
486,222,9319,6,0,L|474:124,1,83.9999974365235,10|0,3:2|3:0,0:0:0:0:
475,128,9565,1,0,3:1:0:0:
474,117,9647,1,8,3:2:0:0:
356,28,9811,6,0,B|280:12|275:86|199:68,1,167.999994873047,10|0,3:2|3:0,0:0:0:0:
184,63,10220,1,0,3:1:0:0:
177,78,10302,1,0,3:1:0:0:
162,72,10384,1,0,3:1:0:0:
155,87,10466,1,0,3:1:0:0:
139,81,10548,1,0,3:1:0:0:
132,96,10630,1,6,3:2:0:0:
1,201,10794,5,0,3:1:0:0:
5,235,10876,1,0,3:1:0:0:
34,251,10958,2,0,P|78:239|120:203,1,97.9999970092774,10|0,0:0|3:0,0:0:0:0:
339,231,11286,5,0,3:0:0:0:
282,180,11450,2,0,P|238:192|196:228,1,97.9999970092774,2|8,3:2|0:0,0:0:0:0:
353,361,11778,5,0,3:0:0:0:
416,296,11942,2,0,L|542:321,2,97.9999970092774,2|0|10,3:2|3:0|0:0,0:0:0:0:
270,320,12434,2,0,L|90:283,1,146.999995513916,2|0,3:2|0:0,0:0:0:0:
126,290,12761,5,2,3:2:0:0:
24,235,12925,1,10,0:0:0:0:
45,352,13089,1,2,3:2:0:0:
130,182,13253,5,0,3:0:0:0:
209,231,13417,1,0,3:1:0:0:
235,199,13499,1,0,3:1:0:0:
260,174,13581,2,0,P|321:155|377:162,1,97.9999970092774,10|0,0:0|3:0,0:0:0:0:
507,94,13909,5,0,3:0:0:0:
414,50,14073,2,0,L|436:156,1,97.9999970092774,2|8,3:2|0:0,0:0:0:0:
275,301,14401,5,0,3:0:0:0:
348,254,14565,2,0,L|355:146,1,97.9999970092774,2|0,3:2|3:1,0:0:0:0:
237,19,14893,5,8,0:0:0:0:
166,74,15057,1,2,3:2:0:0:
132,60,15138,1,0,3:1:0:0:
98,45,15220,2,0,L|40:21,2,52.5000020027161,0|0|0,3:1|3:1|3:1,0:0:0:0:
46,215,15548,5,10,0:0:0:0:
101,136,15712,1,0,3:0:0:0:
167,201,15876,1,0,3:0:0:0:
241,122,16040,5,0,3:1:0:0:
266,99,16122,1,0,3:1:0:0:
292,76,16204,2,0,P|356:74|399:100,1,97.9999970092774,10|0,0:0|3:0,0:0:0:0:
512,233,16532,5,0,3:0:0:0:
429,267,16696,2,0,P|365:269|322:243,1,97.9999970092774,2|8,3:2|0:0,0:0:0:0:
241,122,17024,5,0,3:0:0:0:
170,191,17188,2,0,L|146:91,2,97.9999970092774,2|0|10,3:2|3:0|0:0,0:0:0:0:
84,253,17679,2,0,P|155:238|223:265,1,146.999995513916,2|0,3:2|0:0,0:0:0:0:
222,264,18007,5,2,3:2:0:0:
309,343,18171,1,10,0:0:0:0:
197,378,18335,1,2,3:2:0:0:
344,199,18499,5,10,0:0:0:0:
403,384,18663,1,10,0:0:0:0:
490,233,18827,1,12,0:0:0:0:
168,199,19155,5,10,0:0:0:0:
109,384,19319,1,10,0:0:0:0:
22,233,19483,1,12,0:0:0:0:
309,343,19811,6,0,P|259:340|206:331,1,97.9999970092774,10|0,0:0|3:2,0:0:0:0:
360,235,20138,1,14,0:0:0:0:
455,364,20302,1,0,3:0:0:0:
455,205,20466,1,14,0:0:0:0:
361,333,20630,1,2,3:2:0:0:
512,284,20794,1,10,0:0:0:0:
360,235,20958,2,0,P|312:232|264:243,1,97.9999970092774,2|6,3:2|3:2,0:0:0:0:
44,359,21286,5,0,3:1:0:0:
74,342,21368,1,0,3:1:0:0:
104,326,21450,2,0,P|128:284|129:235,1,97.9999970092774,10|0,0:0|3:0,0:0:0:0:
88,35,21778,5,0,3:0:0:0:
45,121,21942,2,0,L|168:111,1,97.9999970092774,2|8,3:2|0:0,0:0:0:0:
355,80,22270,5,0,3:0:0:0:
248,58,22434,1,2,3:2:0:0:
282,145,22598,1,0,3:0:0:0:
236,43,22761,1,10,0:0:0:0:
213,213,22925,2,0,P|250:190|371:182,1,146.999995513916,2|0,3:2|0:0,0:0:0:0:
350,177,23253,5,2,3:2:0:0:
478,213,23417,1,10,0:0:0:0:
512,111,23581,1,2,3:2:0:0:
394,267,23745,5,0,3:0:0:0:
478,213,23909,1,0,3:1:0:0:
498,240,23991,1,0,3:1:0:0:
508,272,24073,2,0,P|498:331|445:372,1,97.9999970092774,10|0,0:0|3:0,0:0:0:0:
244,244,24401,5,0,3:0:0:0:
333,193,24565,2,0,P|372:223|394:267,1,97.9999970092774,2|8,3:2|0:0,0:0:0:0:
160,379,24893,5,0,3:0:0:0:
72,334,25057,2,0,P|56:281|30:211,1,97.9999970092774,2|0,3:2|3:1,0:0:0:0:
154,100,25384,5,8,0:0:0:0:
259,122,25548,1,2,3:2:0:0:
292,106,25630,1,0,3:1:0:0:
324,89,25712,2,0,L|380:60,2,52.5000020027161,0|0|0,3:1|3:1|3:1,0:0:0:0:
230,34,26040,5,10,0:0:0:0:
259,122,26204,1,0,3:0:0:0:
200,189,26368,1,0,3:0:0:0:
332,281,26532,5,0,3:1:0:0:
362,265,26614,1,0,3:1:0:0:
390,245,26696,2,0,P|423:198|419:148,1,97.9999970092774,10|0,0:0|3:0,0:0:0:0:
230,34,27024,5,0,3:0:0:0:
143,75,27188,2,0,P|110:60|31:55,1,97.9999970092774,2|8,3:2|0:0,0:0:0:0:
0,220,27516,5,0,3:0:0:0:
90,178,27679,1,2,3:2:0:0:
132,268,27843,1,0,3:0:0:0:
42,310,28007,1,10,0:0:0:0:
200,189,28171,2,0,P|274:207|334:258,1,146.999995513916,2|0,3:2|0:0,0:0:0:0:
328,250,28499,5,2,3:2:0:0:
356,384,28663,1,10,0:0:0:0:
246,330,28827,1,2,3:2:0:0:
109,384,28991,5,10,0:0:0:0:
195,203,29155,1,10,0:0:0:0:
24,252,29319,1,12,0:0:0:0:
403,384,29647,5,8,0:0:0:0:
317,203,29811,1,8,0:0:0:0:
488,252,29975,1,12,0:0:0:0:
203,343,30302,6,0,P|253:340|306:331,1,97.9999970092774,8|0,0:0|3:0,0:0:0:0:
152,235,30630,1,12,0:0:0:0:
57,364,30794,1,0,3:0:0:0:
57,205,30958,1,12,0:0:0:0:
151,333,31122,1,2,3:2:0:0:
0,284,31286,1,10,0:0:0:0:
152,235,31450,2,0,P|200:232|248:243,1,97.9999970092774,2|6,3:2|3:2,0:0:0:0:
480,319,31778,5,0,3:1:0:0:
454,294,31860,1,0,3:1:0:0:
429,270,31942,2,0,P|392:210|383:147,1,97.9999970092774,10|0,0:0|3:0,0:0:0:0:
415,49,32270,1,0,3:0:0:0:
284,212,32434,2,0,P|303:142|346:85,1,97.9999970092774,2|8,3:2|0:0,0:0:0:0:
431,50,32761,1,0,3:0:0:0:
203,95,32925,6,0,P|255:48|347:8,1,146.999995513916,2|0,3:2|0:0,0:0:0:0:
324,14,33253,1,10,0:0:0:0:
498,176,33417,2,0,B|370:146,1,97.9999970092774,2|0,3:2|3:0,0:0:0:0:
203,95,33745,5,2,3:2:0:0:
159,182,33909,1,10,0:0:0:0:
70,147,34073,1,2,3:2:0:0:
167,191,34237,2,0,B|206:223|191:257|229:290,1,97.9999970092774,0|0,3:0|3:0,0:0:0:0:
386,235,34565,5,10,0:0:0:0:
362,345,34729,1,0,3:0:0:0:
386,235,34893,1,0,3:0:0:0:
471,372,35057,1,2,3:2:0:0:
498,261,35220,1,8,0:0:0:0:
471,372,35384,1,0,3:0:0:0:
386,235,35548,6,0,P|311:209|217:182,1,146.999995513916,2|0,3:2|0:0,0:0:0:0:
246,189,35876,1,10,0:0:0:0:
86,141,36040,2,0,P|138:125|210:86,1,97.9999970092774,2|0,3:2|3:0,2:0:0:0:
262,11,36368,1,0,3:0:0:0:
312,98,36532,1,8,0:0:0:0:
277,11,36696,1,0,3:0:0:0:
327,98,36860,1,0,3:0:0:0:
465,0,37024,5,0,3:1:0:0:
486,26,37106,1,0,3:1:0:0:
492,59,37188,2,0,P|492:109|470:156,1,97.9999970092774,10|0,0:0|3:0,0:0:0:0:
299,202,37516,1,0,3:0:0:0:
512,223,37679,2,0,P|465:241|393:244,1,97.9999970092774,2|8,3:2|0:0,0:0:0:0:
297,187,38007,1,0,3:0:0:0:
439,335,38171,6,0,P|353:316|287:279,1,146.999995513916,2|0,3:2|0:0,0:0:0:0:
284,281,38499,1,10,0:0:0:0:
124,384,38663,2,0,P|171:374|237:354,1,97.9999970092774,2|0,3:2|0:3,0:0:0:0:
445,200,38991,5,2,3:2:0:0:
419,297,39155,1,10,0:0:0:0:
349,224,39319,1,2,3:2:0:0:
200,275,39483,6,0,L|179:162,1,97.9999970092774,0|0,3:0|3:1,0:0:0:0:
180,166,39729,1,0,3:1:0:0:
176,151,39811,1,14,0:0:0:0:
17,30,39975,1,0,3:0:0:0:
98,215,40138,1,0,3:0:0:0:
243,29,40302,5,14,0:0:0:0:
57,122,40466,1,0,3:0:0:0:
276,210,40630,1,0,3:0:0:0:
158,54,40794,6,0,L|175:150,1,97.9999970092774,14|0,0:0|3:0,0:0:0:0:
209,328,41122,1,8,0:0:0:0:
361,147,41286,2,0,P|486:165|311:284,1,476.00000907898,14|0,0:0|3:0,0:0:0:0:
224,216,42106,1,6,3:2:0:0:
18,330,42270,5,0,3:1:0:0:
10,296,42352,1,0,3:1:0:0:
22,264,42434,2,0,P|69:236|127:230,1,97.9999970092774,10|0,0:0|3:0,0:0:0:0:
257,253,42761,1,0,3:0:0:0:
71,143,42925,2,0,P|134:148|181:165,1,97.9999970092774,2|8,3:2|0:0,0:0:0:0:
266,269,43253,1,0,3:0:0:0:
192,80,43417,6,0,P|268:125|317:182,1,146.999995513916,2|0,3:2|0:0,0:0:0:0:
307,167,43745,1,10,0:0:0:0:
443,2,43909,2,0,P|385:7|314:26,1,97.9999970092774,2|0,3:2|3:0,0:0:0:0:
192,80,44237,5,2,3:2:0:0:
128,8,44401,1,10,0:0:0:0:
187,88,44565,1,2,3:2:0:0:
81,102,44729,2,0,B|38:113|60:186|-2:183,1,97.9999970092774,0|0,3:2|3:0,0:0:0:0:
150,345,45057,5,10,0:0:0:0:
126,235,45220,1,0,3:0:0:0:
150,345,45384,1,0,3:0:0:0:
14,261,45548,1,2,3:2:0:0:
41,372,45712,1,8,0:0:0:0:
14,261,45876,1,0,3:0:0:0:
150,345,46040,6,0,P|229:326|319:292,1,146.999995513916,2|0,3:2|0:0,0:0:0:0:
290,304,46368,1,10,0:0:0:0:
414,221,46532,2,0,L|439:334,1,97.9999970092774,2|0,3:2|3:0,0:0:0:0:
480,157,46860,1,0,3:0:0:0:
379,129,47024,1,8,0:0:0:0:
485,148,47188,1,0,3:0:0:0:
384,120,47352,1,0,3:0:0:0:
290,223,47516,5,0,3:1:0:0:
260,241,47598,1,0,3:1:0:0:
226,240,47679,2,0,P|191:201|173:148,1,97.9999970092774,10|0,0:0|3:0,0:0:0:0:
236,57,48007,1,0,3:0:0:0:
74,193,48171,2,0,P|95:133|128:88,1,97.9999970092774,2|8,3:2|0:0,0:0:0:0:
248,68,48499,1,0,3:0:0:0:
12,44,48663,6,0,P|86:18|188:16,1,146.999995513916,2|0,3:2|0:0,0:0:0:0:
153,12,48991,1,10,0:0:0:0:
348,104,49155,2,0,L|330:4,1,97.9999970092774,2|0,3:2|3:0,0:0:0:0:
401,250,49483,5,2,3:2:0:0:
302,227,49647,1,10,0:0:0:0:
294,326,49811,1,2,3:2:0:0:
88,293,49975,6,0,L|181:263,1,97.9999970092774,4|0,3:2|3:1,0:0:0:0:
193,261,50220,1,0,3:1:0:0:
205,258,50302,1,12,0:0:0:0:
303,123,50466,1,0,3:0:0:0:
375,308,50630,1,0,3:0:0:0:
483,127,50794,5,12,0:0:0:0:
302,227,50958,1,0,3:0:0:0:
494,295,51122,1,0,3:0:0:0:
303,123,51286,6,0,P|229:134|151:177,1,112,14|0,0:0|3:0,0:0:0:0:
417,220,51614,1,10,0:0:0:0:
359,13,51778,2,0,P|222:36|126:74,1,224,14|0,0:0|3:0,0:0:0:0:
36,264,52270,1,10,0:0:0:0:
0,52,52434,1,0,3:0:0:0:
209,228,52598,5,12,3:2:0:0:
222,245,52925,1,0,3:0:0:0:
205,258,53253,1,0,3:0:0:0:
192,241,53581,1,0,3:0:0:0:
506,216,53909,5,10,0:0:0:0:
384,191,54073,1,8,0:0:0:0:
512,203,54237,1,8,0:0:0:0:
341,300,54401,5,10,0:0:0:0:
438,280,54565,1,8,0:0:0:0:
336,289,54729,1,8,0:0:0:0:
424,380,54893,5,8,0:0:0:0:
416,371,55057,1,8,3:2:0:0:
