osu file format v14

[General]
AudioFilename: audio.mp3
AudioLeadIn: 0
PreviewTime: 57
Countdown: 0
SampleSet: Soft
StackLeniency: 0.7
Mode: 0
LetterboxInBreaks: 0
WidescreenStoryboard: 1

[Editor]
Bookmarks: 327,2950
DistanceSpacing: 1.2
BeatDivisor: 4
GridSize: 32
TimelineZoom: 1.3

[Metadata]
Title:Enemy Approaching
TitleUnicode:Enemy Approaching
Artist:toby fox
ArtistUnicode:toby fox
Creator:TheShadowOfDark
Version:vs. Griffin's Easy
Source:UNDERTALE
Tags:[-griffin-] griffin tactic psiki myyrh immyyrh electronic 8bit 8-bit chiptune video game music vgm ost original soundtrack instrumental lnori Minase Tarantemo gay girls feet "radiation" radiation
BeatmapID:4240708
BeatmapSetID:2034033

[Difficulty]
HPDrainRate:2
CircleSize:3
OverallDifficulty:2
ApproachRate:4
SliderMultiplier:0.7
SliderTickRate:1

[Events]
//Background and Video events
0,0,"1-Griffin.png",0,0
//Break Periods
//Storyboard Layer 0 (Background)
//Storyboard Layer 1 (Fail)
//Storyboard Layer 2 (Pass)
//Storyboard Layer 3 (Foreground)
//Storyboard Layer 4 (Overlay)
//Storyboard Sound Samples

[TimingPoints]
139,327.868852459016,4,2,1,50,1,0
139,-111.111111111111,4,2,1,50,0,0
8007,-111.111111111111,4,2,1,50,0,0
8827,-111.111111111111,4,2,1,60,0,0
10630,-100,4,2,1,70,0,0
21450,-100,4,2,1,70,0,0
31614,-100,4,2,1,60,0,0
31942,-90.9090909090909,4,2,1,60,0,0
34237,-90.9090909090909,4,2,1,70,0,0
39647,-90.9090909090909,4,2,1,80,0,0
39811,-90.9090909090909,4,2,1,80,0,0
42106,-90.9090909090909,4,2,1,70,0,0
50138,-90.9090909090909,4,2,1,80,0,0
52598,-90.9090909090909,4,2,1,50,0,0
54565,-90.9090909090909,4,2,1,40,0,0
54893,-90.9090909090909,4,2,1,30,0,0

[Colours]
Combo1 : 255,255,0
Combo2 : 245,126,44
Combo3 : 34,177,76
Combo4 : 236,95,0

[HitObjects]
3,40,466,6,0,P|51:19|103:17,1,94.499997116089,10|10,3:2|3:2,0:0:0:0:
170,111,1450,2,0,P|225:99|263:68,1,94.499997116089,10|10,3:2|3:2,0:0:0:0:
314,20,2270,1,10,3:2:0:0:
510,76,3089,2,0,L|491:181,1,94.499997116089,10|10,3:2|3:2,0:0:0:0:
466,289,4073,2,0,P|420:270|383:222,1,94.499997116089,8|10,3:2|3:2,0:0:0:0:
323,134,5057,1,8,3:2:0:0:
157,122,5712,6,0,L|204:21,2,94.499997116089,10|10|10,3:2|3:2|3:2,0:0:0:0:
93,227,7188,1,10,3:2:0:0:
167,260,7516,2,0,P|225:255|275:230,1,94.499997116089,10|0,3:2|3:0,0:0:0:0:
328,199,8335,2,0,B|364:184|364:184|432:193,1,94.499997116089,10|10,3:2|3:2,0:0:0:0:
510,273,9319,1,10,3:2:0:0:
426,362,9811,2,0,B|355:355|355:355|340:365|340:365|269:355,1,157.499995193482,10|6,3:2|3:2,0:0:0:0:
183,342,10958,5,10,0:0:0:0:
120,232,11450,1,2,3:2:0:0:
42,326,11942,2,0,P|19:301|3:217,1,105,2|2,3:2|3:2,0:0:0:0:
23,152,12761,2,0,L|9:104,2,35,2|10|2,3:2|0:0|3:2,0:0:0:0:
120,232,13581,1,10,0:0:0:0:
242,203,14073,1,2,3:2:0:0:
315,305,14565,2,0,B|378:288|378:288|429:227|421:126,1,210,2|10,3:2|0:0,0:0:0:0:
335,8,16204,5,10,0:0:0:0:
250,101,16696,1,2,3:2:0:0:
146,28,17188,2,0,P|103:26|34:47,2,105,2|2|10,3:2|3:2|0:0,0:0:0:0:
226,50,18499,2,0,L|255:127,1,70,10|12,0:0|0:0,0:0:0:0:
235,198,19155,2,0,L|264:275,1,70,8|12,0:0|0:0,0:0:0:0:
216,336,19811,2,0,L|145:357,2,70,10|14|14,0:0|0:0|0:0,0:0:0:0:
295,362,20794,1,10,0:0:0:0:
461,337,21450,5,10,0:0:0:0:
402,225,21942,1,2,3:2:0:0:
502,148,22434,2,0,P|466:112|415:99,1,105,2|2,3:2|3:2,0:0:0:0:
341,58,23253,2,0,L|329:4,2,35,2|10|2,3:2|0:0|3:2,0:0:0:0:
242,136,24073,2,0,L|123:113,1,105,10|2,0:0|3:2,0:0:0:0:
46,29,25057,2,0,B|-1:95|-1:95|46:218,1,210,2|10,3:2|0:0,0:0:0:0:
3,378,26696,6,0,L|119:361,1,105,10|2,0:0|3:2,0:0:0:0:
210,290,27679,1,2,3:2:0:0:
310,365,28171,2,0,P|375:365|423:344,1,105,2|10,3:2|0:0,0:0:0:0:
461,282,28991,2,0,L|431:205,1,70,10|12,0:0|0:0,0:0:0:0:
370,163,29647,2,0,L|340:86,1,70,8|12,0:0|0:0,0:0:0:0:
320,17,30302,2,0,L|401:-5,2,70,8|12|12,0:0|0:0|0:0,0:0:0:0:
236,17,31286,1,10,0:0:0:0:
163,187,31942,5,10,0:0:0:0:
52,103,32434,1,2,3:2:0:0:
9,234,32925,2,0,P|39:302|101:340,1,115.50000352478,2|2,3:2|3:2,0:0:0:0:
162,324,33745,2,0,L|222:343,2,38.5000011749268,2|10|2,3:2|0:0|3:2,0:0:0:0:
130,188,34565,2,0,L|95:52,1,115.50000352478,10|2,0:0|3:2,0:0:0:0:
223,10,35548,1,2,3:2:0:0:
343,78,36040,1,2,3:2:0:0:
480,59,36532,2,0,P|478:113|459:152,1,77.0000023498536,8|0,0:0|3:0,2:0:0:0:
417,210,37188,5,10,0:0:0:0:
402,347,37679,1,2,3:2:0:0:
270,304,38171,2,0,P|240:256|238:177,1,115.50000352478,2|2,3:2|3:2,0:0:0:0:
290,125,38991,2,0,L|361:147,2,38.5000011749268,2|10|2,3:2|0:0|3:2,0:0:0:0:
163,67,39811,2,0,P|104:59|46:75,1,115.50000352478,14|14,0:0|0:0,0:0:0:0:
34,210,40794,1,14,0:0:0:0:
170,238,41286,2,0,L|351:171,1,192.500005874634,14|6,0:0|3:2,0:0:0:0:
437,138,42434,5,10,0:0:0:0:
503,259,42925,1,2,3:2:0:0:
397,348,43417,2,0,P|344:335|277:318,1,115.50000352478,2|2,3:2|3:2,0:0:0:0:
199,284,44237,2,0,L|148:292,2,38.5000011749268,2|10|2,3:2|0:0|3:2,0:0:0:0:
294,183,45057,1,10,0:0:0:0:
211,71,45548,1,2,3:2:0:0:
76,104,46040,2,0,L|46:226,1,115.50000352478,2|2,3:2|3:2,0:0:0:0:
16,351,47024,2,0,L|120:322,1,77.0000023498536,8|0,0:0|3:0,0:0:0:0:
178,304,47679,5,10,0:0:0:0:
299,371,48171,1,2,3:2:0:0:
425,308,48663,2,0,P|464:268|477:189,1,115.50000352478,2|2,3:2|3:2,0:0:0:0:
460,120,49483,2,0,L|511:108,2,38.5000011749268,2|10|2,3:2|0:0|3:2,0:0:0:0:
329,74,50302,2,0,L|199:110,1,115.50000352478,12|12,0:0|0:0,0:0:0:0:
151,226,51286,1,14,0:0:0:0:
14,200,51778,2,0,P|13:257|39:309,1,115.50000352478,14|10,0:0|0:0,0:0:0:0:
118,354,52598,5,12,0:0:0:0:
256,192,52925,12,8,55056,3:2:0:0:
