osu file format v14

[General]
AudioFilename: audio.mp3
AudioLeadIn: 0
PreviewTime: 57
Countdown: 0
SampleSet: Soft
StackLeniency: 0.2
Mode: 0
LetterboxInBreaks: 0
WidescreenStoryboard: 0

[Editor]
Bookmarks: 10471,18340,20963,28832,31455,52439,54898
DistanceSpacing: 0.5
BeatDivisor: 4
GridSize: 32
TimelineZoom: 3.399999

[Metadata]
Title:Enemy Approaching
TitleUnicode:Enemy Approaching
Artist:toby fox
ArtistUnicode:toby fox
Creator:TheShadowOfDark
Version:vs. ...
Source:UNDERTALE
Tags:[-griffin-] griffin tactic psiki myyrh immyyrh electronic 8bit 8-bit chiptune video game music vgm ost original soundtrack instrumental lnori Minase Tarantemo gay girls feet "radiation" radiation
BeatmapID:4240707
BeatmapSetID:2034033

[Difficulty]
HPDrainRate:6
CircleSize:4
OverallDifficulty:8.6
ApproachRate:9.2
SliderMultiplier:2
SliderTickRate:1

[Events]
//Background and Video events
0,0,"5-Shadow.png",0,0
//Break Periods
//Storyboard Layer 0 (Background)
//Storyboard Layer 1 (Fail)
//Storyboard Layer 2 (Pass)
//Storyboard Layer 3 (Foreground)
//Storyboard Layer 4 (Overlay)
//Storyboard Sound Samples

[TimingPoints]
139,327.868852459016,4,2,1,50,1,0
139,-100,4,2,1,50,0,0
8827,-83.3333333333333,4,2,1,60,0,0
9319,-71.4285714285714,4,2,1,60,0,0
9811,-166.666666666667,4,2,1,60,0,0
10630,-66.6666666666667,4,2,1,70,0,0
18499,-55.5555555555556,4,2,1,70,0,0
21122,-66.6666666666667,4,2,1,70,0,0
28991,-55.5555555555556,4,2,1,70,0,0
31614,-60.6060606060606,4,2,1,60,0,0
34237,-74.0740740740741,4,2,1,70,0,0
36860,-60.6060606060606,4,2,1,70,0,0
39647,-51.2820512820513,4,2,1,80,0,0
41286,-46.5116279069767,4,2,1,80,0,0
42106,-60.6060606060606,4,2,1,70,0,0
44729,-74.0740740740741,4,2,1,70,0,0
47352,-60.6060606060606,4,2,1,70,0,0
50138,-51.2820512820513,4,2,1,80,0,0
51778,-46.5116279069767,4,2,1,80,0,0
52598,-133.333333333333,4,2,1,50,0,0
54565,-133.333333333333,4,2,1,40,0,0
54893,-133.333333333333,4,2,1,30,0,0

[Colours]
Combo1 : 255,255,0
Combo2 : 245,126,44
Combo3 : 34,177,76
Combo4 : 236,95,0

[HitObjects]
72,339,139,5,0,3:0:0:0:
117,260,302,1,0,3:0:0:0:
14,263,466,2,0,B|61:247|61:247|110:250,1,100,10|0,3:2|3:0,0:0:0:0:
225,218,794,1,0,3:0:0:0:
134,170,958,2,0,B|183:180|183:180|224:207,1,100,10|0,3:2|3:0,0:0:0:0:
337,236,1286,1,0,3:0:0:0:
283,148,1450,2,0,B|322:181|322:181|342:225,1,100,10|0,3:2|3:0,0:0:0:0:
426,302,1778,1,0,3:0:0:0:
423,203,1942,2,0,B|441:252|441:252|435:299,1,100,10|0,3:2|3:0,0:0:0:0:
438,195,2270,2,0,B|456:244|456:244|450:291,1,100,10|0,3:2|3:0,0:0:0:0:
370,382,2598,5,0,3:0:0:0:
332,299,2761,1,0,3:0:0:0:
197,319,2925,5,0,3:0:0:0:
190,326,3007,1,0,3:1:0:0:
183,333,3089,2,0,B|161:286|161:286|119:255,2,100,10|0|0,3:2|3:0|3:0,0:0:0:0:
201,207,3581,2,0,B|205:156|205:156|184:107,2,100,10|0|0,3:2|3:0|3:0,0:0:0:0:
279,106,4073,1,8,3:2:0:0:
121,168,4237,1,0,3:1:0:0:
115,170,4319,1,0,3:1:0:0:
109,172,4401,1,0,3:1:0:0:
218,31,4565,2,0,B|284:16|284:16|337:31|337:31|430:9,1,200,10|0,3:2|3:0,0:0:0:0:
421,11,4975,1,0,3:1:0:0:
431,9,5057,1,8,3:2:0:0:
279,106,5220,5,0,3:0:0:0:
362,120,5384,1,0,3:0:0:0:
273,118,5548,1,0,3:0:0:0:
130,0,5712,6,0,B|129:51|129:51|164:113,1,100,10|0,3:2|3:0,0:0:0:0:
170,190,6040,1,0,3:0:0:0:
71,151,6204,2,0,B|110:184|110:184|179:197,1,100,10|0,3:2|3:0,0:0:0:0:
242,242,6532,1,0,3:0:0:0:
148,293,6696,2,0,B|198:284|198:284|253:239,1,100,10|0,3:2|3:0,0:0:0:0:
327,220,7024,1,0,3:0:0:0:
305,324,7188,2,0,B|331:279|331:279|331:208,1,100,10|0,3:2|3:0,0:0:0:0:
316,328,7516,2,0,B|342:283|342:283|342:212,1,100,10|0,3:2|3:0,0:0:0:0:
205,154,7843,5,0,3:0:0:0:
232,239,8007,1,0,3:0:0:0:
302,99,8171,5,0,3:1:0:0:
309,106,8253,1,0,3:1:0:0:
316,114,8335,2,0,B|368:119|368:119|417:101,2,100,10|0|0,3:2|3:0|3:0,0:0:0:0:
177,42,8827,2,0,B|116:36|116:36|60:57,2,119.999996337891,10|0|0,3:2|3:0|3:0,0:0:0:0:
322,122,9319,2,0,B|394:130|394:130|465:101,1,139.999995727539,10|0,3:2|3:0,0:0:0:0:
465,101,9565,1,0,3:1:0:0:
474,97,9647,1,8,3:2:0:0:
170,35,9811,6,0,B|109:29|109:29|53:50,1,119.999996337891,10|0,3:2|3:0,0:0:0:0:
60,55,10220,1,0,3:1:0:0:
66,61,10302,1,0,3:1:0:0:
72,67,10384,1,0,3:1:0:0:
78,73,10466,1,0,3:1:0:0:
84,79,10548,1,0,3:1:0:0:
90,85,10630,6,0,B|109:105|123:149|57:154|50:190|76:227,1,150.000005722046,6|0,3:2|3:1,0:0:0:0:
7,304,10876,2,0,P|34:299|53:305,1,37.5000014305115,0|0,3:1|0:0,0:0:0:0:
0,314,10958,2,0,B|45:291|74:325|74:325|100:353|154:330,1,150.000005722046,10|0,0:0|3:0,0:0:0:0:
343,257,11286,1,0,3:0:0:0:
200,209,11450,2,0,B|188:254|188:254|237:289|235:366,1,150.000005722046,2|8,3:2|0:0,0:0:0:0:
308,91,11778,1,0,3:0:0:0:
343,257,11942,6,0,B|272:255|292:148|391:151|444:225,1,225.000008583069,2|0,3:2|0:0,0:0:0:0:
512,285,12270,2,0,P|481:306|445:314,1,75.0000028610231,10|0,0:0|0:0,0:0:0:0:
320,274,12434,2,0,B|231:208|190:338|67:260,1,225.000008583069,2|0,3:2|0:0,0:0:0:0:
0,221,12761,1,2,3:2:0:0:
208,308,12925,1,10,0:0:0:0:
11,365,13089,1,2,3:2:0:0:
88,132,13253,6,0,B|174:119|144:190|232:170,1,150.000005722046,0|0,3:0|3:1,0:0:0:0:
349,135,13499,2,0,P|337:146|325:165,1,37.5000014305115,0|0,3:1|0:0,0:0:0:0:
361,136,13581,2,0,B|319:181|309:220|322:288,1,150.000005722046,10|0,0:0|3:0,0:0:0:0:
490,243,13909,1,0,3:0:0:0:
276,374,14073,2,0,B|348:361|348:361|357:364|357:364|444:350,1,150.000005722046,2|8,3:2|0:0,0:0:0:0:
201,240,14401,1,0,3:0:0:0:
33,374,14565,5,2,3:2:0:0:
30,362,14647,1,0,3:1:0:0:
27,350,14729,1,0,3:1:0:0:
24,338,14811,1,0,3:1:0:0:
21,326,14893,2,0,P|26:277|48:233,1,75.0000028610231,8|0,0:0|0:0,0:0:0:0:
143,138,15057,5,2,3:2:0:0:
136,143,15138,1,0,3:1:0:0:
131,148,15220,1,0,3:1:0:0:
124,153,15302,1,0,3:1:0:0:
119,158,15384,1,0,3:1:0:0:
112,163,15466,1,0,3:1:0:0:
107,168,15548,2,0,B|28:150|66:84|-2:74,2,150.000005722046,10|0|0,0:0|3:0|3:0,0:0:0:0:
486,40,16040,6,0,L|442:32,1,37.5000014305115,0|0,3:1|0:0,0:0:0:0:
482,46,16122,2,0,L|438:38,1,37.5000014305115,0|0,3:1|0:0,0:0:0:0:
478,52,16204,2,0,L|330:25,1,150.000005722046,10|0,0:0|3:0,0:0:0:0:
150,66,16532,1,0,3:0:0:0:
297,239,16696,2,0,B|342:225|367:162|367:162|338:126,1,150.000005722046,2|8,3:2|0:0,0:0:0:0:
180,314,17024,1,0,3:0:0:0:
0,109,17188,6,0,B|123:83|82:217|209:176,1,225.000008583069,2|0,3:2|0:0,0:0:0:0:
268,160,17516,2,0,P|235:116|211:107,1,75.0000028610231,10|0,0:0|0:0,0:0:0:0:
25,265,17679,2,0,P|66:192|221:197,1,225.000008583069,2|0,3:2|0:0,0:0:0:0:
297,239,18007,1,2,3:2:0:0:
444,173,18171,1,10,0:0:0:0:
389,357,18335,1,2,3:2:0:0:
152,154,18499,6,0,L|179:249,1,89.9999972534181,10|0,0:0|0:0,0:0:0:0:
25,384,18663,2,0,L|0:297,1,89.9999972534181,10|0,0:0|0:0,0:0:0:0:
0,109,18827,1,12,0:0:0:0:
360,154,19155,6,0,L|333:249,1,89.9999972534181,10|0,0:0|0:0,0:0:0:0:
487,384,19319,2,0,L|511:297,1,89.9999972534181,10|0,0:0|0:0,0:0:0:0:
512,109,19483,1,12,0:0:0:0:
160,368,19811,6,0,P|158:338|177:274,1,89.9999972534181,10|0,0:0|0:0,0:0:0:0:
352,368,19975,2,0,P|354:338|335:274,1,89.9999972534181,0|0,3:2|0:2,0:0:0:0:
127,191,20138,1,14,0:0:0:0:
384,192,20302,1,0,3:0:0:0:
96,48,20466,1,14,0:0:0:0:
416,48,20630,1,2,3:2:0:0:
256,272,20794,1,10,0:0:0:0:
256,0,20958,1,2,3:2:0:0:
485,258,21122,6,0,B|507:218|434:165|384:192,1,150.000005722046,6|0,3:2|3:1,0:0:0:0:
245,182,21368,2,0,B|262:233,1,37.5000014305115,0|0,3:1|0:0,0:0:0:0:
235,188,21450,2,0,B|261:258|261:258|260:271|260:271|316:322,1,150.000005722046,10|0,0:0|3:0,0:0:0:0:
339,74,21778,1,0,3:0:0:0:
135,253,21942,2,0,B|94:263|94:263|34:225|23:145,1,150.000005722046,2|8,3:2|0:0,0:0:0:0:
207,104,22270,1,0,3:0:0:0:
311,279,22434,6,0,B|432:320|501:259|486:198|424:177,1,225.000008583069,2|0,3:2|0:0,0:0:0:0:
431,124,22761,2,0,P|400:143|382:175,1,75.0000028610231,10|0,0:0|0:0,0:0:0:0:
301,371,22925,2,0,P|250:268|153:159,1,225.000008583069,2|0,3:2|0:0,0:0:0:0:
89,178,23253,1,2,3:2:0:0:
311,279,23417,1,10,0:0:0:0:
207,104,23581,1,2,3:2:0:0:
23,307,23745,6,0,P|105:300|191:279,1,150.000005722046,0|0,3:0|3:1,0:0:0:0:
318,190,23991,2,0,P|336:192|359:206,1,37.5000014305115,0|0,3:1|0:0,0:0:0:0:
321,196,24073,2,0,P|393:230|451:306,1,150.000005722046,10|0,0:0|3:0,0:0:0:0:
224,202,24401,1,0,3:0:0:0:
279,92,24565,2,0,P|378:113|450:168,1,150.000005722046,2|8,3:2|0:0,0:0:0:0:
375,22,24893,1,0,3:0:0:0:
188,123,25057,5,2,3:2:0:0:
176,120,25138,1,0,3:1:0:0:
164,117,25220,1,0,3:1:0:0:
152,114,25302,1,0,3:1:0:0:
140,111,25384,2,0,P|102:111|61:133,1,75.0000028610231,8|0,0:0|0:0,0:0:0:0:
0,270,25548,5,2,3:2:0:0:
4,263,25630,1,0,3:1:0:0:
8,257,25712,1,0,3:1:0:0:
12,251,25794,1,0,3:1:0:0:
16,245,25876,1,0,3:1:0:0:
20,239,25958,1,0,3:1:0:0:
24,233,26040,2,0,B|106:233|46:334|130:335,2,150.000005722046,10|0|0,0:0|3:0|3:0,0:0:0:0:
360,361,26532,6,0,L|398:348,1,37.5000014305115,0|0,3:1|0:0,0:0:0:0:
365,367,26614,2,0,L|403:354,1,37.5000014305115,0|0,3:1|0:0,0:0:0:0:
370,373,26696,2,0,B|452:345|452:345|459:310|486:286,1,150.000005722046,10|0,0:0|3:0,0:0:0:0:
250,233,27024,1,0,3:0:0:0:
399,98,27188,2,0,P|391:148|462:107,1,150.000005722046,2|8,3:2|0:0,0:0:0:0:
481,290,27516,1,0,3:0:0:0:
236,149,27679,6,0,B|167:165|166:229|166:229|164:294|94:307,1,225.000008583069,2|0,3:2|0:0,0:0:0:0:
15,236,28007,2,0,P|49:222|86:225,1,75.0000028610231,10|0,0:0|0:0,0:0:0:0:
207,335,28171,2,0,B|245:309|250:233|250:233|279:301|350:307,1,225.000008583069,2|0,3:2|0:0,0:0:0:0:
287,383,28499,1,2,3:2:0:0:
169,213,28663,1,10,0:0:0:0:
122,384,28827,1,2,3:2:0:0:
315,195,28991,6,0,L|403:181,1,89.9999972534181,10|0,0:0|0:0,0:0:0:0:
486,366,29155,2,0,L|397:352,1,89.9999972534181,10|0,0:0|0:0,0:0:0:0:
512,144,29319,1,12,0:0:0:0:
197,195,29647,6,0,L|108:181,1,89.9999972534181,8|0,0:0|0:0,0:0:0:0:
26,366,29811,2,0,L|114:352,1,89.9999972534181,8|0,0:0|0:0,0:0:0:0:
0,144,29975,1,12,0:0:0:0:
352,368,30302,6,0,P|354:338|335:274,1,89.9999972534181,8|0,0:0|0:0,0:0:0:0:
160,368,30466,2,0,P|158:338|177:274,1,89.9999972534181,0|0,3:0|0:0,0:0:0:0:
384,192,30630,1,12,0:0:0:0:
128,192,30794,1,0,3:0:0:0:
416,48,30958,1,12,0:0:0:0:
96,48,31122,1,2,3:2:0:0:
256,256,31286,1,10,0:0:0:0:
256,0,31450,1,2,3:2:0:0:
14,216,31614,6,0,B|39:148|191:125|104:226,1,165.000001573563,6|0,3:2|3:1,0:0:0:0:
174,375,31860,2,0,P|152:358|122:341,1,41.2500003933907,0|0,3:1|0:0,0:0:0:0:
158,384,31942,2,0,P|92:334|18:298,1,165.000001573563,10|0,0:0|3:0,0:0:0:0:
224,192,32270,1,0,3:0:0:0:
80,24,32434,2,0,P|143:72|242:117,1,165.000001573563,2|8,3:2|0:0,0:0:0:0:
14,216,32761,1,0,3:0:0:0:
256,341,32925,6,0,B|305:370|348:331|350:293|350:293|354:252|391:215|451:232,1,247.500002360344,2|0,3:2|0:0,0:0:0:0:
497,334,33253,2,0,P|458:323|423:301,1,82.5000007867813,10|0,0:0|2:0,2:0:0:0:
251,153,33417,2,0,B|181:206|83:191|83:191|121:173|139:149,1,247.500002360344,2|0,3:2|0:0,0:0:0:0:
233,77,33745,2,0,P|274:79|308:102,1,82.5000007867813,2|0,3:2|0:0,0:0:0:0:
382,126,33909,2,0,P|359:160|322:177,1,82.5000007867813,10|0,0:0|0:0,0:0:0:0:
266,229,34073,2,0,P|247:193|251:153,1,82.5000007867813,2|0,3:2|0:0,0:0:0:0:
375,31,34237,6,0,P|462:23|521:14,1,135.000000514984,0|0,3:0|3:0,2:0:0:0:
474,168,34565,1,10,0:0:0:0:
382,126,34729,1,0,3:0:0:0:
392,226,34893,1,0,3:0:0:0:
471,158,35057,1,2,3:2:0:0:
374,132,35220,1,8,0:0:0:0:
401,230,35384,1,0,3:0:0:0:
266,229,35548,6,0,P|170:263|89:336,1,202.500000772476,2|0,3:2|0:0,0:0:0:0:
94,328,35876,1,10,0:0:0:0:
32,231,36040,2,0,P|118:250|282:347,1,270.000001029968,2|0,3:2|3:0,2:0:0:0:
464,384,36532,2,0,P|404:353|352:309,1,135.000000514984,8|0,0:0|3:0,2:0:0:0:
266,229,36860,1,0,3:0:0:0:
456,122,37024,6,0,L|464:165,1,41.2500003933907,0|0,3:1|0:0,0:0:0:0:
463,128,37106,2,0,L|471:171,1,41.2500003933907,0|0,3:1|0:0,0:0:0:0:
470,134,37188,2,0,L|500:295,1,165.000001573563,10|0,0:0|3:0,0:0:0:0:
512,44,37516,1,0,3:0:0:0:
332,143,37679,2,0,P|222:118|151:89,1,165.000001573563,2|8,3:2|0:0,0:0:0:0:
266,229,38007,1,0,3:0:0:0:
55,62,38171,6,0,B|47:-2|-34:3|-52:92|-16:161|81:192,1,247.500002360344,2|0,3:2|0:0,0:0:0:0:
16,252,38499,2,0,P|64:251|112:208,1,82.5000007867813,10|0,0:0|0:0,0:0:0:0:
244,98,38663,2,0,B|317:127|302:199|302:199|286:270|367:295,1,247.500002360344,2|0,3:2|0:0,0:0:0:0:
490,358,38991,2,0,L|407:351,1,82.5000007867813,2|0,3:2|0:0,0:0:0:0:
310,360,39155,2,0,L|356:291,1,82.5000007867813,10|0,0:0|0:0,0:0:0:0:
399,203,39319,2,0,L|434:277,1,82.5000007867813,2|0,3:2|0:0,0:0:0:0:
490,358,39483,1,0,3:0:0:0:
191,316,39647,6,0,P|165:300|149:263,1,48.7500001859665,0|0,3:1|0:0,0:0:0:0:
181,325,39729,2,0,P|155:309|139:272,1,48.7500001859665,0|0,3:1|0:0,0:0:0:0:
170,334,39811,2,0,P|107:260|83:166,1,195.000000743866,14|0,0:0|3:0,0:0:0:0:
22,358,40138,1,0,3:0:0:0:
342,334,40302,2,0,P|404:260|428:166,1,195.000000743866,14|0,0:0|3:0,0:0:0:0:
490,358,40630,1,0,3:0:0:0:
398,75,40794,6,0,P|256:43|115:75,1,292.500001115799,14|0,0:0|0:0,0:0:0:0:
114,75,41122,1,8,0:0:0:0:
449,291,41286,2,0,P|256:372|63:291,1,430.000006561279,14|0,0:0|3:0,0:0:0:0:
32,32,41778,1,10,0:0:0:0:
256,288,41942,1,0,3:2:0:0:
480,32,42106,6,0,B|429:-7|379:105|486:170,1,165.000001573563,6|0,3:2|3:1,0:0:0:0:
512,290,42352,2,0,P|493:268|474:255,1,41.2500003933907,0|0,3:1|0:0,0:0:0:0:
506,305,42434,2,0,P|452:257|366:210,1,165.000001573563,10|0,0:0|3:0,0:0:0:0:
214,113,42761,1,0,3:0:0:0:
256,288,42925,2,0,P|183:248|121:195,1,165.000001573563,2|8,3:2|0:0,0:0:0:0:
32,32,43253,1,0,3:0:0:0:
43,264,43417,6,0,B|22:215|22:215|42:123|156:57,1,247.500002360344,2|0,3:2|0:0,0:0:0:0:
179,0,43745,2,0,P|217:12|258:27,1,82.5000007867813,10|0,0:0|0:0,0:0:0:0:
378,169,43909,2,0,B|283:131|214:113|214:113|287:103,1,247.500002360344,2|0,3:2|0:0,0:0:0:0:
416,98,44237,2,0,P|447:126|459:165,1,82.5000007867813,2|0,3:2|0:0,0:0:0:0:
341,238,44401,2,0,P|349:198|377:168,1,82.5000007867813,10|0,0:0|0:0,0:0:0:0:
499,234,44565,2,0,P|460:246|420:237,1,82.5000007867813,2|0,3:2|0:0,0:0:0:0:
220,224,44729,6,0,P|269:295|310:364,1,135.000000514984,0|0,3:2|3:0,0:0:0:0:
148,384,45057,1,10,0:0:0:0:
93,301,45220,1,0,3:0:0:0:
0,340,45384,1,0,3:0:0:0:
152,374,45548,1,2,3:2:0:0:
97,291,45712,1,8,0:0:0:0:
4,330,45876,1,0,3:0:0:0:
236,331,46040,6,0,B|284:320|329:363|329:363|334:296|398:283,1,202.500000772476,2|0,3:2|0:0,0:0:0:0:
383,286,46368,1,10,0:0:0:0:
511,309,46532,2,0,P|388:254|272:185,1,270.000001029968,2|0,3:2|3:0,0:0:0:0:
82,181,47024,2,0,P|146:209|204:247,1,135.000000514984,8|0,0:0|3:0,0:0:0:0:
236,331,47352,1,0,3:0:0:0:
457,171,47516,6,0,P|445:147|419:120,1,41.2500003933907,0|0,3:1|0:0,0:0:0:0:
463,163,47598,2,0,P|451:139|425:112,1,41.2500003933907,0|0,3:1|0:0,0:0:0:0:
469,154,47679,2,0,P|417:89|344:53,1,165.000001573563,10|0,0:0|3:0,0:0:0:0:
175,204,48007,1,0,3:0:0:0:
44,0,48171,2,0,B|78:42|78:42|152:44|194:78,1,165.000001573563,2|8,3:2|0:0,0:0:0:0:
323,205,48499,1,0,3:0:0:0:
480,14,48663,6,0,B|397:-50|329:117|467:59|471:173,1,247.500002360344,2|0,3:2|0:0,0:0:0:0:
502,230,48991,2,0,P|449:234|407:205,1,82.5000007867813,10|0,0:0|0:0,0:0:0:0:
313,65,49155,2,0,P|239:134|135:253,1,247.500002360344,2|0,3:2|0:0,0:0:0:0:
78,293,49483,2,0,P|35:273|6:243,1,82.5000007867813,2|0,3:2|0:0,0:0:0:0:
0,169,49647,2,0,P|38:141|79:131,1,82.5000007867813,10|0,0:0|0:0,0:0:0:0:
147,163,49811,2,0,P|151:210|139:250,1,82.5000007867813,2|0,3:2|0:0,0:0:0:0:
78,293,49975,1,4,3:2:0:0:
416,96,50138,6,0,L|442:167,1,48.7500001859665,0|0,3:1|0:0,0:0:0:0:
428,97,50220,2,0,L|454:168,1,48.7500001859665,0|0,3:1|0:0,0:0:0:0:
440,98,50302,2,0,B|482:216|482:216|467:288,1,195.000000743866,14|0,0:0|3:0,0:0:0:0:
352,0,50630,1,0,3:0:0:0:
72,98,50794,2,0,B|29:216|29:216|45:288,1,195.000000743866,14|0,0:0|3:0,0:0:0:0:
160,0,51122,1,0,3:0:0:0:
398,309,51286,6,0,P|256:341|115:309,1,292.500001115799,14|0,0:0|0:0,0:0:0:0:
115,309,51614,1,8,0:0:0:0:
449,92,51778,2,0,P|255:11|62:93,1,430.000006561279,14|0,0:0|3:0,0:0:0:0:
32,352,52270,1,10,0:0:0:0:
256,96,52434,1,0,3:0:0:0:
480,352,52598,6,0,P|470:317|498:238,1,112.500004291535,12|0,3:2|0:0,0:0:0:0:
491,245,52925,1,8,3:2:0:0:
406,376,53089,2,0,B|373:353|366:312|366:312|272:316|242:396,1,225.000008583069,2|0,3:2|3:0,0:0:0:0:
20,210,53909,5,10,0:0:0:0:
79,309,54073,1,8,0:0:0:0:
169,244,54237,1,8,0:0:0:0:
69,303,54401,5,10,0:0:0:0:
128,384,54565,1,8,0:0:0:0:
75,294,54729,1,8,0:0:0:0:
2,347,54893,5,8,0:0:0:0:
85,300,55057,1,8,3:2:0:0:
